osu file format v12

[General]
AudioFilename: 11 - Last Time(t pazolite Remix).mp3
AudioLeadIn: 0
PreviewTime: 109693
Countdown: 0
SampleSet: Normal
StackLeniency: 0.4
Mode: 0
LetterboxInBreaks: 1
WidescreenStoryboard: 1

[Editor]
Bookmarks: 9493,18493,29893,38293,49093,68293,91768,105493,129548,246043
DistanceSpacing: 1
BeatDivisor: 4
GridSize: 4

[Metadata]
Title:Last Time(t+pazolite Remix)
TitleUnicode:Last Time(t+pazolite Remix)
Artist:ALICE`S EMOTION
ArtistUnicode:ALICE`S EMOTION
Creator:OrangeNeKo
Version:EX.L4D
Source:Touhou
Tags:
BeatmapID:324879
BeatmapSetID:127763

[Difficulty]
HPDrainRate:7
CircleSize:4
OverallDifficulty:7
ApproachRate:9
SliderMultiplier:2
SliderTickRate:1

[Events]
//Background and Video events
0,0,"01 (110).jpg",0,0
//Break Periods
2,39748,53348
//Storyboard Layer 0 (Background)
//Storyboard Layer 1 (Fail)
//Storyboard Layer 2 (Pass)
//Storyboard Layer 3 (Foreground)
//Storyboard Sound Samples
//Background Colour Transformations
3,100,0,0,0

[TimingPoints]
-52,300,4,1,0,75,1,0
20348,-100,4,1,0,75,0,1
39548,-100,4,1,0,75,0,0
53948,-100,4,2,0,90,0,0
58748,-133.333333333333,4,2,0,90,0,0
77948,-133.333333333333,4,1,0,75,0,0
87548,-133.333333333333,4,1,0,50,0,0
89948,-100,4,1,0,75,0,0
91148,-100,4,1,0,75,0,1
99998,-133.333333333333,4,1,0,75,0,1
100298,-100,4,1,0,75,0,1
109148,-133.333333333333,4,1,0,75,0,0
110348,-100,4,1,0,75,0,1
129548,-100,4,1,0,75,0,0
187148,-100,4,1,0,75,0,1
205148,-133.333333333333,4,1,0,75,0,0
206348,-100,4,1,0,75,0,1
225548,-100,4,1,0,75,0,0

[Colours]
Combo1 : 255,255,128
Combo2 : 255,128,128
Combo3 : 128,255,255

[HitObjects]
152,136,1148,2,0,L|128:8,1,100,4|0,0:0|0:0,0:0:0:0:
268,268,1448,1,8,0:0:0:0:
172,240,1598,1,0,0:0:0:0:
76,204,1748,2,0,L|52:76,1,100
268,268,2048,6,0,P|280:332|280:372,1,100,8|0,0:0|0:0,0:0:0:0:
436,204,2348,2,0,L|460:76,1,100
224,16,2648,2,0,P|236:80|236:120,1,100,8|0,0:0|0:0,0:0:0:0:
56,280,2948,2,0,L|32:152,1,100,0|0,0:0|0:0,0:0:0:0:
224,368,3248,2,0,L|248:240,1,100,8|0,0:0|0:0,0:0:0:0:
320,336,3548,1,0,0:0:0:0:
296,216,3698,1,0,0:0:0:0:
144,304,3848,1,8,0:0:0:0:
208,200,3998,1,0,0:0:0:0:
272,96,4148,5,0,0:0:0:0:
384,232,4298,1,0,0:0:0:0:
448,128,4448,1,8,0:0:0:0:
296,216,4598,1,0,0:0:0:0:
272,96,4748,2,0,L|168:80,1,100
88,248,5048,2,0,P|80:172|68:116,1,100,8|0,0:0|0:0,0:0:0:0:
164,314,5348,1,0,0:0:0:0:
232,240,5498,1,0,0:0:0:0:
236,216,5573,1,0,0:0:0:0:
240,192,5648,1,8,0:0:0:0:
272,332,5798,5,0,0:0:0:0:
344,256,5948,2,0,P|416:260|464:264,1,100
264,164,6248,2,0,P|184:164|140:168,1,100,8|0,0:0|0:0,0:0:0:0:
332,56,6548,1,0,0:0:0:0:
416,152,6698,1,0,0:0:0:0:
344,256,6848,1,8,0:0:0:0:
264,164,6998,1,0,0:0:0:0:
332,56,7148,6,0,P|412:52|460:52,1,100
164,168,7448,2,0,P|244:164|292:164,1,100,8|0,0:0|0:0,0:0:0:0:
444,252,7748,2,0,P|364:256|316:256,1,100
276,364,8048,2,0,P|196:368|148:368,1,100,8|0,0:0|0:0,0:0:0:0:
88,256,8348,1,0,0:0:0:0:
80,356,8498,1,0,0:0:0:0:
196,164,8648,1,8,0:0:0:0:
188,264,8798,1,0,0:0:0:0:
92,156,8948,2,0,P|72:96|36:48,1,100
188,264,9248,2,0,P|216:184|252:140,1,100,8|0,0:0|0:0,0:0:0:0:
180,60,9548,5,2,0:0:0:0:
224,172,9698,1,2,0:0:0:0:
344,164,9848,1,2,0:0:0:0:
368,48,9998,1,2,0:0:0:0:
180,60,10148,1,0,0:0:0:0:
168,76,10448,1,2,0:0:0:0:
52,240,10748,6,0,P|40:168|24:104,1,100,4|0,0:0|0:0,0:0:0:0:
124,336,11048,2,0,P|216:324|272:324,1,100,8|0,0:0|0:0,0:0:0:0:
371,240,11348,5,0,0:0:0:0:
340,356,11498,1,0,0:0:0:0:
224,324,11648,1,8,0:0:0:0:
255,209,11798,1,0,0:0:0:0:
371,240,11948,2,0,L|492:224,1,100
240,112,12248,2,0,P|254:196|250:236,1,100,8|0,0:0|0:0,0:0:0:0:
472,228,12548,2,0,P|424:272|396:312,1,100
240,112,12848,2,0,L|119:92,1,100,8|0,0:0|0:0,0:0:0:0:
112,228,13148,5,0,0:0:0:0:
56,148,13298,1,0,0:0:0:0:
192,176,13448,1,8,0:0:0:0:
32,280,13598,1,0,0:0:0:0:
56,148,13748,2,0,P|64:64|64:16,1,100
168,308,14048,2,0,P|220:344|272:368,2,100,8|0|0,0:0|0:0|0:0,0:0:0:0:
112,228,14498,5,0,0:0:0:0:
108,200,14573,1,0,0:0:0:0:
104,172,14648,1,8,0:0:0:0:
156,88,14798,1,0,0:0:0:0:
256,148,14948,2,0,L|248:28,1,100
348,244,15248,2,0,P|436:232|468:224,1,100,8|0,0:0|0:0,0:0:0:0:
228,324,15548,2,0,P|192:240|168:204,1,100,0|0,0:0|0:0,0:0:0:0:
68,40,15848,2,0,P|140:80|168:92,1,100,8|0,0:0|0:0,0:0:0:0:
260,148,16148,5,0,0:0:0:0:
156,208,16298,1,0,0:0:0:0:
156,88,16448,1,8,0:0:0:0:
276,160,16598,5,0,0:0:0:0:
172,220,16748,2,0,P|168:156|152:96,1,100
236,372,17048,2,0,P|264:314|280:254,1,100,8|0,0:0|0:0,0:0:0:0:
436,172,17348,2,0,P|378:200|318:216,1,100,0|0,0:0|0:0,0:0:0:0:
236,372,17648,2,0,P|172:368|112:352,1,100,8|0,0:0|0:0,0:0:0:0:
8,284,17948,2,0,L|132:260,1,100
224,240,18248,1,8,0:0:0:0:
140,152,18398,1,0,0:0:0:0:
108,264,18548,5,4,0:0:0:0:
188,352,18698,1,4,0:0:0:0:
340,216,18848,1,0,0:0:0:0:
304,328,18998,1,4,0:0:0:0:
224,240,19148,1,0,0:0:0:0:
212,212,19223,1,0,0:0:0:0:
192,192,19298,1,0,0:0:0:0:
168,176,19373,1,0,0:0:0:0:
140,168,19448,5,0,0:0:0:0:
124,144,19523,1,0,0:0:0:0:
124,116,19598,1,0,0:0:0:0:
136,88,19673,1,0,0:0:0:0:
156,68,19748,6,0,L|204:52,3,50
56,192,20048,2,0,L|44:132,3,50
68,260,20348,2,0,P|156:256|192:264,1,100,4|0,0:0|0:0,0:0:0:0:
260,336,20648,1,8,0:0:0:0:
364,212,20798,1,0,0:0:0:0:
364,212,20873,1,0,0:0:0:0:
364,212,20948,2,0,P|360:148|364:108,1,100,0|0,0:0|0:0,0:0:0:0:
288,32,21248,5,8,0:0:0:0:
208,172,21398,1,0,0:0:0:0:
364,212,21548,1,0,0:0:0:0:
200,76,21698,5,0,0:0:0:0:
416,120,21848,1,8,0:0:0:0:
276,256,21998,1,0,0:0:0:0:
200,76,22148,2,0,P|116:68|76:60,1,100
276,256,22448,2,0,P|260:172|248:136,1,100,8|0,0:0|0:0,0:0:0:0:
312,64,22748,5,0,0:0:0:0:
400,144,22898,1,2,0:0:0:0:
276,256,23048,1,8,0:0:0:0:
220,96,23198,1,2,0:0:0:0:
400,144,23348,1,2,0:0:0:0:
276,256,23498,1,0,0:0:0:0:
276,256,23573,1,0,0:0:0:0:
276,256,23648,1,8,0:0:0:0:
300,160,23798,6,0,P|384:144|420:144,2,100,2|0|2,0:0|0:0|0:0,0:0:0:0:
196,192,24248,2,0,B|120:188|120:188|72:168|72:168|-24:164,1,200,8|0,0:0|0:0,0:0:0:0:
164,296,24698,1,0,0:0:0:0:
196,192,24848,2,0,P|188:120|188:76,1,100,8|0,0:0|0:0,0:0:0:0:
260,344,25148,2,0,L|296:260|308:232,1,100,0|0,0:0|0:0,0:0:0:0:
164,296,25448,1,8,0:0:0:0:
128,140,25598,1,0,0:0:0:0:
128,140,25673,1,0,0:0:0:0:
128,140,25748,2,0,P|112:196|76:244,1,100
232,72,26048,5,8,0:0:0:0:
128,140,26198,1,0,0:0:0:0:
236,192,26348,1,0,0:0:0:0:
248,88,26498,5,0,0:0:0:0:
144,156,26648,1,8,0:0:0:0:
252,208,26798,1,0,0:0:0:0:
356,140,26948,1,0,0:0:0:0:
148,276,27098,2,0,L|244:212,1,100,0|8,0:0|0:0,0:0:0:0:
360,260,27398,5,0,0:0:0:0:
256,328,27548,1,0,0:0:0:0:
148,276,27698,1,2,0:0:0:0:
144,156,27848,1,8,0:0:0:0:
248,88,27998,1,2,0:0:0:0:
356,140,28148,1,2,0:0:0:0:
360,260,28298,1,0,0:0:0:0:
360,260,28373,1,0,0:0:0:0:
360,260,28448,1,8,0:0:0:0:
148,276,28598,6,0,P|156:216|128:144,1,100,2|0,0:0|0:0,0:0:0:0:
64,88,28898,1,2,0:0:0:0:
64,88,28973,1,8,0:0:0:0:
148,180,29123,1,0,0:0:0:0:
148,180,29198,2,0,B|232:176|232:176|268:200|268:200|364:192,1,200,8|2,0:0|0:0,0:0:0:0:
380,72,29648,1,2,0:0:0:0:
256,32,29798,1,2,0:0:0:0:
216,156,29948,2,0,L|240:276,1,100,4|0,0:0|0:0,0:0:0:0:
340,328,30248,1,8,0:0:0:0:
236,256,30398,5,0,0:0:0:0:
200,272,30473,1,0,0:0:0:0:
168,296,30548,2,0,P|108:296|32:312,1,100
0,100,30848,2,0,L|116:132,1,100,8|0,0:0|0:0,0:0:0:0:
332,224,31148,2,0,P|280:236|204:276,1,100,0|0,0:0|0:0,0:0:0:0:
320,344,31448,5,8,0:0:0:0:
416,280,31598,1,0,0:0:0:0:
252,160,31748,2,0,P|236:228|236:288,1,100
436,88,32048,2,0,P|368:76|308:72,1,100,8|0,0:0|0:0,0:0:0:0:
252,160,32348,5,0,0:0:0:0:
216,44,32498,1,2,0:0:0:0:
132,132,32648,1,8,0:0:0:0:
164,248,32798,1,2,0:0:0:0:
100,16,32948,1,2,0:0:0:0:
32,144,33098,1,0,0:0:0:0:
32,144,33173,1,0,0:0:0:0:
32,144,33248,2,0,L|144:132,1,100,8|2,0:0|0:0,0:0:0:0:
264,256,33548,2,0,L|152:244,1,100,0|2,0:0|0:0,0:0:0:0:
48,360,33848,2,0,L|248:336,1,200,8|2,0:0|0:0,0:0:0:0:
396,100,34448,6,0,P|408:156|396:212,1,100,8|0,0:0|0:0,0:0:0:0:
488,280,34748,1,2,0:0:0:0:
356,352,34898,1,0,0:0:0:0:
360,332,34973,1,0,0:0:0:0:
364,312,35048,1,8,0:0:0:0:
324,156,35198,5,0,0:0:0:0:
400,196,35348,1,2,0:0:0:0:
268,268,35498,1,0,0:0:0:0:
272,248,35573,1,0,0:0:0:0:
276,228,35648,1,8,0:0:0:0:
264,68,35798,2,0,L|284:-40,1,100,0|2,0:0|0:0,0:0:0:0:
192,156,36098,5,0,0:0:0:0:
168,188,36173,1,0,0:0:0:0:
132,204,36248,1,8,0:0:0:0:
92,196,36323,1,0,0:0:0:0:
60,176,36398,2,0,L|40:64,2,100,0|2|2,0:0|0:0|0:0,0:0:0:0:
156,328,36848,2,0,P|220:328|268:344,1,100,8|0,0:0|0:0,0:0:0:0:
268,352,37073,2,0,L|328:348,1,50,0|2,0:0|0:0,0:0:0:0:
412,244,37298,5,2,0:0:0:0:
388,108,37448,1,2,0:0:0:0:
284,204,37598,1,2,0:0:0:0:
248,68,37748,1,2,0:0:0:0:
174,221,37898,5,2,0:0:0:0:
189,247,37973,1,0,0:0:0:0:
212,266,38048,1,0,0:0:0:0:
241,277,38123,1,0,0:0:0:0:
271,277,38198,5,0,0:0:0:0:
299,266,38273,1,0,0:0:0:0:
322,247,38348,1,4,0:0:0:0:
337,221,38423,1,0,0:0:0:0:
342,192,38498,5,4,0:0:0:0:
337,162,38573,1,0,0:0:0:0:
322,136,38648,1,4,0:0:0:0:
299,117,38723,1,0,0:0:0:0:
271,106,38798,5,4,0:0:0:0:
241,106,38873,1,0,0:0:0:0:
212,117,38948,1,4,0:0:0:0:
189,136,39023,1,0,0:0:0:0:
174,162,39098,5,0,0:0:0:0:
169,192,39173,1,0,0:0:0:0:
180,240,39248,2,0,L|128:268,3,50
216,268,39548,1,4,0:0:0:0:
256,192,53948,12,0,58148,0:0:0:0:
372,112,58448,5,2,0:0:0:0:
372,112,58748,2,0,L|384:208,1,75.0000028610231,4|0,0:0|0:0,0:0:0:0:
300,224,59048,2,0,P|300:176|292:132,1,75.0000028610231,2|0,0:0|0:0,0:0:0:0:
244,76,59348,1,0,0:0:0:0:
200,176,59498,1,0,0:0:0:0:
300,224,59648,1,2,0:0:0:0:
372,112,59798,1,0,0:0:0:0:
372,112,59873,1,0,0:0:0:0:
372,112,59948,6,0,P|308:112|276:116,1,75.0000028610231
124,168,60248,2,0,L|212:176,1,75.0000028610231,2|0,0:0|0:0,0:0:0:0:
376,252,60548,2,0,P|308:256|272:264,1,75.0000028610231
376,344,60848,1,2,0:0:0:0:
456,220,60998,1,0,0:0:0:0:
376,176,61148,2,0,P|372:216|380:276,1,75.0000028610231
260,352,61448,6,0,P|152:320|112:320,1,150.000005722046,2|0,0:0|0:0,0:0:0:0:
56,252,61898,2,0,L|72:168,2,75.0000028610231,0|2|0,0:0|0:0|0:0,0:0:0:0:
100,48,62348,2,0,P|116:92|148:136,1,75.0000028610231
288,96,62648,2,0,P|244:112|200:144,1,75.0000028610231,2|0,0:0|0:0,0:0:0:0:
200,264,62948,2,0,P|184:220|152:176,1,75.0000028610231,0|0,0:0|0:0,0:0:0:0:
256,28,63248,2,0,P|272:72|304:116,1,75.0000028610231,2|0,0:0|0:0,0:0:0:0:
364,144,63548,2,0,P|376:212|360:312,1,150.000005722046,0|2,0:0|0:0,0:0:0:0:
464,220,63998,5,0,0:0:0:0:
368,292,64148,2,0,P|324:292|272:296,1,75.0000028610231
220,348,64448,1,2,0:0:0:0:
172,272,64598,1,0,0:0:0:0:
172,272,64673,1,0,0:0:0:0:
172,272,64748,2,0,L|164:184,1,75.0000028610231
220,48,65048,2,0,L|212:136,1,75.0000028610231,2|0,0:0|0:0,0:0:0:0:
124,120,65348,2,0,P|80:104|24:96,1,75.0000028610231,0|0,0:0|0:0,0:0:0:0:
324,216,65648,2,0,P|280:200|224:192,1,75.0000028610231,2|0,0:0|0:0,0:0:0:0:
100,284,65948,6,0,P|148:272|204:280,1,75.0000028610231,0|0,0:0|0:0,0:0:0:0:
396,200,66248,2,0,P|340:212|300:224,1,75.0000028610231,2|0,0:0|0:0,0:0:0:0:
376,120,66548,1,0,0:0:0:0:
472,180,66698,1,0,0:0:0:0:
416,280,66848,1,2,0:0:0:0:
316,220,66998,1,0,0:0:0:0:
196,164,67148,6,0,L|96:192,1,75.0000028610231
244,240,67448,2,0,L|344:212,1,75.0000028610231,2|0,0:0|0:0,0:0:0:0:
416,280,67748,1,0,0:0:0:0:
308,348,67898,1,0,0:0:0:0:
244,240,68048,1,2,0:0:0:0:
352,172,68198,1,0,0:0:0:0:
244,240,68348,2,0,B|200:200|144:260|88:204,1,150.000005722046,4|8,0:0|0:0,0:0:0:0:
60,128,68798,6,0,L|40:84,2,37.5000014305115
148,84,69098,1,0,0:0:0:0:
188,172,69248,2,0,L|168:248,1,75.0000028610231,8|0,0:0|0:0,0:0:0:0:
276,352,69548,2,0,L|256:276,1,75.0000028610231,0|0,0:0|0:0,0:0:0:0:
320,172,69848,1,8,0:0:0:0:
256,280,69998,1,0,0:0:0:0:
188,172,70148,1,0,0:0:0:0:
344,256,70298,2,0,L|436:256,2,75.0000028610231,0|8|0,0:0|0:0|0:0,0:0:0:0:
232,196,70748,6,0,B|212:232|212:232|196:268|208:308|208:308|224:344,1,150.000005722046,0|8,0:0|0:0,0:0:0:0:
48,260,71198,2,0,L|140:264,1,75.0000028610231
216,124,71498,2,0,P|228:176|236:216,1,75.0000028610231,0|8,0:0|0:0,0:0:0:0:
304,352,71798,1,0,0:0:0:0:
304,352,71948,2,0,P|316:288|324:264,1,75.0000028610231
360,164,72248,1,8,0:0:0:0:
420,252,72398,1,0,0:0:0:0:
320,280,72548,1,0,0:0:0:0:
360,164,72698,2,0,L|384:84,2,75.0000028610231,0|8|0,0:0|0:0|0:0,0:0:0:0:
204,284,73148,6,0,P|240:220|256:200,1,75.0000028610231
180,56,73448,2,0,P|216:120|232:140,1,75.0000028610231,8|0,0:0|0:0,0:0:0:0:
240,220,73748,1,0,0:0:0:0:
352,86,73898,1,0,0:0:0:0:
180,56,74048,1,8,0:0:0:0:
312,168,74198,5,0,0:0:0:0:
272,40,74348,1,0,0:0:0:0:
188,148,74498,1,0,0:0:0:0:
312,168,74648,2,0,P|364:172|408:184,1,75.0000028610231,8|0,0:0|0:0,0:0:0:0:
160,80,74948,2,0,P|184:140|196:168,1,75.0000028610231
340,52,75248,2,0,B|364:56|248:36,1,75.0000028610231,8|0,0:0|0:0,0:0:0:0:
176,224,75548,6,0,P|184:176|192:140,1,75.0000028610231
68,0,75848,2,0,P|76:48|84:84,1,75.0000028610231,8|0,0:0|0:0,0:0:0:0:
56,192,76148,1,0,0:0:0:0:
176,224,76298,1,0,0:0:0:0:
208,104,76448,1,8,0:0:0:0:
176,224,76598,1,0,0:0:0:0:
252,316,76748,2,0,L|352:328,1,75.0000028610231
508,192,77048,2,0,L|408:180,1,75.0000028610231,8|0,0:0|0:0,0:0:0:0:
260,68,77348,6,0,L|160:56,1,75.0000028610231
4,192,77648,2,0,L|104:204,1,75.0000028610231,8|0,0:0|0:0,0:0:0:0:
252,316,77948,5,4,0:0:0:0:
260,68,79148,1,4,0:0:0:0:
181,291,80348,5,4,0:0:0:0:
330,92,81548,1,4,0:0:0:0:
138,230,82748,5,4,0:0:0:0:
373,153,83048,1,8,0:0:0:0:
137,156,83348,5,4,0:0:0:0:
374,227,83648,1,8,0:0:0:0:
179,94,83948,5,4,0:0:0:0:
332,289,84248,1,8,0:0:0:0:
249,68,84548,5,4,0:0:0:0:
262,315,84848,1,8,0:0:0:0:
321,86,85148,6,0,L|372:4,1,75.0000028610231,4|0,0:0|0:0,0:0:0:0:
190,297,85448,2,0,L|140:380,1,75.0000028610231,8|0,0:0|0:0,0:0:0:0:
370,143,85748,6,0,L|458:104,1,75.0000028610231,4|0,0:0|0:0,0:0:0:0:
141,240,86048,2,0,L|53:279,1,75.0000028610231,8|0,0:0|0:0,0:0:0:0:
377,217,86348,6,0,L|472:236,1,75.0000028610231,4|0,0:0|0:0,0:0:0:0:
134,166,86648,2,0,L|39:147,1,75.0000028610231,8|0,0:0|0:0,0:0:0:0:
341,282,86948,6,0,L|407:352,1,75.0000028610231,4|0,0:0|0:0,0:0:0:0:
170,101,87248,2,0,L|104:31,1,75.0000028610231,8|0,0:0|0:0,0:0:0:0:
256,192,87548,2,0,L|256:216,23,18.7500007152558
256,232,88448,2,0,L|256:244,47,9.37500035762788
256,256,89348,5,2,0:0:0:0:
256,272,89498,1,2,0:0:0:0:
256,280,89648,1,2,0:0:0:0:
256,288,89798,1,2,0:0:0:0:
152,180,89948,1,0,0:0:0:0:
256,288,90098,1,0,0:0:0:0:
360,180,90248,1,8,0:0:0:0:
152,180,90398,5,0,0:0:0:0:
152,180,90473,1,0,0:0:0:0:
152,180,90548,1,8,0:0:0:0:
360,180,90698,1,0,0:0:0:0:
256,288,90848,1,8,0:0:0:0:
256,264,90923,1,0,0:0:0:0:
256,240,90998,1,0,0:0:0:0:
256,216,91073,1,0,0:0:0:0:
256,192,91148,6,0,L|256:64,1,100,4|0,0:0|0:0,0:0:0:0:
124,4,91448,2,0,P|100:76|76:112,1,100,8|0,0:0|0:0,0:0:0:0:
316,252,91748,2,0,P|274:188|241:160,1,100,0|0,0:0|0:0,0:0:0:0:
496,40,92048,2,0,L|480:156,1,100,8|0,0:0|0:0,0:0:0:0:
316,252,92348,5,2,0:0:0:0:
336,153,92498,1,0,0:0:0:0:
414,272,92648,1,8,0:0:0:0:
435,174,92798,1,0,0:0:0:0:
316,252,92948,5,2,0:0:0:0:
344,112,93098,1,0,0:0:0:0:
456,278,93248,1,8,0:0:0:0:
482,139,93398,1,0,0:0:0:0:
316,252,93548,2,0,P|232:260|184:272,1,100,0|0,0:0|0:0,0:0:0:0:
28,192,93848,2,0,P|80:184|152:196,1,100,8|0,0:0|0:0,0:0:0:0:
276,24,94148,6,0,L|260:148,1,100
236,360,94448,2,0,L|252:236,1,100,8|0,0:0|0:0,0:0:0:0:
391,293,94748,6,0,L|292:217,1,100,2|0,0:0|0:0,0:0:0:0:
120,90,95048,2,0,L|219:166,1,100,8|0,0:0|0:0,0:0:0:0:
411,125,95348,6,0,L|296:173,1,100,0|0,0:0|0:0,0:0:0:0:
100,258,95648,2,0,L|215:210,1,100,8|0,0:0|0:0,0:0:0:0:
8,296,95948,5,0,0:0:0:0:
140,352,96098,1,0,0:0:0:0:
64,168,96248,1,8,0:0:0:0:
192,220,96398,1,0,0:0:0:0:
324,272,96548,2,0,L|428:260,1,100,0|0,0:0|0:0,0:0:0:0:
264,48,96848,2,0,L|224:148,1,100,8|0,0:0|0:0,0:0:0:0:
224,284,97148,6,0,L|328:272,1,100,2|0,0:0|0:0,0:0:0:0:
288,100,97448,2,0,L|184:112,1,100,8|0,0:0|0:0,0:0:0:0:
324,272,97748,2,0,L|428:284,1,100,2|0,0:0|0:0,0:0:0:0:
188,112,98048,2,0,L|84:100,1,100,8|0,0:0|0:0,0:0:0:0:
124,296,98348,6,0,L|228:284,1,100,2|0,0:0|0:0,0:0:0:0:
388,88,98648,2,0,L|284:100,1,100,8|0,0:0|0:0,0:0:0:0:
152,60,98948,2,0,L|164:164,1,100,2|0,0:0|0:0,0:0:0:0:
360,324,99248,2,0,L|348:220,1,100,8|0,0:0|0:0,0:0:0:0:
152,60,99548,5,2,0:0:0:0:
124,196,99698,1,0,0:0:0:0:
220,312,99848,1,8,0:0:0:0:
360,324,99998,2,0,B|400:300|416:272|416:272|416:228|400:168,1,150.000005722046,0|2,0:0|0:0,0:0:0:0:
406,189,100448,1,2,0:0:0:0:
404,179,100598,1,2,0:0:0:0:
284,228,100748,6,0,P|236:168|200:144,1,100,4|0,0:0|0:0,0:0:0:0:
460,80,101048,2,0,P|408:104|368:132,1,100,8|0,0:0|0:0,0:0:0:0:
280,328,101348,2,0,P|288:268|280:220,1,100,0|0,0:0|0:0,0:0:0:0:
220,56,101648,2,0,P|212:116|220:164,1,100,8|0,0:0|0:0,0:0:0:0:
164,276,101948,5,2,0:0:0:0:
280,328,102098,1,0,0:0:0:0:
332,208,102248,1,8,0:0:0:0:
216,156,102398,1,0,0:0:0:0:
308,272,102548,5,2,0:0:0:0:
428,184,102698,1,0,0:0:0:0:
336,64,102848,1,8,0:0:0:0:
216,156,102998,1,0,0:0:0:0:
364,176,103148,6,0,L|464:188,1,100
480,288,103448,1,8,0:0:0:0:
388,332,103598,1,0,0:0:0:0:
296,368,103748,2,0,P|292:316|316:256,1,100
124,341,104048,2,0,P|152:288|168:232,1,100,8|0,0:0|0:0,0:0:0:0:
156,148,104348,5,2,0:0:0:0:
308,272,104498,1,0,0:0:0:0:
124,341,104648,1,8,0:0:0:0:
156,148,104798,1,0,0:0:0:0:
268,164,104948,5,0,0:0:0:0:
200,251,105098,1,0,0:0:0:0:
156,148,105248,1,8,0:0:0:0:
200,252,105398,1,0,0:0:0:0:
380,180,105548,2,0,P|380:124|404:68,1,100,0|0,0:0|0:0,0:0:0:0:
340,368,105848,2,0,L|300:252,1,100,8|0,0:0|0:0,0:0:0:0:
300,68,106148,6,0,L|260:184,1,100,0|0,0:0|0:0,0:0:0:0:
200,252,106448,2,0,P|124:248|76:252,1,100,8|0,0:0|0:0,0:0:0:0:
76,68,106748,2,0,P|144:96|196:136,1,100,2|0,0:0|0:0,0:0:0:0:
208,352,107048,2,0,P|198:279|206:214,1,100,8|0,0:0|0:0,0:0:0:0:
392,100,107348,2,0,P|333:144|273:169,1,100,2|0,0:0|0:0,0:0:0:0:
120,308,107648,2,0,P|178:263|238:238,1,100,8|0,0:0|0:0,0:0:0:0:
460,228,107948,6,0,P|392:220|344:220,1,100,2|0,0:0|0:0,0:0:0:0:
52,156,108248,2,0,P|120:164|168:164,1,100,8|0,0:0|0:0,0:0:0:0:
320,364,108548,2,0,P|296:296|288:256,1,100,2|0,0:0|0:0,0:0:0:0:
192,20,108848,2,0,P|216:88|224:128,1,100,8|0,0:0|0:0,0:0:0:0:
290,268,109148,5,2,0:0:0:0:
305,124,109298,1,0,0:0:0:0:
172,183,109448,1,8,0:0:0:0:
339,200,109598,5,0,0:0:0:0:
221,115,109748,1,2,0:0:0:0:
206,259,109898,1,0,0:0:0:0:
392,136,110048,5,8,0:0:0:0:
290,268,110198,1,0,0:0:0:0:
221,115,110348,2,0,B|156:108|156:108|100:80|100:80|20:72,1,200,4|8,0:0|0:0,0:0:0:0:
28,72,110798,1,0,0:0:0:0:
96,172,110948,2,0,P|76:227|76:279,1,100
256,384,111248,2,0,P|252:324|240:264,1,100,8|0,0:0|0:0,0:0:0:0:
228,168,111548,5,0,0:0:0:0:
136,248,111698,1,0,0:0:0:0:
244,284,111848,1,8,0:0:0:0:
248,166,111998,5,0,0:0:0:0:
143,229,112148,1,0,0:0:0:0:
244,284,112298,1,8,0:0:0:0:
268,168,112448,5,8,0:0:0:0:
352,336,112598,1,0,0:0:0:0:
376,220,112748,2,0,P|388:144|404:100,1,100
484,196,113048,1,8,0:0:0:0:
352,336,113198,2,0,P|296:332|244:332,1,100
44,232,113498,2,0,P|100:228|152:228,1,100,0|8,0:0|0:0,0:0:0:0:
248,284,113798,1,0,0:0:0:0:
268,168,113948,2,0,L|292:68,1,100
368,308,114248,2,0,P|364:224|356:188,1,100,8|0,0:0|0:0,0:0:0:0:
268,168,114548,5,0,0:0:0:0:
368,308,114698,1,8,0:0:0:0:
436,152,114848,1,8,0:0:0:0:
268,168,114998,2,0,L|52:188,1,200,0|0,0:0|0:0,0:0:0:0:
168,328,115448,5,8,0:0:0:0:
236,172,115598,1,0,0:0:0:0:
68,188,115748,1,0,0:0:0:0:
168,328,115898,1,0,0:0:0:0:
160,228,116048,2,0,L|148:88,1,100,8|0,0:0|0:0,0:0:0:0:
260,268,116348,6,0,P|348:256|392:264,1,100,0|0,0:0|0:0,0:0:0:0:
252,116,116648,2,0,P|164:128|120:120,1,100,8|0,0:0|0:0,0:0:0:0:
360,256,116948,2,0,P|396:312|436:340,1,100
152,128,117248,2,0,P|116:72|76:44,1,100,8|0,0:0|0:0,0:0:0:0:
8,256,117548,6,0,L|124:236,1,100
300,84,117848,2,0,L|184:104,1,100,8|0,0:0|0:0,0:0:0:0:
212,300,118148,2,0,L|328:280,1,100
504,128,118448,2,0,L|388:148,1,100,8|0,0:0|0:0,0:0:0:0:
312,184,118748,5,2,0:0:0:0:
300,84,118898,1,0,0:0:0:0:
236,248,119048,1,8,0:0:0:0:
224,148,119198,1,0,0:0:0:0:
312,184,119348,1,2,0:0:0:0:
148,208,119498,1,0,0:0:0:0:
324,284,119648,1,8,0:0:0:0:
160,308,119798,1,0,0:0:0:0:
44,208,119948,2,0,P|56:120|8:24,1,200,4|8,0:0|0:0,0:0:0:0:
148,208,120398,5,0,0:0:0:0:
192,116,120548,2,0,L|236:16,1,100
320,256,120848,2,0,P|292:208|280:132,1,100,8|0,0:0|0:0,0:0:0:0:
332,80,121148,1,0,0:0:0:0:
420,176,121298,1,0,0:0:0:0:
320,256,121448,1,8,0:0:0:0:
236,160,121598,1,0,0:0:0:0:
320,256,121748,1,0,0:0:0:0:
192,284,121898,1,8,0:0:0:0:
320,256,122048,2,0,L|456:284,1,100,8|0,0:0|0:0,0:0:0:0:
236,160,122348,6,0,L|100:188,1,100,0|0,0:0|0:0,0:0:0:0:
88,280,122648,1,8,0:0:0:0:
4,208,122798,1,0,0:0:0:0:
4,208,122873,1,0,0:0:0:0:
4,208,122948,1,0,0:0:0:0:
56,112,123098,2,0,L|192:84,1,100,0|8,0:0|0:0,0:0:0:0:
236,160,123398,5,0,0:0:0:0:
88,280,123548,1,0,0:0:0:0:
52,92,123698,1,0,0:0:0:0:
164,224,123848,5,8,0:0:0:0:
232,64,123998,1,0,0:0:0:0:
152,124,124148,1,0,0:0:0:0:
256,272,124298,1,8,0:0:0:0:
324,104,124448,2,0,P|392:80|448:68,1,100,8|0,0:0|0:0,0:0:0:0:
504,160,124748,2,0,P|468:240|464:284,1,100
280,368,125048,2,0,L|252:260,1,100,8|0,0:0|0:0,0:0:0:0:
204,76,125348,5,0,0:0:0:0:
228,172,125498,1,0,0:0:0:0:
160,248,125648,1,8,0:0:0:0:
36,176,125798,2,0,L|148:148,1,100
204,76,126098,5,0,0:0:0:0:
332,200,126248,1,8,0:0:0:0:
160,248,126398,1,0,0:0:0:0:
304,104,126548,5,0,0:0:0:0:
132,152,126698,1,0,0:0:0:0:
260,276,126848,1,8,0:0:0:0:
204,76,126998,1,0,0:0:0:0:
332,200,127148,2,0,P|396:232|432:260,1,100
256,376,127448,6,0,P|256:300|264:248,1,100,8|0,0:0|0:0,0:0:0:0:
132,152,127748,2,0,P|72:200|28:220,1,100
304,104,128048,2,0,P|364:56|408:36,1,100,8|0,0:0|0:0,0:0:0:0:
344,300,128348,5,2,0:0:0:0:
332,200,128498,1,0,0:0:0:0:
192,356,128648,1,8,0:0:0:0:
214,257,128798,1,0,0:0:0:0:
144,52,128948,5,2,0:0:0:0:
132,152,129098,1,0,0:0:0:0:
214,257,129248,1,0,0:0:0:0:
214,257,129323,1,0,0:0:0:0:
214,257,129398,1,0,0:0:0:0:
214,257,129473,1,0,0:0:0:0:
214,257,129548,1,4,0:0:0:0:
