osu file format v5

[General]
AudioFilename: Rozen Maiden - Seishoujo Ryouiki.mp3
AudioLeadIn: 0
PreviewTime: -1
Countdown: 1
SampleSet: Normal
StackLeniency: 0.7
Mode: 0
LetterboxInBreaks: 1
EditorBookmarks: 16575,37816,65953,93757,105473,116531,154962,188246,215836,253281

[Metadata]
Title:Seishoujo Ryouiki
Artist:ALI Project
Creator:MaxwellDemon
Version:Normal
Source:
Tags:

[Difficulty]
HPDrainRate:2
CircleSize:5
OverallDifficulty:3
SliderMultiplier:1.4
SliderTickRate:2

[Events]
//Background and Video events
0,0,"61.jpg"
//Break Periods
2,97221,104779
2,198827,215144
//Storyboard Layer 0 (Background)
//Storyboard Layer 1 (Failing)
//Storyboard Layer 2 (Passing)
//Storyboard Layer 3 (Foreground)
//Storyboard Sound Samples
//Background Colour Transformations
3,100,163,162,255

[TimingPoints]
1085,437.956204379562,4,1,0,100

[Colours]
Combo1 : 132,0,151
Combo2 : 3,184,3
Combo3 : 0,83,206
Combo4 : 250,5,5

[HitObjects]
120,112,16851,1,0
200,112,17289,1,0
280,112,17727,1,0
360,112,18165,1,0
440,112,18603,2,0,B|544:216|391:362|256:344|152:192,1,490
120,192,20355,1,0
80,120,20793,5,0
120,120,21012,1,0
160,120,21230,1,0
240,120,21668,1,0
296,56,22106,1,0
352,112,22544,2,0,B|432:120|440:208,1,140
400,280,23420,5,0
360,296,23639,1,0
320,280,23858,2,0,B|356:197|300:165|252:149,1,140
248,136,24515,2,0,B|184:144|176:176,1,70
128,224,25172,5,0
144,304,25610,1,0
64,336,26048,1,0
48,248,26486,1,0
48,168,26924,2,0,B|48:96,1,70
72,72,27362,2,0,B|136:8,1,70
144,48,27800,2,0,B|312:48,1,140
368,88,28676,5,0
400,112,28895,1,0
408,152,29114,2,0,B|392:216|336:272|232:160,1,210
208,184,29990,2,6,B|208:280,2,70
208,144,30647,6,0,B|208:40,4,70
248,144,31741,2,0,B|256:80|344:80|360:168|360:160,1,140
400,208,32617,5,0
448,280,33055,1,0
368,312,33493,2,4,B|280:352|259:295|240:248,1,140
224,200,34369,1,6
168,256,34807,1,0
104,272,35136,1,0
64,224,35464,1,0
56,184,35683,1,4
136,88,36340,5,4
176,88,36559,1,4
240,80,36887,1,4
296,56,37216,1,0
328,32,37435,1,6
352,152,38092,6,0,B|400:88|480:168,1,140
456,200,38749,2,0,B|384:224|288:224|200:168|200:112,1,280
192,88,39844,2,0,B|184:16|307:-36|320:112,1,210
312,128,40720,2,0,B|320:218|240:248,1,140
168,240,41595,6,0,B|8:240,1,140
32,200,42252,2,4,B|40:128|112:72|256:216,1,280
280,232,43347,2,0,B|352:240|400:128|320:40|232:32|168:32,1,350
272,40,45099,5,0
232,32,45318,2,4,B|363:117|122:199|280:344,1,350
336,280,46851,1,0
352,240,47070,2,0,B|379:139|456:232,1,140
256,192,47946,12,6,51668
152,80,52106,5,0
112,152,52544,2,4,B|176:216|296:96|400:192,1,280
400,256,53858,2,0,B|336:368|192:360|4:309|232:216,1,420
288,208,55610,6,0,B|288:48,1,140
248,64,56267,2,0,B|160:32|136:152|24:112,1,210
80,200,57362,1,0
112,224,57581,1,0
152,224,57800,1,0
192,208,58019,2,4,B|194:157|289:134|272:240,1,140
352,200,58895,5,0
336,280,59333,1,0
264,240,59771,2,0,B|225:136|171:143|152:264,1,210
88,200,60866,1,0
64,160,61084,1,0
72,120,61303,1,0
96,88,61522,2,0,B|160:1|232:64,1,140
224,136,62398,2,4,B|336:160|336:304,1,210
256,192,63274,12,6,65464
144,104,65902,2,0,B|224:56|360:176,1,210
376,136,66778,2,4,B|528:198|248:270|432:360,1,280
464,280,68092,1,0
480,200,68530,1,0
440,120,68968,1,0
368,168,69406,6,0,B|368:240,1,70
352,280,69844,2,0,B|312:360|232:368|160:312,1,210
136,312,70720,2,4,B|16:304|80:216,1,140
112,152,71595,1,0
184,104,72033,1,0
264,72,72471,1,0
304,144,72909,6,0,B|304:216,1,70
304,256,73347,2,0,B|208:256,1,70
192,256,73785,1,0
88,120,74661,2,0,B|88:40,1,70
128,48,75099,2,0,B|128:120,1,70
128,117,75537,1,0
256,192,76413,12,0,77289
144,80,77727,1,0
224,80,78165,2,2,B|400:80,1,140
408,80,78822,1,0
408,120,79041,2,2,B|248:120,1,140
264,160,79698,1,0
264,200,79917,2,0,B|368:200,1,70
376,200,80355,2,0,B|472:200,2,70
376,160,81012,2,0,B|464:160,6,70
376,120,82544,6,4,B|320:120,4,35
376,80,83201,5,0
336,80,83420,2,0,B|240:72|240:256,1,210
240,280,84296,2,0,B|152:280,1,70
128,280,84734,1,0
96,256,84953,1,0
88,216,85172,2,0,B|80:152|176:96,1,140
240,96,86048,5,0
280,96,86267,1,0
320,96,86486,1,0
352,64,86705,2,0,B|352:144,1,70
360,216,87362,2,4,B|424:192|480:280,1,140
392,280,88238,2,0,B|312:280,6,70
240,152,89990,6,0,B|176:184|72:184|32:136,1,210
40,104,90866,1,0
64,72,91084,1,0
104,64,91303,1,0
184,88,91741,6,0,B|297:18|376:136,1,210
376,160,92617,2,0,B|312:208,1,70
344,232,93055,2,0,B|280:280,1,70
264,304,93493,1,0
304,304,93712,2,0,B|384:240,1,70
400,240,94150,2,4,B|464:144|368:48|240:88|184:152,1,350
168,224,95683,2,4,B|240:304|344:312|432:256|448:72,1,420
200,96,106194,5,2
136,152,106632,1,0
208,184,107070,1,0
288,168,107508,2,4,B|372:203|280:280,3,140
200,256,109260,2,0,B|200:352,2,70
256,192,110136,12,0,112325
192,136,112763,1,6
128,80,113201,1,4
208,48,113639,1,4
256,88,113968,1,0
304,128,114296,1,4
344,136,114515,1,4
256,192,114953,12,0,116267
336,288,116924,2,0,B|464:176,1,140
416,160,117581,2,4,B|346:117|245:79|194:141|168:192,1,280
160,224,118676,2,0,B|264:336|344:256,1,210
336,216,119552,2,4,B|448:203|352:120,1,140
296,72,120428,6,0,B|208:72,1,70
224,112,120866,2,0,B|224:224|152:280|32:184,1,280
80,112,122179,1,0
120,96,122398,1,0
152,72,122617,1,0
192,64,122836,2,4,B|280:24|344:80,1,140
440,120,123931,5,0
440,160,124150,2,4,B|352:88|240:184|88:104,1,350
80,192,125683,2,0,B|106:384|184:200,1,210
256,192,126778,12,4,130501
160,128,130939,5,0
208,200,131376,2,4,B|401:142|134:95|392:40,1,280
344,112,132690,2,0,B|360:24|496:0|568:168|320:280,1,420
264,224,134442,2,0,B|208:304|256:360,1,140
208,360,135099,2,4,B|148:281|296:248|208:152,1,210
160,112,136194,6,0,B|232:38|280:144,1,140
296,160,136851,2,0,B|332:103|370:219|424:128,1,140
432,56,137727,1,0
344,48,138165,1,0
280,104,138603,2,4,B|241:208|187:201|168:80,1,210
104,136,139698,5,0
104,176,139917,1,0
104,216,140136,1,0
120,248,140355,2,0,B|208:232|248:320,1,140
320,288,141230,2,0,B|384:272|392:144|336:80,1,210
256,192,142106,12,4,144296
232,96,144734,2,0,B|328:56,1,70
296,112,145172,2,0,B|216:144,1,70
200,168,145610,2,0,B|296:216|400:168|464:272,1,280
448,176,146924,1,0
384,120,147362,1,0
304,144,147800,1,0
256,192,148238,12,0,149990
208,64,150428,5,2
144,120,150866,1,2
216,168,151303,1,2
288,216,151741,2,0,B|304:136,1,70
344,136,152179,2,0,B|328:232,1,70
320,248,152617,1,0
152,280,153493,6,0,B|152:200,1,70
120,176,153931,2,0,B|192:176,1,70
232,176,154369,1,0
392,232,155245,6,0,B|432:144|288:40|208:80,1,280
144,120,156559,1,0
208,176,156997,2,2,B|208:352,1,140
248,312,157654,1,0
288,312,157873,6,2,B|288:160,1,140
288,128,158530,1,0
288,88,158749,2,0,B|192:88,1,70
176,88,159187,2,0,B|80:88,2,70
216,88,159844,2,4,B|216:0,6,70
216,128,161376,2,0,B|256:128,4,35
216,168,162033,5,0
216,208,162252,2,0,B|320:208,1,70
256,240,162690,2,0,B|176:240,1,70
144,240,163128,2,0,B|144:320,1,70
184,328,163566,1,0
224,336,163785,1,0
264,320,164004,6,0,B|344:320,2,70
288,288,164661,5,0
312,256,164880,1,0
312,216,165099,1,2
296,176,165318,1,0
256,176,165537,2,0,B|256:96,1,70
256,24,166194,6,4,B|320:0|376:88,1,140
400,160,167070,1,0
464,112,167508,1,0
480,192,167946,1,0
408,240,168384,1,6
328,272,168822,6,0,B|248:312,1,70
232,272,169260,2,0,B|160:240,1,70
144,208,169698,1,0
144,120,170136,1,6
176,40,170574,1,0
216,48,170793,1,0
256,64,171012,1,0
288,88,171230,1,0
328,104,171449,6,0,B|416:192|400:328|367:456|240:232,1,420
248,200,172982,2,4,B|311:139|272:72|184:48|104:56|24:144,1,350
112,176,174515,2,6,B|40:248|144:320|240:320|268:221|280:152|344:240|304:352,1,420
384,328,176267,6,0,B|467:260|384:200,1,140
336,152,177143,1,2
264,112,177581,1,2
248,192,178019,2,0,B|152:208|128:120,1,140
104,216,178895,2,0,B|32:144|72:56,1,140
96,72,179552,1,0
136,56,179771,1,0
168,80,179990,2,0,B|185:158|245:100|280:176,1,140
304,184,180647,2,0,B|372:257|280:304,1,140
256,192,181522,12,0,182179
104,72,182617,2,0,B|160:128|248:56,1,140
248,104,183274,2,0,B|168:152,1,70
200,176,183712,1,2
240,192,183931,1,2
256,192,184150,12,0,188092
128,216,188530,2,0,B|104:128|176:64,1,140
208,160,189406,2,0,B|299:205|200:288,1,140
152,336,190282,1,0
72,280,190720,1,0
48,240,190939,1,0
64,192,191157,1,0
128,128,191595,1,0
208,176,192033,2,0,B|282:242|328:136,1,140
400,200,192909,1,0
376,288,193347,1,0
280,304,193785,2,0,B|216:352|136:296,3,140
80,240,195537,5,0
120,224,195756,1,0
120,176,195975,1,0
184,104,196413,1,0
264,48,196851,1,0
336,112,197289,2,0,B|440:120|384:208,3,140
256,192,216559,12,0,220939
152,304,221595,1,2
120,280,221814,1,0
176,216,222252,2,0,B|269:142|256:296,1,140
336,272,223128,5,2
408,224,223566,1,0
400,136,224004,2,0,B|354:53|208:128,1,210
200,168,224880,1,0
224,200,225099,1,2
232,240,225318,2,4,B|109:287|21:185|88:72,1,280
160,80,226632,5,2
240,104,227070,1,2
312,144,227508,1,0
384,184,227946,2,4,B|384:96,1,70
416,144,228384,2,0,B|525:2|328:40,1,210
328,72,229260,2,4,B|272:128,1,70
248,152,229698,1,6
232,232,230136,5,0
208,272,230355,1,0
168,296,230574,2,4,B|112:240,1,70
88,216,231012,2,0,B|144:168,1,70
168,144,231449,2,0,B|240:88|328:152,1,140
328,104,232106,5,0
360,128,232325,1,0
392,152,232544,1,0
424,176,232763,1,0
440,216,232982,1,0
440,256,233201,2,0,B|504:264|504:352|416:368|424:368,1,140
360,336,234077,5,0
320,344,234296,1,0
288,320,234515,1,0
248,336,234734,1,0
208,328,234953,2,0,B|168:240|224:208|272:200,1,140
216,176,235610,2,0,B|254:-20|400:112|448:224,1,350
440,296,237143,5,2
400,320,237362,1,6
368,288,237581,1,0
336,320,237800,1,6
304,296,238019,2,0,B|149:390|208:200,1,210
232,192,238895,1,4
264,168,239114,1,0
296,144,239333,2,0,B|299:36|215:72|192:88,1,140
168,88,239990,2,0,B|104:96|96:128,1,70
104,200,240647,5,4
128,232,240866,1,0
152,264,241084,1,6
192,280,241303,1,2
232,280,241522,1,0
264,256,241741,1,6
304,248,241960,2,0,B|304:336,1,70
336,296,242398,2,0,B|336:224,1,70
376,224,242836,2,0,B|376:128,1,70
416,136,243274,2,6,B|416:208,1,70
408,248,243712,1,0
400,328,244150,5,2
360,328,244369,1,0
320,304,244588,2,0,B|264:248,1,70
240,224,245026,2,0,B|168:160,1,70
160,208,245464,2,0,B|74:183|112:64,1,140
136,72,246121,5,4
176,64,246340,1,4
216,80,246559,1,4
240,112,246778,1,4
272,88,246997,1,4
312,80,247216,2,4,B|376:88|376:176|288:192|296:192,1,140
392,216,248092,5,0
376,256,248311,1,0
344,280,248530,1,0
304,288,248749,1,0
264,288,248968,2,0,B|224:200|280:168|328:160,1,140
240,104,249844,2,0,B|168:96|120:8,1,140
88,96,250720,5,4
136,160,251157,1,4
152,240,251595,2,0,B|248:256|272:168,1,140
208,152,252362,2,0,B|280:80|384:128,1,175
400,152,253128,1,0
424,184,253347,1,0
432,224,253566,2,0,B|415:302|358:268|320:320,1,140
288,296,254223,2,0,B|223:368|168:272,1,140
256,192,255099,12,0,261668
