osu file format v5

[General]
AudioFilename: Rozen Maiden - Seishoujo Ryouiki.mp3
AudioLeadIn: 0
PreviewTime: -1
Countdown: 1
SampleSet: Normal
StackLeniency: 0.8
Mode: 0
LetterboxInBreaks: 1
EditorBookmarks: 16575,37816,65953,93757,105473,116531,154962,188246,215836,253281

[Metadata]
Title:Seishoujo Ryouiki
Artist:ALI Project
Creator:MaxwellDemon
Version:Insane
Source:
Tags:

[Difficulty]
HPDrainRate:9
CircleSize:6
OverallDifficulty:9
SliderMultiplier:1.4
SliderTickRate:2

[Events]
//Background and Video events
0,0,"61.jpg"
//Break Periods
2,97022,105489
2,209338,215984
//Storyboard Layer 0 (Background)
//Storyboard Layer 1 (Failing)
//Storyboard Layer 2 (Passing)
//Storyboard Layer 3 (Foreground)
//Storyboard Sound Samples
//Background Colour Transformations
3,100,163,162,255

[TimingPoints]
1085,437.956204379562,4,1,0,100

[Colours]
Combo1 : 132,0,151
Combo2 : 3,184,3
Combo3 : 0,83,206
Combo4 : 250,5,5

[HitObjects]
96,64,16851,1,0
256,168,17289,1,0
416,48,17727,1,0
440,240,18165,1,0
360,176,18384,2,0,B|464:280|311:426|176:408|72:256,1,490
56,168,20136,1,0
112,88,20355,1,0
264,208,20793,5,0
176,160,21012,1,0
120,240,21230,2,0,B|120:272|160:328,1,70
240,304,21668,1,0
264,208,21887,1,0
360,176,22106,1,0
408,256,22325,1,0
416,352,22544,2,0,B|336:344|328:256,1,140
296,224,23092,5,0
296,224,23201,1,0
296,128,23420,1,0
208,88,23639,1,0
200,184,23858,2,0,B|117:148|85:204|69:252,1,140
160,280,24515,2,0,B|96:288|88:320,1,70
64,208,24953,1,0
64,208,25063,1,0
64,208,25172,5,0
112,120,25391,1,0
208,152,25610,1,0
112,120,25829,1,0
184,56,26048,1,0
272,88,26267,1,0
344,152,26486,2,0,B|344:240,1,70
280,296,26924,2,0,B|280:224,1,70
200,160,27362,2,0,B|136:96,1,70
248,136,27800,6,0,B|312:192,1,70
400,184,28238,1,0
400,280,28457,1,0
400,280,28566,1,0
400,280,28676,1,0
328,344,28895,1,0
248,288,29114,2,0,B|192:232,1,70
144,160,29552,2,0,B|64:192,1,70
104,88,29990,1,6
104,88,30099,1,6
104,88,30209,1,6
104,88,30318,1,6
104,88,30428,1,6
200,112,30647,5,0
272,48,30866,1,0
320,136,31084,1,0
240,192,31303,1,0
280,280,31522,1,0
352,216,31741,2,0,B|416:224|416:312|328:328|336:328,1,140
160,280,32617,5,0
96,200,32836,1,0
184,152,33055,1,0
96,200,33274,1,0
184,152,33493,2,4,B|144:64|201:43|248:24,1,140
384,136,34369,5,6
256,288,34807,1,0
112,272,35136,1,0
72,128,35464,5,0
144,56,35683,1,4
288,184,36121,1,0
368,240,36340,5,4
440,176,36559,1,4
352,56,36887,1,4
208,96,37216,1,0
168,184,37435,1,6
448,280,38092,5,0
368,216,38311,2,0,B|304:160,1,70
240,104,38749,2,0,B|264:176|264:272|208:360|152:360,1,280
144,256,39844,2,0,B|96:192,1,70
96,104,40282,2,0,B|144:160,1,70
240,144,40720,6,0,B|330:152|360:72,1,140
400,168,41376,1,0
408,264,41595,2,0,B|424:352,1,70
320,336,42033,1,0
224,336,42252,6,4,B|152:328|96:256|240:112,1,280
328,104,43347,1,0
248,48,43566,1,0
160,88,43785,1,0
96,160,44004,2,0,B|56:248|112:312,1,140
272,200,44880,5,0
360,248,45099,1,0
440,296,45318,2,4,B|352:368|240:272|88:352,1,350
64,256,46632,1,0
104,168,46851,1,0
184,120,47070,2,0,B|211:19|288:112,1,140
152,256,47946,6,0,B|192:176|304:296|416:288,1,280
376,192,49041,1,0
376,192,49150,1,0
376,192,49260,2,0,B|352:120|456:64,1,140
336,56,49917,1,0
336,56,50026,1,0
256,192,50136,12,0,51230
256,192,51449,12,0,51887
88,216,52106,5,0
112,136,52325,1,0
200,88,52544,2,4,B|136:152|256:272|160:376,1,280
96,296,53639,1,0
96,296,53749,1,0
96,296,53858,2,0,B|160:224,1,70
104,152,54296,5,0
136,56,54515,1,0
224,96,54734,1,0
304,144,54953,2,0,B|384:112,1,70
352,216,55391,1,0
264,256,55610,6,0,B|280:352,1,70
200,264,56048,1,0
224,168,56267,2,0,B|136:136|112:256|0:216,1,210
72,136,57143,1,0
72,136,57252,1,0
72,136,57362,1,0
128,56,57581,1,0
72,136,57800,1,0
168,120,58019,2,4,B|170:69|265:46|248:152,1,140
448,152,58895,5,0
376,216,59114,1,0
336,304,59333,1,0
256,240,59552,1,0
232,144,59771,2,0,B|193:40|139:47|120:168,1,210
88,256,60647,5,0
88,256,60756,1,0
88,256,60866,1,0
168,200,61084,1,0
232,272,61303,1,0
296,200,61522,2,0,B|384:184|424:272,1,140
264,120,62398,2,4,B|312:152|360:72|242:41|198:87|232:176,1,210
256,192,63274,12,6,65464
336,120,65902,2,0,B|432:80,1,70
408,192,66340,2,0,B|472:264,1,70
376,304,66778,2,4,B|280:256|176:304|112:200,1,280
64,128,67873,1,0
152,80,68092,1,0
240,120,68311,1,0
328,80,68530,1,0
392,152,68749,1,0
432,240,68968,1,0
232,256,69406,6,0,B|232:328,1,70
328,304,69844,1,0
328,208,70063,1,0
328,304,70282,2,0,B|408:336,1,70
464,264,70720,6,4,B|344:256|408:168,1,140
408,80,71376,1,0
320,24,71595,1,0
232,64,71814,1,0
168,136,72033,1,0
184,232,72252,1,0
104,176,72471,1,0
296,160,72909,6,0,B|296:232,1,70
296,328,73347,2,0,B|200:328,1,70
128,304,73785,1,0
72,216,74004,1,0
72,216,74114,1,0
72,216,74223,1,0
72,216,74333,1,0
72,216,74442,1,0
152,160,74661,2,0,B|152:80,1,70
200,176,75099,2,0,B|200:248,1,70
200,144,75537,1,0
200,240,75756,1,0
256,320,75975,2,0,B|256:232,1,70
256,192,76413,12,0,77289
280,112,77508,1,0
184,112,77727,1,0
88,136,77946,1,0
88,136,78055,1,0
88,136,78165,2,2,B|96:312,1,140
95,276,78712,1,0
95,276,78822,1,0
95,276,78931,1,0
95,276,79041,2,2,B|255:268,1,140
235,269,79588,1,0
235,270,79698,1,0
233,270,79807,1,0
232,272,79917,2,0,B|336:264,1,70
272,176,80355,5,0
272,176,80464,2,0,B|408:184,1,105
456,240,81012,2,0,B|448:312,1,70
360,264,81449,2,0,B|272:280,1,70
216,208,81887,2,0,B|144:152,1,70
161,165,82216,1,0
161,165,82325,1,0
161,165,82435,1,0
161,165,82544,5,0
161,165,82654,1,0
161,165,82763,1,0
161,165,82873,1,2
161,165,82982,1,6
184,72,83201,5,0
256,144,83420,2,0,B|256:248,1,70
256,312,83858,1,0
320,240,84077,1,0
384,168,84296,2,0,B|384:80,1,70
296,48,84734,1,0
200,56,84953,1,0
112,96,85172,5,0
112,96,85282,1,0
112,96,85391,1,0
112,96,85501,1,0
112,96,85610,1,0
192,152,85829,5,0
96,184,86048,1,0
88,280,86267,1,0
168,336,86486,1,0
248,280,86705,2,0,B|248:200,1,70
272,160,87143,1,0
256,64,87362,2,4,B|320:40|376:128,1,140
432,192,88019,5,0
392,280,88238,1,0
432,192,88457,1,0
392,280,88676,1,0
336,200,88895,1,0
256,256,89114,1,0
192,176,89333,1,0
160,80,89552,1,6
352,40,89990,6,0,B|272:80,1,70
320,168,90428,2,0,B|248:136,1,70
224,48,90866,1,0
128,40,91084,1,0
88,128,91303,1,0
128,40,91522,1,0
184,120,91741,1,4
216,208,91960,1,0
304,248,92179,1,0
392,280,92398,1,0
304,248,92617,6,0,B|240:296,1,70
152,272,93055,2,0,B|88:320,1,70
80,216,93493,1,0
64,120,93712,2,0,B|144:56,1,70
192,144,94150,2,4,B|232:136|192:72|111:124|78:177|197:265|272:224|304:144|272:72|184:64,1,350
384,144,95683,6,4,B|344:136|384:72|465:124|498:177|379:265|304:224|312:155|305:135|328:104,1,280
208,64,106194,5,2
208,64,106303,1,0
208,64,106413,1,0
208,64,106522,1,0
208,64,106632,1,0
296,104,106851,1,0
272,200,107070,1,0
448,288,107508,5,4
352,320,107727,1,0
256,328,107946,1,0
256,328,108055,1,0
256,328,108165,1,0
184,256,108384,1,0
136,168,108603,1,0
184,256,108822,1,0
296,96,109260,5,0
352,176,109479,1,2
400,256,109698,1,2
432,160,109917,1,0
408,64,110136,5,2
408,64,110245,1,0
408,64,110355,1,0
408,64,110464,1,0
408,64,110574,1,4
312,48,110793,1,0
232,104,111012,1,0
128,120,111230,5,4
56,48,111449,2,0,B|56:120,1,70
144,160,111887,2,0,B|184:256|72:288,1,140
280,200,112763,5,6
440,80,113201,1,4
416,272,113639,1,4
328,152,113968,5,0
208,248,114296,1,4
296,296,114515,1,4
160,328,114953,5,0
136,232,115172,1,4
152,136,115391,1,0
152,136,115501,1,0
152,136,115610,1,0
96,56,115829,1,4
192,64,116048,1,4
232,152,116267,1,0
248,232,116705,5,0
296,312,116924,1,0
352,232,117143,2,0,B|408:168,1,70
392,80,117581,2,4,B|322:37|221:-1|170:61|144:112,1,280
96,192,118676,6,0,B|168:224,1,70
256,248,119114,2,0,B|312:176,1,70
392,176,119552,2,4,B|504:163|408:80,1,140
320,96,120209,5,0
248,160,120428,6,0,B|160:160,1,70
264,208,120866,2,0,B|264:320|192:376|72:280,1,280
160,232,121960,1,0
200,128,122179,1,0
128,64,122398,1,0
64,136,122617,1,0
120,216,122836,2,4,B|208:176|272:232,1,140
328,280,123493,5,0
328,280,123603,1,0
328,280,123712,1,0
416,240,123931,1,0
408,144,124150,2,4,B|320:72|208:168|56:88,1,350
136,168,125464,5,0
216,216,125683,1,0
280,288,125902,2,0,B|381:261|288:184,1,140
256,192,126778,12,4,129406
256,192,129625,12,4,130720
112,192,130939,5,0
160,104,131157,1,0
232,168,131376,2,4,B|290:361|337:94|392:352,1,280
432,256,132471,5,0
432,256,132581,1,0
432,256,132690,2,0,B|496:184,1,70
384,168,133128,1,0
344,72,133347,1,0
256,120,133566,1,0
296,208,133785,6,0,B|216:240,1,70
136,224,134223,1,0
136,224,134333,1,0
136,224,134442,2,0,B|152:320,1,70
200,208,134880,1,0
232,296,135099,2,4,B|311:356|344:208|440:296,1,210
400,184,135975,1,0
328,112,136194,5,0
240,64,136413,1,0
152,112,136632,1,0
96,192,136851,2,0,B|132:135|170:251|224:160,1,140
368,296,137727,5,0
280,328,137946,1,0
200,264,138165,1,0
120,320,138384,1,0
120,224,138603,2,4,B|16:185|23:131|144:112,1,210
224,96,139479,1,0
224,96,139588,1,0
224,96,139698,1,0
320,120,139917,5,0
320,24,140136,1,0
320,120,140355,2,0,B|408:104|448:192,1,140
256,240,141230,2,0,B|286:291|352:192|235:144|160:200|224:272,1,210
256,192,142106,12,4,144296
160,104,144734,2,0,B|256:64,1,70
176,160,145172,2,0,B|96:192,1,70
176,256,145610,2,0,B|272:304|376:256|440:360,1,280
408,248,146705,5,0
408,152,146924,1,0
312,144,147143,1,0
248,64,147362,1,0
160,112,147581,1,0
112,192,147800,1,0
264,312,148238,6,0,B|336:312,1,70
272,232,148676,1,0
272,136,148895,1,0
176,128,149114,2,0,B|256:96,1,70
336,80,149552,2,0,B|344:200|432:136,1,140
440,240,150209,1,0
400,328,150428,5,2
320,272,150647,1,0
248,200,150866,1,2
192,120,151084,1,0
136,200,151303,1,2
312,120,151741,6,0,B|328:40,1,70
392,120,152179,2,0,B|376:216,1,70
472,168,152617,1,0
456,264,152836,1,0
456,264,152946,1,0
456,264,153055,1,0
456,264,153165,1,0
456,264,153274,1,0
376,312,153493,6,0,B|376:232,1,70
288,192,153931,2,0,B|360:192,1,70
320,96,154369,1,0
224,96,154588,1,0
224,96,154698,1,0
224,96,154807,1,0
224,96,154917,1,0
256,192,155245,12,0,156121
224,280,156340,1,0
144,216,156559,1,0
168,120,156778,1,0
256,76,156997,2,2,B|256:252,1,140
256,216,157544,1,0
256,216,157654,1,0
256,216,157763,1,0
256,216,157873,2,2,B|408:216,1,140
396,215,158420,1,0
396,215,158530,1,0
396,215,158639,1,0
396,215,158749,2,0,B|396:119,1,70
304,104,159187,6,0,B|208:104,2,70
400,104,159844,2,4,B|400:16,1,70
352,56,160172,1,4
352,56,160282,1,0
376,152,160501,2,0,B|392:224,1,70
344,304,160939,2,0,B|417:308,1,70
336,240,161376,5,0
336,240,161486,1,0
336,240,161595,1,0
336,240,161705,1,0
336,240,161814,1,6
240,248,162033,5,0
168,184,162252,2,0,B|64:184,1,70
160,104,162690,1,0
240,56,162909,1,0
328,88,163128,2,0,B|328:168,1,70
328,256,163566,1,0
248,312,163785,1,0
152,272,164004,5,0
152,272,164114,1,0
152,272,164223,1,0
152,272,164333,1,0
152,272,164442,1,0
120,176,164661,5,0
96,80,164880,1,0
192,80,165099,1,2
280,40,165318,1,0
352,112,165537,2,0,B|352:32,1,70
352,43,165866,1,0
352,43,165975,1,0
352,43,166084,1,0
352,43,166194,2,4,B|416:19|472:107,1,140
416,184,166851,5,0
328,224,167070,1,0
232,248,167289,1,0
144,200,167508,1,0
88,120,167727,1,0
64,216,167946,1,0
128,288,168165,1,0
208,336,168384,1,6
200,136,168822,6,0,B|280:96,1,70
336,168,169260,2,0,B|408:200,1,70
336,272,169698,1,0
256,216,169917,1,0
160,216,170136,1,0
160,216,170245,1,0
160,216,170355,1,0
160,216,170464,1,0
160,216,170574,1,0
144,120,170793,5,0
216,48,171012,1,0
304,88,171230,1,0
336,184,171449,2,0,B|384:248,1,70
288,272,171887,2,0,B|216:304,1,70
176,216,172325,1,0
88,176,172544,2,0,B|184:168,1,70
256,160,172982,6,4,B|319:99|280:32|192:8|112:16|32:104,1,350
144,104,174296,1,0
224,152,174515,2,6,B|296:224|192:296|96:296|68:197|56:128|-8:216|32:328,1,420
224,328,176267,6,0,B|325:371|328:264,1,140
456,128,177143,1,2
272,64,177581,1,2
296,256,178019,2,0,B|200:272|176:184,1,140
376,184,178895,2,0,B|304:112|344:24,1,140
280,136,179552,1,0
192,88,179771,1,0
120,160,179990,2,0,B|137:238|197:180|232:256,1,140
304,296,180647,2,0,B|231:364|184:272,1,140
256,192,181522,12,0,182179
128,48,182398,1,0
192,120,182617,2,0,B|248:176|336:104,1,140
288,208,183274,2,0,B|208:256,1,70
128,240,183712,5,2
128,240,183931,1,2
128,240,184041,1,6
256,192,184150,12,0,188092
80,112,188530,2,0,B|248:112,1,140
280,192,189187,5,0
280,192,189296,1,0
280,192,189406,1,0
368,152,189625,1,0
352,248,189844,1,0
368,152,190063,1,0
256,192,190282,12,0,192033
400,224,192252,2,0,B|448:240|432:296,1,70
344,320,192690,1,0
264,264,192909,2,0,B|208:280|192:328,1,70
207,302,193238,1,0
207,302,193347,1,0
207,302,193457,1,0
207,302,193566,1,0
128,240,193785,2,0,B|97:142|208:160,3,140
384,96,195537,5,0
352,192,195756,1,0
440,160,195975,2,0,B|512:192|464:288,1,140
368,272,196632,1,0
368,272,196741,1,0
368,272,196851,1,0
288,320,197070,1,0
200,272,197289,2,0,B|136:208|176:128,1,140
264,176,197946,1,0
320,96,198165,2,0,B|397:151|328:240,1,140
192,88,199041,6,0,B|280:64,1,70
288,160,199479,2,0,B|368:216|440:192,1,140
368,280,200136,1,0
368,280,200245,1,0
368,280,200355,2,0,C|264:240|312:176|240:120|200:122|164:145|185:196|192:200,1,420
112,112,201887,5,0
40,40,202106,1,0
136,56,202325,1,0
208,120,202544,2,0,B|264:104|280:72,1,70
360,112,202982,6,0,B|384:32|280:32|248:40,1,140
272,136,203639,1,0
272,136,203749,1,0
272,136,203858,1,0
216,216,204077,1,0
288,280,204296,6,0,B|360:248|368:136,2,140
192,312,205391,1,0
192,312,205501,1,0
192,312,205610,1,0
96,312,205829,1,0
88,216,206048,2,0,B|72:176|96:128,1,70
152,72,206486,6,0,B|200:0|304:32,1,140
240,120,207143,1,0
240,120,207252,1,0
240,120,207362,1,0
312,184,207581,1,0
408,184,207800,2,0,B|448:264|408:336,3,140
200,144,216559,5,2
392,112,216997,1,2
296,144,217216,1,0
272,48,217435,1,4
80,104,217873,5,2
96,200,218092,1,0
176,144,218311,2,0,B|176:224,1,70
176,216,218639,1,0
176,216,218749,1,0
176,216,218858,1,0
176,216,218968,1,0
248,280,219187,2,0,B|328:280,1,70
256,192,219625,12,0,221376
88,184,221595,1,0
152,112,221814,1,0
344,152,222252,5,0
440,160,222471,1,0
376,232,222690,2,0,B|376:264|416:320,1,70
304,264,223128,1,0
240,192,223347,1,0
176,272,223566,1,0
88,224,223785,1,0
120,128,224004,2,0,B|128:48|216:40,1,140
211,41,224552,1,0
211,41,224661,1,0
264,128,224880,5,0
264,224,225099,1,0
352,184,225318,2,0,B|420:101|364:69|316:53,1,140
248,40,225975,2,0,B|184:48|176:80,1,70
104,120,226413,1,0
104,120,226522,1,0
104,120,226632,5,0
144,208,226851,1,0
96,296,227070,1,0
192,264,227289,1,0
248,184,227508,1,0
288,272,227727,1,0
368,328,227946,2,0,B|280:328,1,70
376,272,228384,6,0,B|376:200,1,70
360,104,228822,2,0,B|424:40,1,70
424,152,229260,2,0,B|456:224,1,70
360,184,229698,1,0
264,176,229917,1,0
264,176,230026,1,0
264,176,230136,1,0
184,120,230355,5,0
112,184,230574,2,0,B|56:128,1,70
144,80,231012,2,0,B|224:48,1,70
240,144,231449,1,6
240,144,231559,1,6
240,144,231668,1,6
240,144,231778,1,6
240,144,231887,1,6
184,224,232106,5,0
128,304,232325,1,0
224,296,232544,1,0
280,216,232763,1,0
344,288,232982,1,0
408,216,233201,2,0,B|472:208|472:120|384:104|392:104,1,140
216,64,234077,5,0
120,72,234296,1,0
64,152,234515,1,0
96,248,234734,1,0
168,312,234953,2,4,B|256:352|277:295|296:248,1,140
376,304,235610,1,0
376,208,235829,1,0
440,24,236267,5,0
344,24,236486,1,0
272,88,236705,2,0,B|272:120|312:176,1,70
200,152,237143,1,0
136,224,237362,1,0
96,312,237581,1,0
56,216,237800,1,0
64,120,238019,2,0,B|72:40|160:32,1,140
156,33,238566,1,0
156,33,238676,1,0
224,104,238895,5,0
296,168,239114,1,0
368,232,239333,2,0,B|404:149|348:117|300:101,1,140
256,48,239990,2,0,B|192:56|184:88,1,70
136,152,240428,1,0
136,152,240537,1,0
136,152,240647,5,0
112,248,240866,1,0
208,232,241084,1,0
176,328,241303,1,0
272,328,241522,1,0
360,288,241741,1,0
360,192,241960,2,0,B|360:104,1,70
456,96,242398,2,0,B|456:24,1,70
368,72,242836,2,0,B|304:136,1,70
224,152,243274,6,0,B|256:224,1,70
152,216,243712,1,0
112,128,243931,1,0
112,128,244041,1,0
112,128,244150,1,0
48,48,244369,1,0
144,56,244588,2,0,B|200:112,1,70
272,160,245026,2,0,B|192:192,1,70
152,264,245464,1,6
152,264,245574,1,6
152,264,245683,1,6
152,264,245793,1,6
152,264,245902,1,6
240,304,246121,5,0
328,272,246340,1,0
392,336,246559,1,0
424,240,246778,1,0
360,160,246997,1,0
264,152,247216,2,0,B|200:144|200:56|288:40|280:40,1,140
72,104,248092,5,0
144,168,248311,1,0
200,248,248530,1,0
120,304,248749,1,0
72,216,248968,2,4,B|32:128|89:107|136:88,1,140
280,192,249844,6,0,B|397:219|400:112,1,140
216,72,250720,1,2
120,240,251157,1,2
296,320,251595,2,0,B|392:336|416:248,1,140
224,200,252471,2,0,B|152:128|192:40,1,140
272,96,253128,1,0
360,136,253347,1,0
304,216,253566,2,0,B|321:294|381:236|416:312,1,140
312,304,254223,2,0,B|239:372|192:280,1,140
256,192,255099,12,0,255756
56,48,255975,1,0
120,120,256194,2,0,B|176:176|264:104,1,140
280,208,256851,2,0,B|200:256,1,70
288,312,257289,5,2
288,312,257508,1,2
288,312,257617,1,6
256,192,257727,12,0,261668
256,192,262106,12,0,272617
