osu file format v5

[General]
AudioFilename: Rozen Maiden - Seishoujo Ryouiki.mp3
AudioLeadIn: 0
PreviewTime: -1
Countdown: 1
SampleSet: Normal
StackLeniency: 0.7
Mode: 0
LetterboxInBreaks: 1
EditorBookmarks: 16575,37816,65953,93757,105473,116531,154962,188246,215836,253281

[Metadata]
Title:Seishoujo Ryouiki
Artist:ALI Project
Creator:MaxwellDemon
Version:Hard
Source:
Tags:

[Difficulty]
HPDrainRate:7
CircleSize:6
OverallDifficulty:7
SliderMultiplier:1.4
SliderTickRate:2

[Events]
//Background and Video events
0,0,"61.jpg"
//Break Periods
2,97022,105489
2,198827,215684
//Storyboard Layer 0 (Background)
//Storyboard Layer 1 (Failing)
//Storyboard Layer 2 (Passing)
//Storyboard Layer 3 (Foreground)
//Storyboard Sound Samples
//Background Colour Transformations
3,100,163,162,255

[TimingPoints]
1085,437.956204379562,4,1,0,100

[Colours]
Combo1 : 132,0,151
Combo2 : 3,184,3
Combo3 : 0,83,206
Combo4 : 250,5,5

[HitObjects]
96,192,16851,1,0
216,112,17289,1,0
352,64,17727,1,0
456,160,18165,1,0
384,160,18384,2,0,B|488:264|335:410|200:392|96:240,1,490
88,184,20136,1,0
136,136,20355,1,0
136,64,20793,5,0
64,64,21012,1,0
64,136,21230,1,0
160,240,21668,1,0
88,272,21887,1,0
72,200,22106,1,0
112,144,22325,1,0
168,104,22544,2,0,B|248:112|256:200,1,140
288,208,23092,1,0
320,216,23201,1,0
368,264,23420,1,0
432,224,23639,1,0
384,168,23858,2,0,B|420:85|364:53|316:37,1,140
272,48,24515,2,0,B|208:56|200:88,1,70
120,184,25172,5,0
184,216,25391,1,0
248,184,25610,1,0
184,216,25829,1,0
248,248,26048,1,0
216,312,26267,1,0
144,312,26486,2,0,B|56:312,1,70
48,248,26924,2,0,B|48:176,1,70
104,136,27362,2,0,B|168:72,1,70
224,88,27800,2,0,B|256:160,1,70
320,128,28238,1,0
392,200,28676,1,0
376,264,28895,1,0
304,272,29114,2,0,B|248:216,1,70
224,160,29552,2,0,B|144:192,1,70
96,216,29990,1,6
96,216,30099,1,6
96,216,30209,1,6
96,216,30318,1,6
96,216,30428,1,6
96,112,30647,5,0
152,72,30866,1,0
200,120,31084,1,0
248,72,31303,1,0
296,120,31522,1,0
368,120,31741,2,0,B|432:128|432:216|344:232|352:232,1,140
256,296,32617,5,0
192,264,32836,1,0
144,216,33055,1,0
96,264,33274,1,0
64,200,33493,2,4,B|24:112|81:91|128:72,1,140
232,32,34369,1,6
352,104,34807,1,0
392,200,35136,1,0
328,280,35464,1,0
264,304,35683,1,4
128,152,36340,5,4
112,216,36559,1,4
208,240,36887,1,4
208,240,37216,1,0
192,304,37435,1,6
224,128,38092,5,0
296,136,38311,2,0,B|360:192,1,70
336,112,38749,2,0,B|360:184|360:280|304:368|248:368,1,280
216,320,39844,2,0,B|168:256,1,70
232,224,40282,2,0,B|280:280,1,70
336,248,40720,2,0,B|426:256|456:176,1,140
288,120,41595,2,0,B|272:32,1,70
344,72,42033,1,0
392,120,42252,2,4,B|464:128|520:200|376:344,1,280
336,288,43347,1,0
280,336,43566,1,0
208,328,43785,1,0
152,280,44004,2,0,B|112:192|168:128,1,140
200,200,44880,5,0
136,168,45099,1,0
88,112,45318,2,4,B|176:40|288:136|440:56,1,350
400,200,46851,1,0
352,248,47070,2,0,B|325:349|248:256,1,140
256,192,47946,12,6,51887
152,80,52106,5,0
208,120,52325,1,0
224,48,52544,2,4,B|160:112|280:232|184:336,1,280
128,192,53858,2,0,B|64:264,1,70
128,192,54296,1,0
176,144,54515,1,0
224,192,54734,1,0
288,160,54953,2,0,B|368:128,1,70
280,256,55610,6,0,B|296:352,1,70
280,256,56048,1,0
280,184,56267,2,0,B|192:152|168:272|56:232,1,210
96,96,57362,1,0
160,64,57581,1,0
216,104,57800,1,0
288,96,58019,2,4,B|290:45|385:22|368:128,1,140
432,232,58895,5,0
384,280,59114,1,0
312,296,59333,1,0
248,264,59552,1,0
232,192,59771,2,0,B|193:88|139:95|120:216,1,210
80,72,60866,1,0
56,136,61084,1,0
80,72,61303,1,0
144,88,61522,2,0,B|232:72|272:160,1,140
264,280,62398,2,4,B|312:312|360:232|242:201|198:247|232:336,1,210
256,192,63274,12,6,65464
256,136,65902,2,0,B|352:96,1,70
256,136,66340,2,0,B|320:208,1,70
304,256,66778,2,4,B|208:208|104:256|40:152,1,280
168,96,68092,1,0
304,56,68530,1,0
408,152,68968,1,0
320,264,69406,6,0,B|320:336,1,70
248,336,69844,1,0
248,264,70063,1,0
176,264,70282,2,0,B|96:296,1,70
120,216,70720,2,4,B|0:208|64:120,1,140
168,48,71595,1,0
288,120,72033,1,0
168,48,72471,1,0
224,176,72909,2,0,B|224:248,1,70
152,248,73347,2,0,B|56:248,1,70
80,176,73785,1,0
432,128,74661,2,0,B|432:48,1,70
432,128,75099,2,0,B|360:128,1,70
432,128,75537,1,0
256,192,76413,12,0,77289
120,248,77508,1,0
120,176,77727,1,0
160,120,77946,1,0
200,176,78165,2,2,B|376:168,1,140
408,168,78822,1,0
376,232,79041,2,2,B|216:240,1,140
168,240,79698,1,0
136,176,79917,2,0,B|240:168,1,70
208,96,80355,2,0,B|304:96,2,70
280,96,81012,2,0,B|368:96,6,70
208,96,82544,5,0
208,96,82654,1,0
208,96,82763,1,0
208,96,82873,1,2
208,96,82982,1,6
160,144,83201,5,0
224,168,83420,2,0,B|224:272,1,70
280,280,83858,1,0
328,232,84077,1,0
376,176,84296,2,0,B|288:176,1,70
280,112,84734,1,0
248,48,84953,1,0
192,88,85172,5,0
192,88,85282,1,0
192,88,85391,1,0
192,88,85501,1,0
192,88,85610,1,0
144,136,85829,5,0
104,192,86048,1,0
112,264,86267,1,0
72,320,86486,1,0
40,256,86705,2,0,B|40:176,1,70
112,64,87362,2,4,B|176:40|232:128,1,140
368,136,88238,1,0
344,200,88457,1,0
408,232,88676,1,0
344,200,88895,1,0
368,136,89114,1,0
424,96,89333,1,0
432,168,89552,1,6
408,232,89771,1,0
408,304,89990,6,0,B|328:344,1,70
272,328,90428,2,0,B|200:296,1,70
160,248,90866,1,0
184,184,91084,1,0
152,120,91303,1,0
280,64,91741,1,4
344,48,91960,1,0
416,48,92179,1,0
440,112,92398,1,0
432,184,92617,2,0,B|368:232,1,70
440,256,93055,2,0,B|376:304,1,70
312,304,93493,1,0
352,248,93712,2,0,B|432:184,1,70
368,144,94150,2,4,B|408:136|368:72|287:124|254:177|373:265|448:224|480:144|448:72|360:64,1,350
368,144,95683,2,6,B|328:136|368:72|449:124|482:177|363:265|288:224|282:156|279:113|328:104,1,280
232,96,106194,5,2
112,176,106632,1,0
232,96,107070,1,0
368,88,107508,2,4,B|452:123|360:200,3,140
224,168,109260,1,0
272,216,109479,1,2
224,264,109698,1,2
112,184,110136,5,2
88,112,110355,1,0
136,64,110574,1,4
200,88,110793,1,0
272,96,111012,1,0
344,88,111230,1,4
400,120,111449,2,0,B|400:192,1,70
328,208,111887,2,0,B|368:304|256:336,1,140
200,216,112763,1,6
96,120,113201,1,4
224,64,113639,1,4
320,104,113968,1,0
376,192,114296,1,4
304,208,114515,1,4
256,120,114953,5,0
184,136,115172,1,4
120,104,115391,1,0
120,104,115501,1,0
120,104,115610,1,0
80,160,115829,1,4
72,232,116048,1,4
128,272,116267,1,0
288,344,116924,5,0
336,288,117143,2,0,B|392:224,1,70
392,168,117581,2,4,B|322:125|221:87|170:149|144:200,1,280
192,240,118676,2,0,B|264:272,1,70
192,240,119114,2,0,B|248:168,1,70
288,136,119552,2,4,B|400:123|304:40,1,140
256,112,120428,6,0,B|168:112,1,70
224,168,120866,2,0,B|224:280|152:336|32:240,1,280
120,360,122179,1,0
56,328,122398,1,0
72,256,122617,1,0
112,192,122836,2,4,B|200:152|264:208,1,140
376,248,123712,1,0
328,192,123931,1,0
376,144,124150,2,4,B|288:72|176:168|24:88,1,350
120,208,125683,1,0
152,272,125902,2,0,B|253:245|160:168,1,140
256,192,126778,12,4,130720
160,184,130939,5,0
176,112,131157,1,0
240,88,131376,2,4,B|298:281|345:14|400:272,1,280
256,248,132690,2,0,B|192:320,1,70
256,248,133128,1,0
200,200,133347,1,0
128,176,133566,1,0
152,112,133785,2,0,B|232:80,1,70
360,96,134442,2,0,B|376:192,1,70
376,232,134880,1,0
320,280,135099,2,4,B|241:220|208:368|112:280,1,210
88,160,136194,5,0
152,136,136413,1,0
192,192,136632,1,0
264,184,136851,2,0,B|300:127|338:243|392:152,1,140
456,40,137727,1,0
392,64,137946,1,0
320,64,138165,1,0
320,136,138384,1,0
304,200,138603,2,4,B|265:304|211:297|192:176,1,210
56,136,139698,1,0
120,120,139917,1,0
176,72,140136,1,0
232,112,140355,2,0,B|320:96|360:184,1,140
256,264,141230,2,0,B|286:315|352:216|235:168|160:224|224:296,1,210
256,192,142106,12,4,144296
160,104,144734,2,0,B|256:64,1,70
160,104,145172,2,0,B|80:136,1,70
96,200,145610,2,0,B|192:248|296:200|360:304,1,280
336,152,146924,1,0
232,56,147362,1,0
136,160,147800,1,0
216,272,148238,2,0,B|288:272,1,70
344,304,148676,1,0
360,232,148895,1,0
416,272,149114,2,0,B|496:240,1,70
440,192,149552,2,0,B|432:72|344:136,1,140
224,96,150428,5,2
112,176,150866,1,2
232,248,151303,1,2
344,168,151741,2,0,B|360:88,1,70
416,144,152179,2,0,B|400:240,1,70
392,280,152617,1,0
112,280,153493,6,0,B|112:200,1,70
112,136,153931,2,0,B|184:136,1,70
248,136,154369,1,0
256,192,155245,12,0,156121
232,256,156340,1,0
184,200,156559,1,0
248,176,156778,1,0
320,160,156997,2,2,B|320:336,1,140
384,272,157654,1,0
384,200,157873,2,2,B|384:48,1,140
312,72,158530,1,0
312,144,158749,2,0,B|216:144,1,70
240,216,159187,2,0,B|144:216,2,70
240,144,159844,2,4,B|240:56,6,70
240,216,161376,5,0
240,216,161486,1,0
240,216,161595,1,0
240,216,161705,1,0
240,216,161814,1,6
168,216,162033,5,0
128,152,162252,2,0,B|232:152,1,70
200,80,162690,1,0
272,80,162909,1,0
344,80,163128,2,0,B|344:160,1,70
344,216,163566,1,0
416,216,163785,1,0
416,288,164004,5,0
416,288,164114,1,0
416,288,164223,1,0
416,288,164333,1,0
416,288,164442,1,0
352,320,164661,5,0
288,296,164880,1,0
240,248,165099,1,2
200,184,165318,1,0
128,184,165537,2,0,B|128:104,1,70
248,48,166194,2,4,B|312:24|368:112,1,140
392,240,167070,1,0
432,184,167289,1,0
456,120,167508,1,0
432,56,167727,1,0
376,104,167946,1,0
328,48,168165,1,0
280,96,168384,1,6
184,200,168822,6,0,B|104:240,1,70
160,288,169260,2,0,B|232:320,1,70
256,256,169698,1,0
248,184,169917,1,0
304,144,170136,1,6
168,96,170574,1,0
232,112,170793,1,0
184,168,171012,1,0
120,144,171230,1,0
112,216,171449,2,0,B|160:280,1,70
184,336,171887,2,0,B|256:304,1,70
312,328,172325,1,0
320,256,172544,2,0,B|416:248,1,70
352,192,172982,2,4,B|415:131|376:64|288:40|208:48|128:136,1,350
264,192,174515,2,6,B|336:264|232:336|136:336|108:237|96:168|32:256|72:368,1,420
208,352,176267,6,0,B|325:379|328:272,1,140
328,168,177143,1,2
416,280,177581,1,2
280,256,178019,2,0,B|184:272|160:184,1,140
80,264,178895,2,0,B|8:192|48:104,1,140
104,144,179552,1,0
168,120,179771,1,0
216,168,179990,2,0,B|233:246|293:188|328:264,1,140
264,288,180647,2,0,B|191:356|144:264,1,140
256,192,181522,12,0,182179
56,48,182398,1,0
104,96,182617,2,0,B|160:152|248:80,1,140
264,152,183274,2,0,B|184:200,1,70
248,240,183712,5,2
248,240,183931,1,2
248,240,184041,1,6
256,192,184150,12,0,188092
88,176,188530,2,0,B|64:88|136:24,1,140
184,160,189406,2,0,B|275:205|176:288,1,140
240,320,190063,1,0
176,328,190282,1,0
120,200,190720,1,0
72,152,190939,1,0
120,200,191157,1,0
144,64,191595,1,0
232,168,192033,2,0,B|306:234|352:128,1,140
448,64,192909,1,0
448,128,193128,1,0
416,184,193347,1,0
312,264,193785,2,0,B|248:312|168:256,3,140
48,216,195537,5,0
80,152,195756,1,0
48,216,195975,1,0
176,176,196413,1,0
240,160,196632,1,0
240,88,196851,1,0
240,160,197070,1,0
296,120,197289,2,0,B|400:128|344:216,3,140
200,144,216559,5,2
320,72,216997,1,2
248,72,217216,1,0
280,136,217435,1,4
352,256,217873,1,2
280,256,218092,1,0
256,192,218311,12,0,219187
256,192,219625,12,0,221376
128,312,221595,1,2
80,264,221814,1,0
160,144,222252,1,2
104,96,222471,1,0
88,160,222690,1,6
184,64,223128,1,2
248,80,223347,1,0
232,152,223566,1,0
208,216,223785,1,0
216,280,224004,2,0,B|262:363|368:328,1,140
352,304,224552,1,0
344,272,224661,1,0
304,216,224880,1,0
240,256,225099,1,2
168,256,225318,2,4,B|132:173|188:141|236:125,1,140
168,72,225975,2,4,B|104:80|96:112,1,70
104,240,226632,5,2
64,184,226851,1,0
120,144,227070,1,2
192,144,227289,1,6
240,192,227508,1,0
304,200,227727,1,0
304,128,227946,2,4,B|304:40,1,70
360,96,228384,2,0,B|360:168,1,70
392,232,228822,2,0,B|456:168,1,70
456,248,229260,2,4,B|400:304,1,70
344,328,229698,1,6
216,280,230136,5,0
168,224,230355,1,0
104,256,230574,2,4,B|48:200,1,70
56,136,231012,2,0,B|112:88,1,70
152,144,231449,1,0
152,144,231559,1,0
152,144,231668,1,0
152,144,231778,1,2
152,144,231887,1,6
216,160,232106,5,0
216,160,232325,1,0
192,96,232544,1,0
256,64,232763,1,0
256,64,232982,1,0
280,128,233201,2,0,B|344:136|344:224|256:240|264:240,1,140
224,288,234077,5,0
160,256,234296,1,0
88,256,234515,1,0
128,192,234734,1,0
128,192,234953,2,0,B|88:104|144:72|192:64,1,140
176,144,235610,1,2
232,104,235829,1,0
240,176,236048,1,0
296,136,236267,1,0
352,96,236486,1,0
352,168,236705,1,6
424,288,237143,5,2
368,328,237362,1,6
320,272,237581,1,0
248,288,237800,1,6
248,216,238019,2,0,B|168:208|152:120,1,140
168,96,238566,1,0
200,80,238676,1,0
264,64,238895,1,4
200,80,239114,1,0
152,56,239333,2,0,B|44:53|80:137|96:160,1,140
104,208,239990,2,0,B|40:216|32:248,1,70
152,320,240647,5,4
184,256,240866,1,0
232,208,241084,1,6
200,144,241303,1,2
272,136,241522,1,0
336,160,241741,1,6
336,232,241960,2,0,B|336:320,1,70
272,272,242398,2,0,B|272:200,1,70
200,208,242836,2,0,B|200:112,1,70
144,96,243274,2,6,B|144:168,1,70
144,232,243712,1,0
144,336,244150,5,2
216,336,244369,1,0
264,280,244588,2,0,B|320:224,1,70
368,184,245026,2,0,B|440:120,1,70
424,64,245464,1,0
424,64,245574,1,0
424,64,245683,1,0
424,64,245793,1,0
424,64,245902,1,6
352,64,246121,5,4
320,120,246340,1,4
280,64,246559,1,4
248,128,246778,1,4
280,64,246997,1,4
320,120,247216,2,4,B|384:128|384:216|296:232|304:232,1,140
200,328,248092,1,0
136,296,248311,1,0
104,232,248530,1,0
72,168,248749,1,0
144,168,248968,2,0,B|104:80|160:48|208:40,1,140
256,160,249844,2,0,B|328:168|376:256,1,140
453,348,250720,5,4
344,256,251157,1,4
200,272,251595,2,0,B|104:288|80:200,1,140
192,216,252471,2,0,B|264:144|336:184,1,140
352,112,253128,1,0
400,56,253347,1,0
352,112,253566,2,0,B|369:190|426:156|464:208,1,140
416,256,254223,2,0,B|351:328|296:232,1,140
256,192,255099,12,0,255537
192,232,255975,1,0
192,160,256194,2,0,B|248:216|336:144,1,140
352,216,256851,2,0,B|272:264,1,70
184,240,257289,1,2
184,240,257508,1,2
184,240,257617,1,2
256,192,257727,12,0,261668
256,192,262106,12,0,272617
