osu file format v5

[General]
AudioFilename: Kinjirareta Asobi.mp3
AudioLeadIn: 0
PreviewTime: -1
Countdown: 1
SampleSet: Normal
StackLeniency: 0.7
Mode: 0
LetterboxInBreaks: 1
EditorBookmarks: 10995,31097,37550,72543,88551,91405,99010

[Metadata]
Title:Kinjirareta Asobi
Artist:ALI Project
Creator:JarJarJacob
Version:5-Star Desu~
Source:
Tags:Rozen Maiden ALI Project Kinjirareta Asobi

[Difficulty]
HPDrainRate:8
CircleSize:5
OverallDifficulty:8
SliderMultiplier:2.6
SliderTickRate:2

[Events]
//Background and Video events
0,0,"Kawapaper_Rozenmaiden_0000160_1600x1200.jpg"
//Break Periods
2,31049,37591
2,88627,91249
//Storyboard Layer 0 (Background)
//Storyboard Layer 1 (Failing)
//Storyboard Layer 2 (Passing)
//Storyboard Layer 3 (Foreground)
//Storyboard Sound Samples
//Background Colour Transformations
3,100,163,162,255

[TimingPoints]
10980,495.860026472535,4,1,0,70,1

[Colours]
Combo1 : 0,0,128
Combo2 : 255,0,0
Combo3 : 0,128,0
Combo4 : 255,0,255

[HitObjects]
96,192,10979,1,0
224,192,11227,1,0
352,192,11475,1,0
288,64,11723,1,0
160,64,11971,6,8,B|160:160|192:192|128:288,1,195
192,320,12467,1,2
256,288,12591,1,2
320,320,12715,1,2
256,32,12963,5,8
352,128,13211,1,8
256,224,13459,1,8
160,128,13707,1,8
256,32,13955,1,8
352,128,14203,1,8
224,128,14451,2,2,B|320:128,2,65
64,192,14946,5,0
64,192,15070,1,0
64,192,15194,1,8
192,192,15442,1,0
192,192,15566,1,0
192,192,15690,1,2
320,192,15938,1,8
320,192,16062,1,8
320,192,16186,1,8
320,64,16434,1,4
64,32,16930,6,8,B|160:128,1,130
256,224,17426,1,0
288,288,17550,1,0
320,224,17674,1,0
288,96,17922,1,0
224,96,18046,1,0
256,32,18169,2,4,B|256:192,1,130
96,192,18913,5,2
160,224,19037,1,2
224,256,19161,1,2
320,160,19409,2,2,B|416:64,1,130
416,192,19905,1,0
416,192,20029,1,0
416,192,20153,1,0
288,256,20401,2,4,B|64:256,1,195
32,192,20897,5,0
96,160,21021,1,0
160,192,21145,1,0
224,160,21269,1,0
288,192,21393,1,0
352,160,21517,1,0
416,192,21640,1,0
480,160,21764,1,0
480,160,21888,6,0,B|608:272|480:384,1,260
256,160,22880,6,2,L|256:64,1,65
256,95,23128,1,2
256,224,23376,1,0
320,224,23500,1,0
256,224,23624,1,2
160,288,23872,1,0
160,224,23996,1,2
160,160,24120,1,0
160,32,24368,1,4
416,32,24864,5,0
384,96,24988,1,0
352,160,25112,1,2
288,288,25359,1,8
256,224,25483,1,8
224,160,25607,1,8
288,32,25855,1,8
288,96,25979,1,8
288,160,26103,1,2
352,256,26351,2,4,B|256:256|256:256|192:256|192:256|128:256,1,195
64,192,26971,5,0
192,192,27219,1,0
192,192,27343,1,0
480,352,27963,1,8
480,288,28087,1,8
480,224,28211,1,8
480,160,28335,2,10,B|480:320,1,130
480,160,28954,5,0
416,192,29078,1,0
352,160,29202,1,0
288,192,29326,1,0
224,160,29450,1,0
160,192,29574,1,0
96,160,29698,1,0
256,192,29822,12,4,30814
64,192,38748,5,0
192,192,38996,2,8,B|288:32|320:224|448:192,1,260
320,288,39739,1,0
192,288,39987,1,0
256,32,40483,1,8
32,192,40979,1,0
160,192,41227,1,0
256,96,41475,1,8
256,96,41599,1,8
256,224,41847,1,8
256,224,41971,1,8
384,224,42219,1,0
384,352,42467,1,2
352,160,42715,6,8,B|192:160,2,130
256,64,43458,1,0
128,64,43706,2,8,B|128:224,2,130
256,96,44450,1,0
32,0,44946,1,0
32,128,45194,1,0
160,128,45442,1,0
160,128,45566,2,0,B|416:128,1,195,0|4
512,128,46186,1,4
256,96,46681,6,0,B|352:192,2,130
128,96,47425,1,0
192,192,47673,2,0,B|320:320,2,130
320,128,48417,1,8
96,288,48913,1,0
224,320,49161,1,0
352,288,49409,1,8
352,288,49533,1,2
352,160,49781,1,2
352,160,49905,1,8
224,128,50152,1,2
96,160,50400,1,2
192,192,50648,6,2,B|352:192,2,130
256,96,51392,1,0
320,192,51640,2,2,B|320:352,2,130
192,192,52384,1,0
192,192,52632,1,0
256,32,53376,1,0
256,192,53623,1,0
256,192,53871,1,0
480,352,54367,1,0
480,352,54615,2,0,B|480:160|224:224,1,260
192,64,55855,5,0
256,64,55979,1,0
320,64,56103,1,0
320,128,56227,1,0
256,128,56351,1,0
192,128,56475,1,4
256,192,57094,5,8
256,192,57590,1,8
256,96,58086,5,0
256,224,58334,1,0
128,160,58582,2,2,B|416:160,2,260
128,288,59822,1,0
256,288,60070,1,0
320,256,60194,1,0
384,288,60318,1,0
448,256,60442,1,0
512,288,60566,1,0
256,192,61061,5,8
256,192,61557,1,8
160,128,62053,5,0
288,128,62301,1,0
416,192,62549,2,0,B|128:192,3,260
32,192,64284,1,0
32,192,64532,1,4
256,192,65028,5,8
256,192,65524,1,8
160,128,66020,5,2
160,128,66144,1,2
160,128,66268,1,2
288,128,66516,2,0,B|288:320,2,130
160,352,67260,1,0
160,224,67508,1,0
480,0,68251,5,4
384,96,68499,5,0
384,96,68623,1,0
384,96,68747,1,0
384,96,68871,1,0
384,96,68995,1,0
384,96,69119,1,0
384,96,69243,1,0
384,96,69367,1,0
384,96,69491,1,0
384,96,69615,1,0
384,96,69739,1,0
384,224,69987,5,0
320,224,70111,1,0
256,224,70235,1,0
192,224,70359,1,0
128,224,70483,2,10,B|-32:224,2,130
256,192,71226,12,2,71970
64,160,72466,6,10,L|128:192,1,65
192,192,72714,1,0
288,64,72962,2,10,L|256:128,1,65
224,64,73210,1,0
352,160,73458,2,10,L|288:192,1,65
224,224,73706,1,4
64,224,73954,1,4
256,224,74450,6,8,B|256:96,1,65
256,159,74698,1,8
96,160,74945,2,0,L|160:192,1,65
160,128,75193,1,0
224,224,75441,2,2,L|352:224,1,65
320,160,75689,1,2
320,0,75937,1,4
256,128,76433,5,0
256,128,76557,1,0
256,128,76681,2,0,B|352:128,1,65
384,128,76929,1,0
384,128,77053,1,0
384,128,77177,2,0,B|384:224,1,65
384,256,77425,1,0
256,320,77673,1,0
128,256,77921,1,0
256,192,78169,1,0
320,160,78416,5,2
256,128,78540,1,0
192,160,78664,1,2
192,224,78788,1,0
256,256,78912,1,2
320,224,79036,1,0
320,160,79160,1,2
256,192,79284,1,0
256,192,79408,5,0
384,192,79656,1,0
256,192,79904,1,0
256,320,80152,1,0
32,192,80400,5,0
96,160,80524,1,0
32,192,80648,1,2
192,160,80896,1,0
128,160,81020,1,0
160,96,81144,1,8
32,192,81392,1,0
96,160,81516,1,0
160,160,81640,1,0
320,160,81887,1,4
480,32,82383,5,2
480,96,82507,1,8
480,160,82631,1,2
480,224,82755,1,8
480,288,82879,1,2
480,352,83003,1,8
416,352,83127,1,2
352,352,83251,1,8
288,352,83375,1,2
224,352,83499,1,8
160,352,83623,1,2
96,352,83747,1,8
32,352,83871,5,10
32,288,83995,1,10
32,224,84119,1,10
32,160,84243,1,14
32,96,84367,1,14
32,32,84491,6,0,L|128:32,3,65
256,256,85359,1,8
224,192,85482,1,8
288,192,85606,1,8
256,128,85730,1,8
256,128,85854,2,8,B|96:128,1,130
448,96,86350,5,2
384,128,86474,1,0
320,96,86598,1,2
256,128,86722,1,2
192,96,86846,1,2
256,128,86970,1,2
320,96,87094,1,2
384,128,87218,1,2
256,192,87342,12,4,88334
32,192,92177,6,8,L|160:192,1,65
416,192,92796,2,0,L|128:192,1,260
157,192,93788,1,4
480,32,94284,5,4
480,352,94780,1,4
32,352,95276,1,4
32,32,95772,1,4
256,192,96267,5,0
96,256,96515,1,0
96,96,96763,1,0
256,96,97011,1,0
416,96,97259,2,2,L|416:256,1,130
224,224,97755,1,0
352,128,98003,1,0
160,128,98251,1,2
160,288,98499,1,2
256,192,98747,12,2,100234
