osu file format v5

[General]
AudioFilename: 01 Seishoujo Ryouiki (TV size).mp3
AudioLeadIn: 0
PreviewTime: 67356
Countdown: 0
SampleSet: Soft
StackLeniency: 0.7
Mode: 0
LetterboxInBreaks: 1

[Editor]
DistanceSpacing: 0.800000011920929
BeatDivisor: 4
GridSize: 8

[Metadata]
Title:Seishoujo Ryouiki (TV size)
Artist:ALI PROJECT
Creator:Armin
Version:Normal
Source:Rozen Maiden
Tags:Harry Orunitia xxheroxx collab Oru Rozen Maiden Shinku Traumend TV size

[Difficulty]
HPDrainRate:3
CircleSize:4
OverallDifficulty:3
SliderMultiplier:1.4
SliderTickRate:2

[Events]
//Background and Video events
Video,599,"video (1)comp.avi"
0,0,"Kawapaper_Rozenmaiden_0000160_1600x1200.jpg.jpg"
//Break Periods
2,18834,20917
2,50367,52230
2,64382,66027
//Storyboard Layer 0 (Background)
//Storyboard Layer 1 (Fail)
//Storyboard Layer 2 (Pass)
//Storyboard Layer 3 (Foreground)
//Storyboard Sound Samples
//Background Colour Transformations
3,100,163,162,255

[TimingPoints]
1117,437.956204379562,4,1,0,70,1,0
22143,-100,4,2,0,70,0,0
67252,-100,4,1,0,70,0,0
67686,-100,4,1,0,70,0,1
81030,-100,4,2,0,70,0,0

[Colours]
Combo1 : 72,123,51
Combo2 : 145,12,233
Combo3 : 223,223,0
Combo4 : 251,55,123

[HitObjects]
48,40,4401,2,0,B|120:40,1,70,0|4
120,152,5058,2,0,B|40:152,2,70,0|0|4
232,152,5934,2,0,B|240:104|280:104|328:104|328:160,2,140,0|8|8
232,264,7248,2,0,B|240:312|280:312|328:312|328:256,2,140,8|8|4
120,264,8562,6,0,B|24:264,2,70,0|0|4
120,152,9438,2,0,B|120:112|112:80|72:56|32:56,2,140,0|8|8
232,152,10752,2,0,B|232:112|240:80|280:56|320:56,2,140,8|8|4
176,248,12065,6,0,B|176:320,2,70,0|0|4
288,248,12941,2,0,B|288:296|336:296|384:296|384:232,2,140,0|8|8
288,136,14255,2,0,B|288:88|336:88|384:88|384:144,2,140,8|8|4
208,48,15569,1,0
144,136,16007,1,4
32,328,16883,5,4
88,232,17321,1,0
144,136,17759,2,8,B|168:64|200:80|256:88|304:96|344:136|392:88|376:32,1,280,8|4
48,88,22357,5,0
48,144,22576,1,8
48,200,22795,1,2
48,256,23014,2,0,B|48:304|120:320|176:288|160:192,1,210
176,80,24109,2,0,B|208:32|272:32|320:80|304:128|256:176|208:208|208:240|240:288|304:304|368:240,1,420,2|0
440,152,25861,5,0
480,192,26080,1,8
480,248,26299,1,2
448,288,26518,2,0,B|432:336|400:352|352:320|352:288|288:264|272:336,1,210
280,207,27613,2,0,B|333:156|317:92|269:60|237:60|205:108|157:156|109:172|61:124|64:96|72:88,1,350,2|0
40,272,29365,5,0
80,312,29584,1,8
120,272,29803,1,2
152,312,30022,2,0,B|168:360|216:360|264:360|232:280|296:264|328:328,1,210,0|0
336,200,31116,6,0,B|416:200,1,70,0|8
368,96,31773,2,0,B|368:48|336:16|272:32|272:64,1,140,0|8
224,160,32649,2,0,B|277:212|261:276|213:308|181:308|149:260|101:212|41:224|1:256|5:308|73:352,1,420,4|0
256,192,34292,12,4,35715
256,192,36372,5,0
312,208,36591,1,8
336,256,36810,1,2
312,304,37029,2,0,B|288:336|272:352|232:328|232:296|208:264|152:272|128:304,1,210,0|0
72,199,38124,2,0,B|25:155|41:91|89:59|121:59|153:107|201:155|249:171|297:123|318:47|239:41,1,420,2|0
352,40,39876,5,0
392,80,40095,1,8
392,136,40314,1,2
352,176,40533,2,0,B|402:200|386:264|306:232|306:280|306:328|354:344,1,210,0|0
240,328,41627,1,0
208,280,41846,1,8
176,328,42065,1,2
144,280,42284,1,0
32,328,42722,1,2
24,160,43379,5,0
24,104,43598,1,8
64,64,43817,1,2
112,80,44036,1,0
280,80,44693,1,2
392,80,45131,6,0,B|392:136|448:136,3,70
424,248,46226,1,8
360,336,46664,1,0
216,248,47321,1,2
160,248,47540,1,0
80,168,47978,1,8
160,96,48416,1,0
256,192,48525,12,4,50168
184,296,53671,5,8
136,192,54109,2,2,B|176:152|208:200|208:200,1,70
232,144,54547,2,2,B|272:104|304:152|304:152,1,70
320,192,54985,2,2,B|360:152|392:200|392:200,2,70
256,192,55533,12,2,56737
472,336,57175,6,0,B|472:248,4,70,8|2|8|8|2
256,264,58927,2,0,B|256:352,4,70,8|2|8|2|0
32,232,60679,2,0,B|24:152|120:56|152:200|184:256|280:160|264:80|192:80,1,350,2|0
168,48,61992,1,0
112,32,62211,1,2
256,192,62430,12,4,64182
464,344,67467,6,0,B|392:344,1,70,0|4
392,232,68124,2,0,B|472:232,2,70,0|0|4
280,232,69000,2,0,B|272:280|232:280|184:280|184:224,2,140,0|8|8
280,120,70314,2,0,B|272:72|232:72|184:72|184:128,2,140,8|8|4
392,120,71627,6,0,B|488:120,2,70,0|0|4
392,232,72503,2,0,B|392:272|400:304|440:328|480:328,2,140,0|8|8
280,232,73817,2,0,B|280:272|272:304|232:328|192:328,2,140,8|8|4
336,136,75131,6,0,B|336:64,2,70,0|0|4
224,136,76007,2,0,B|224:88|176:88|128:88|128:152,2,140,0|8|8
224,248,77321,2,0,B|224:296|176:296|128:296|128:240,2,140,8|8|4
304,336,78635,1,0
368,248,79073,1,4
480,56,79949,5,0
424,152,80387,1,0
360,56,80825,1,4
256,192,81044,12,4,83014
392,96,83452,5,2
448,96,83671,1,2
448,152,83890,1,8
448,264,84328,2,4,B|296:264,1,140
192,264,85204,2,0,B|104:264|96:264,2,70,2|0|4
120,176,86080,2,0,B|216:176,2,70,2|0|4
256,192,86956,12,4,89584
