osu file format v12

[General]
AudioFilename: Another (ALI PROJECT) - Kyoumu Densen (TV Size).mp3
AudioLeadIn: 3000
PreviewTime: 0
Countdown: 1
SampleSet: Soft
StackLeniency: 0.7
Mode: 1
LetterboxInBreaks: 1
WidescreenStoryboard: 1

[Editor]
DistanceSpacing: 0.9
BeatDivisor: 4
GridSize: 4
TimelineZoom: 2.2

[Metadata]
Title:Kyoumu Densen (TV Size)
TitleUnicode:Kyoumu Densen (TV Size)
Artist:ALI PROJECT
ArtistUnicode:ALI PROJECT
Creator:Ririi
Version:Muzukashii
Source:Another
Tags:Misaki Mei Koichi Sakakibara Horror Splatter Opening Yukito Ayatsuji [TaikoTori] Papcio
BeatmapID:373945
BeatmapSetID:148396

[Difficulty]
HPDrainRate:5
CircleSize:5
OverallDifficulty:6
ApproachRate:10
SliderMultiplier:1.6
SliderTickRate:1

[Events]
//Background and Video events
0,0,"Another - Background.jpg",0,0
Video,0,"Another OP.avi"
//Break Periods
//Storyboard Layer 0 (Background)
//Storyboard Layer 1 (Fail)
//Storyboard Layer 2 (Pass)
//Storyboard Layer 3 (Foreground)
//Storyboard Sound Samples
//Background Colour Transformations
3,100,163,162,255

[TimingPoints]
90,413.507925568573,4,2,1,100,1,0
60462,-100,4,2,1,100,0,1
66664,-100,4,2,1,100,0,0
67078,-100,4,2,1,100,0,1
73280,-100,4,2,1,100,0,0
75348,-100,4,2,1,100,0,1
82791,-100,4,2,1,100,0,0

[HitObjects]
160,188,90,5,0,0:0:0:0:
344,228,710,1,0,0:0:0:0:
144,168,813,1,0,0:0:0:0:
144,168,917,1,8,0:0:0:0:
312,260,1537,1,8,0:0:0:0:
284,244,1640,1,0,0:0:0:0:
256,232,1744,1,8,0:0:0:0:
88,136,2364,1,0,0:0:0:0:
116,152,2467,1,8,0:0:0:0:
144,168,2571,1,8,0:0:0:0:
252,228,2984,1,8,0:0:0:0:
204,200,3191,1,0,0:0:0:0:
204,200,3294,1,0,0:0:0:0:
204,200,3398,1,8,0:0:0:0:
204,200,3811,1,8,0:0:0:0:
204,200,4018,1,0,0:0:0:0:
204,200,4121,1,0,0:0:0:0:
204,200,4225,1,8,0:0:0:0:
204,200,4638,1,0,0:0:0:0:
204,200,4845,1,8,0:0:0:0:
204,200,4948,1,8,0:0:0:0:
204,200,5052,1,8,0:0:0:0:
204,200,5465,1,0,0:0:0:0:
204,200,5672,1,0,0:0:0:0:
204,200,5775,1,0,0:0:0:0:
204,200,5879,1,8,0:0:0:0:
204,200,6292,1,0,0:0:0:0:
204,200,6430,1,0,0:0:0:0:
204,200,6568,1,8,0:0:0:0:
256,192,6706,12,0,7533,0:0:0:0:
204,200,7946,5,0,0:0:0:0:
204,200,8360,5,8,0:0:0:0:
204,200,8566,1,0,0:0:0:0:
204,200,8773,1,8,0:0:0:0:
204,200,8877,1,8,0:0:0:0:
204,200,8980,1,0,0:0:0:0:
204,200,9187,1,4,0:0:0:0:
204,200,9600,1,8,0:0:0:0:
204,200,9807,1,0,0:0:0:0:
204,200,9910,1,0,0:0:0:0:
204,200,10014,1,8,0:0:0:0:
204,200,10427,1,8,0:0:0:0:
204,200,10634,1,8,0:0:0:0:
204,200,10737,1,8,0:0:0:0:
204,200,10841,1,0,0:0:0:0:
204,200,11254,1,0,0:0:0:0:
204,200,11461,1,0,0:0:0:0:
204,200,11564,1,0,0:0:0:0:
204,200,11668,1,8,0:0:0:0:
204,200,12081,1,8,0:0:0:0:
204,200,12288,1,2,0:0:0:0:
204,200,12391,1,8,0:0:0:0:
204,200,12495,1,0,0:0:0:0:
204,200,12908,1,0,0:0:0:0:
204,200,13046,1,0,0:0:0:0:
204,200,13184,1,0,0:0:0:0:
204,200,13322,1,8,0:0:0:0:
204,200,13460,1,8,0:0:0:0:
204,200,13597,1,8,0:0:0:0:
204,200,13735,1,8,0:0:0:0:
204,200,13873,1,0,0:0:0:0:
204,200,14045,1,0,0:0:0:0:
204,200,14149,1,0,0:0:0:0:
204,200,14356,1,2,0:0:0:0:
204,200,14459,1,8,0:0:0:0:
204,200,14562,1,0,0:0:0:0:
204,200,14769,1,0,0:0:0:0:
204,200,14976,1,0,0:0:0:0:
204,200,15079,1,0,0:0:0:0:
204,200,15183,1,2,0:0:0:0:
204,200,15389,1,4,0:0:0:0:
204,200,15596,1,0,0:0:0:0:
204,200,15803,1,0,0:0:0:0:
204,200,16010,1,0,0:0:0:0:
204,200,16216,1,8,0:0:0:0:
204,200,16423,1,0,0:0:0:0:
204,200,16630,1,0,0:0:0:0:
204,200,16733,1,8,0:0:0:0:
204,200,16837,1,0,0:0:0:0:
204,200,17043,1,0,0:0:0:0:
204,200,17457,1,8,0:0:0:0:
204,200,17664,1,8,0:0:0:0:
204,200,17870,1,0,0:0:0:0:
204,200,18077,1,0,0:0:0:0:
204,200,18284,1,0,0:0:0:0:
204,200,18387,1,8,0:0:0:0:
204,200,18491,1,0,0:0:0:0:
204,200,18697,1,0,0:0:0:0:
204,200,19111,1,2,0:0:0:0:
420,268,19731,1,0,0:0:0:0:
456,280,19835,1,0,0:0:0:0:
456,280,19938,1,8,0:0:0:0:
456,280,20351,1,8,0:0:0:0:
420,268,20558,1,0,0:0:0:0:
420,268,20662,1,0,0:0:0:0:
456,280,20765,1,8,0:0:0:0:
456,280,21178,1,0,0:0:0:0:
316,256,21592,1,2,0:0:0:0:
460,272,22005,1,2,0:0:0:0:
316,256,22212,1,0,0:0:0:0:
316,256,22316,1,0,0:0:0:0:
456,280,22419,1,0,0:0:0:0:
456,280,23039,1,0,0:0:0:0:
456,280,23143,1,0,0:0:0:0:
456,280,23246,1,8,0:0:0:0:
456,280,23659,1,8,0:0:0:0:
456,280,24073,1,8,0:0:0:0:
456,280,24176,1,2,0:0:0:0:
456,280,24280,1,0,0:0:0:0:
456,280,24486,1,0,0:0:0:0:
456,280,24693,1,0,0:0:0:0:
368,256,24900,1,2,0:0:0:0:
456,280,25313,1,0,0:0:0:0:
456,280,25727,1,0,0:0:0:0:
456,280,26347,1,0,0:0:0:0:
456,280,26451,1,0,0:0:0:0:
456,280,26554,1,8,0:0:0:0:
456,280,26968,1,8,0:0:0:0:
456,280,27381,1,8,0:0:0:0:
456,280,27588,1,8,0:0:0:0:
456,280,27691,1,8,0:0:0:0:
456,280,27795,1,0,0:0:0:0:
456,280,28001,1,0,0:0:0:0:
456,280,28208,1,8,0:0:0:0:
364,256,28415,1,0,0:0:0:0:
364,256,28518,1,0,0:0:0:0:
456,280,28622,1,8,0:0:0:0:
456,280,29035,1,8,0:0:0:0:
456,280,29655,1,8,0:0:0:0:
364,256,29759,1,2,0:0:0:0:
456,280,29862,1,0,0:0:0:0:
456,280,30276,1,0,0:0:0:0:
456,280,30689,1,8,0:0:0:0:
456,280,30792,1,0,0:0:0:0:
456,280,30896,1,0,0:0:0:0:
456,280,31103,1,0,0:0:0:0:
456,280,31516,1,8,0:0:0:0:
456,280,31619,1,0,0:0:0:0:
456,280,31723,1,0,0:0:0:0:
456,280,31930,1,8,0:0:0:0:
456,280,32033,1,2,0:0:0:0:
456,280,32136,1,0,0:0:0:0:
456,280,32343,1,8,0:0:0:0:
456,280,32963,1,0,0:0:0:0:
456,280,33067,1,8,0:0:0:0:
456,280,33170,1,0,0:0:0:0:
456,280,33584,1,8,0:0:0:0:
364,256,33790,1,0,0:0:0:0:
364,256,33894,1,2,0:0:0:0:
456,280,33997,1,8,0:0:0:0:
456,280,34411,1,0,0:0:0:0:
456,280,34824,1,0,0:0:0:0:
456,280,35238,1,8,0:0:0:0:
456,280,35651,1,0,0:0:0:0:
456,280,35858,1,0,0:0:0:0:
456,280,35961,1,0,0:0:0:0:
456,280,36065,1,0,0:0:0:0:
456,280,36271,1,0,0:0:0:0:
456,280,36478,1,8,0:0:0:0:
456,280,36892,1,0,0:0:0:0:
456,280,37305,1,8,0:0:0:0:
364,256,37512,1,2,0:0:0:0:
456,280,37719,1,0,0:0:0:0:
456,280,38132,1,0,0:0:0:0:
364,256,38236,1,0,0:0:0:0:
364,256,38339,1,2,0:0:0:0:
456,280,38546,1,0,0:0:0:0:
456,280,38959,1,0,0:0:0:0:
252,212,39166,1,0,0:0:0:0:
252,212,39269,1,0,0:0:0:0:
252,212,39373,1,2,0:0:0:0:
252,212,39580,1,8,0:0:0:0:
280,224,39683,1,0,0:0:0:0:
280,224,39786,1,0,0:0:0:0:
280,224,40200,1,8,0:0:0:0:
280,224,40407,1,0,0:0:0:0:
280,224,40613,1,0,0:0:0:0:
280,224,41027,1,0,0:0:0:0:
280,224,41130,1,0,0:0:0:0:
280,224,41234,1,0,0:0:0:0:
280,224,41440,1,8,0:0:0:0:
280,224,41854,1,8,0:0:0:0:
280,224,42267,1,0,0:0:0:0:
280,224,42681,1,0,0:0:0:0:
280,224,42784,1,0,0:0:0:0:
280,224,42888,1,2,0:0:0:0:
280,224,43094,1,0,0:0:0:0:
280,224,43508,1,8,0:0:0:0:
280,224,43921,1,0,0:0:0:0:
280,224,44025,1,2,0:0:0:0:
280,224,44128,1,8,0:0:0:0:
280,224,44335,1,0,0:0:0:0:
280,224,44438,1,2,0:0:0:0:
280,224,44542,1,0,0:0:0:0:
280,224,44748,1,8,0:0:0:0:
280,224,45162,1,0,0:0:0:0:
280,224,45575,1,0,0:0:0:0:
280,224,45679,1,0,0:0:0:0:
280,224,45782,1,8,0:0:0:0:
280,224,45989,1,8,0:0:0:0:
280,224,46092,1,0,0:0:0:0:
280,224,46196,1,0,0:0:0:0:
280,224,46402,1,0,0:0:0:0:
280,224,46506,1,0,0:0:0:0:
280,224,46609,1,2,0:0:0:0:
280,224,46816,5,2,0:0:0:0:
280,224,46919,5,2,0:0:0:0:
280,224,47023,1,0,0:0:0:0:
280,224,47229,1,2,0:0:0:0:
280,224,47333,1,2,0:0:0:0:
280,224,47436,1,0,0:0:0:0:
280,224,47643,1,0,0:0:0:0:
280,224,47746,1,0,0:0:0:0:
280,224,47850,1,8,0:0:0:0:
280,224,48056,1,0,0:0:0:0:
280,224,48470,1,8,0:0:0:0:
280,224,48883,1,0,0:0:0:0:
280,224,48987,1,0,0:0:0:0:
280,224,49090,1,8,0:0:0:0:
280,224,49297,1,8,0:0:0:0:
280,224,49400,1,8,0:0:0:0:
280,224,49504,1,0,0:0:0:0:
280,224,49710,1,0,0:0:0:0:
280,224,49814,1,0,0:0:0:0:
280,224,49917,1,8,0:0:0:0:
280,224,50124,1,8,0:0:0:0:
280,224,50227,1,0,0:0:0:0:
280,224,50331,1,8,0:0:0:0:
280,224,50537,1,0,0:0:0:0:
280,224,50641,1,0,0:0:0:0:
280,224,50744,1,8,0:0:0:0:
280,224,50951,1,0,0:0:0:0:
280,224,51158,1,0,0:0:0:0:
280,224,51364,1,8,0:0:0:0:
280,224,51778,1,8,0:0:0:0:
280,224,51881,1,2,0:0:0:0:
280,224,51985,1,8,0:0:0:0:
280,224,52088,1,0,0:0:0:0:
280,224,52191,1,0,0:0:0:0:
280,224,52605,1,0,0:0:0:0:
280,224,52812,1,0,0:0:0:0:
280,224,52915,1,0,0:0:0:0:
280,224,53019,1,8,0:0:0:0:
280,224,53432,1,0,0:0:0:0:
280,224,53639,1,0,0:0:0:0:
280,224,53742,1,0,0:0:0:0:
280,224,53846,1,0,0:0:0:0:
280,224,53949,5,0,0:0:0:0:
280,224,54052,1,8,0:0:0:0:
280,224,54259,1,0,0:0:0:0:
280,224,54466,1,0,0:0:0:0:
280,224,54673,1,8,0:0:0:0:
280,224,55086,1,0,0:0:0:0:
280,224,55189,1,0,0:0:0:0:
280,224,55293,1,8,0:0:0:0:
280,224,55500,1,0,0:0:0:0:
280,224,55913,1,8,0:0:0:0:
280,224,56120,1,0,0:0:0:0:
280,224,56223,1,0,0:0:0:0:
280,224,56327,1,0,0:0:0:0:
280,224,56533,1,8,0:0:0:0:
280,224,56740,1,0,0:0:0:0:
280,224,56947,1,0,0:0:0:0:
280,224,57050,1,0,0:0:0:0:
280,224,57154,1,8,0:0:0:0:
280,224,57360,1,0,0:0:0:0:
280,224,57567,1,8,0:0:0:0:
280,224,57774,1,0,0:0:0:0:
280,224,57877,1,0,0:0:0:0:
280,224,57981,1,8,0:0:0:0:
280,224,58187,1,0,0:0:0:0:
280,224,58394,1,8,0:0:0:0:
280,224,58601,1,0,0:0:0:0:
280,224,58808,1,8,0:0:0:0:
280,224,58911,1,8,0:0:0:0:
280,224,59014,1,0,0:0:0:0:
280,224,59221,1,0,0:0:0:0:
280,224,59325,1,0,0:0:0:0:
280,224,59428,1,8,0:0:0:0:
280,224,59635,1,0,0:0:0:0:
280,224,59738,1,8,0:0:0:0:
280,224,59841,1,8,0:0:0:0:
280,224,60048,1,4,0:0:0:0:
280,224,60255,1,4,0:0:0:0:
280,224,60462,1,4,0:0:0:0:
280,224,60875,1,8,0:0:0:0:
280,224,61082,1,0,0:0:0:0:
280,224,61185,1,0,0:0:0:0:
280,224,61289,1,8,0:0:0:0:
280,224,61702,1,0,0:0:0:0:
280,224,61909,1,0,0:0:0:0:
280,224,62012,1,0,0:0:0:0:
280,224,62116,1,8,0:0:0:0:
280,224,62529,1,8,0:0:0:0:
280,224,62736,1,0,0:0:0:0:
280,224,62839,1,0,0:0:0:0:
280,224,62943,1,8,0:0:0:0:
280,224,63356,1,8,0:0:0:0:
280,224,63563,1,0,0:0:0:0:
280,224,63666,1,0,0:0:0:0:
280,224,63770,1,8,0:0:0:0:
280,224,64149,1,0,0:0:0:0:
280,224,64287,1,0,0:0:0:0:
280,224,64424,1,0,0:0:0:0:
280,224,64597,1,8,0:0:0:0:
280,224,64803,1,8,0:0:0:0:
280,224,65010,1,0,0:0:0:0:
280,224,65217,1,8,0:0:0:0:
280,224,65424,1,0,0:0:0:0:
280,224,65631,1,0,0:0:0:0:
280,224,65734,1,0,0:0:0:0:
280,224,65837,1,8,0:0:0:0:
280,224,66044,1,0,0:0:0:0:
280,224,66251,1,0,0:0:0:0:
280,224,66354,1,8,0:0:0:0:
280,224,66458,1,8,0:0:0:0:
280,224,66561,1,0,0:0:0:0:
280,224,66664,1,0,0:0:0:0:
280,224,66871,1,8,0:0:0:0:
280,224,67078,1,0,0:0:0:0:
280,224,67491,1,0,0:0:0:0:
280,224,67698,1,0,0:0:0:0:
280,224,67801,1,0,0:0:0:0:
280,224,67905,1,8,0:0:0:0:
280,224,68318,1,0,0:0:0:0:
280,224,68422,1,0,0:0:0:0:
280,224,68525,1,0,0:0:0:0:
280,224,68628,1,8,0:0:0:0:
280,224,68732,1,0,0:0:0:0:
280,224,69145,1,8,0:0:0:0:
280,224,69352,1,0,0:0:0:0:
280,224,69455,1,8,0:0:0:0:
280,224,69559,1,8,0:0:0:0:
280,224,69972,1,8,0:0:0:0:
280,224,70179,1,0,0:0:0:0:
280,224,70282,1,0,0:0:0:0:
280,224,70386,1,0,0:0:0:0:
280,224,70799,1,0,0:0:0:0:
280,224,70937,1,0,0:0:0:0:
280,224,71075,1,0,0:0:0:0:
280,224,71213,1,8,0:0:0:0:
280,224,71351,1,8,0:0:0:0:
280,224,71489,1,8,0:0:0:0:
280,224,71626,1,8,0:0:0:0:
280,224,71764,1,0,0:0:0:0:
280,224,71902,1,0,0:0:0:0:
280,224,72040,1,0,0:0:0:0:
280,224,72247,1,0,0:0:0:0:
280,224,72350,1,0,0:0:0:0:
280,224,72453,1,8,0:0:0:0:
280,224,72660,1,0,0:0:0:0:
280,224,72867,1,0,0:0:0:0:
280,224,72970,1,0,0:0:0:0:
280,224,73074,1,0,0:0:0:0:
280,224,73177,1,0,0:0:0:0:
280,224,73280,1,8,0:0:0:0:
280,224,73487,1,0,0:0:0:0:
280,224,73694,1,8,0:0:0:0:
280,224,73901,1,0,0:0:0:0:
280,224,74107,1,8,0:0:0:0:
280,224,74211,1,2,0:0:0:0:
280,224,74314,1,8,0:0:0:0:
280,224,74418,1,0,0:0:0:0:
280,224,74521,1,0,0:0:0:0:
280,224,74934,1,8,0:0:0:0:
280,224,75348,1,8,0:0:0:0:
280,224,75624,1,0,0:0:0:0:
280,224,75761,1,8,0:0:0:0:
280,224,75968,1,0,0:0:0:0:
280,224,76175,1,2,0:0:0:0:
280,224,76588,1,8,0:0:0:0:
280,224,77002,1,0,0:0:0:0:
280,224,77312,1,0,0:0:0:0:
280,224,77415,1,8,0:0:0:0:
280,224,77519,1,2,0:0:0:0:
280,224,77622,1,0,0:0:0:0:
280,224,77829,1,8,0:0:0:0:
280,224,78036,1,8,0:0:0:0:
280,224,78242,1,0,0:0:0:0:
280,224,78346,1,2,0:0:0:0:
280,224,78449,1,0,0:0:0:0:
312,232,78553,1,0,0:0:0:0:
280,224,78656,1,0,0:0:0:0:
280,224,78863,1,0,0:0:0:0:
280,224,78966,1,2,0:0:0:0:
280,224,79070,1,0,0:0:0:0:
280,224,79276,1,8,0:0:0:0:
280,224,79483,1,0,0:0:0:0:
280,224,79586,1,0,0:0:0:0:
280,224,79793,1,0,0:0:0:0:
280,224,79897,1,8,0:0:0:0:
280,224,80310,1,0,0:0:0:0:
280,224,80413,1,0,0:0:0:0:
280,224,80517,1,0,0:0:0:0:
280,224,80620,1,0,0:0:0:0:
280,224,80724,1,8,0:0:0:0:
280,224,81137,1,8,0:0:0:0:
280,224,81344,1,0,0:0:0:0:
280,224,81447,1,2,0:0:0:0:
280,224,81551,1,8,0:0:0:0:
280,224,81964,1,4,0:0:0:0:
384,192,82274,1,8,0:0:0:0:
348,204,82378,1,0,0:0:0:0:
280,224,82584,1,8,0:0:0:0:
344,204,82791,1,0,0:0:0:0:
312,216,82929,1,0,0:0:0:0:
312,216,83067,1,0,0:0:0:0:
312,216,83205,1,8,0:0:0:0:
312,216,83342,1,8,0:0:0:0:
312,216,83515,1,8,0:0:0:0:
312,216,83618,1,0,0:0:0:0:
280,224,83825,1,0,0:0:0:0:
280,224,83928,1,8,0:0:0:0:
280,224,84032,1,0,0:0:0:0:
312,216,84238,1,0,0:0:0:0:
312,216,84445,1,8,0:0:0:0:
312,216,84652,1,0,0:0:0:0:
312,216,84859,1,8,0:0:0:0:
312,216,84996,1,0,0:0:0:0:
312,216,85169,1,0,0:0:0:0:
312,216,85272,1,0,0:0:0:0:
312,216,85892,1,8,0:0:0:0:
256,192,86926,12,0,88580,0:0:0:0:
