osu file format v12

[General]
AudioFilename: Another (ALI PROJECT) - Kyoumu Densen (TV Size).mp3
AudioLeadIn: 3000
PreviewTime: 0
Countdown: 1
SampleSet: Soft
StackLeniency: 0.7
Mode: 0
LetterboxInBreaks: 1
WidescreenStoryboard: 1

[Editor]
DistanceSpacing: 1.4
BeatDivisor: 4
GridSize: 4
TimelineZoom: 1

[Metadata]
Title:Kyoumu Densen (TV Size)
TitleUnicode:Kyoumu Densen (TV Size)
Artist:ALI PROJECT
ArtistUnicode:ALI PROJECT
Creator:Ririi
Version:Insane
Source:Another
Tags:Misaki Mei Koichi Sakakibara Horror Splatter Opening Yukito Ayatsuji [TaikoTori] Papcio
BeatmapID:373944
BeatmapSetID:148396

[Difficulty]
HPDrainRate:6
CircleSize:4
OverallDifficulty:6
ApproachRate:8
SliderMultiplier:1.9
SliderTickRate:2

[Events]
//Background and Video events
0,0,"Another - Background.jpg",0,0
//Break Periods
//Storyboard Layer 0 (Background)
//Storyboard Layer 1 (Fail)
//Storyboard Layer 2 (Pass)
//Storyboard Layer 3 (Foreground)
//Storyboard Sound Samples
//Background Colour Transformations
3,100,163,162,255

[TimingPoints]
90,413.507925568573,4,2,1,80,1,0
710,-100,4,3,1,65,0,0
6499,-100,4,2,1,20,0,0
7533,-100,4,2,1,70,0,0
8773,-100,4,3,1,20,0,0
8877,-100,4,3,1,40,0,0
8980,-100,4,3,1,60,0,0
9083,-100,4,3,1,75,0,0
9187,-100,4,2,1,70,0,0
9910,-100,4,3,1,50,0,0
15079,-100,4,3,1,75,0,0
19111,-100,4,2,1,60,0,0
19835,-100,4,3,1,30,0,0
27795,-100,4,2,1,40,0,0
27898,-100,4,2,1,60,0,0
29655,-100,4,3,1,30,0,0
34204,-100,4,2,1,30,0,0
34307,-100,4,2,1,60,0,0
36271,-100,4,3,1,40,0,0
36375,-100,4,3,1,50,0,0
37512,-100,4,2,1,40,0,0
37615,-100,4,2,1,60,0,0
39580,-100,4,3,1,40,0,0
39683,-100,4,3,1,50,0,0
45575,-100,4,2,1,40,0,0
46713,-100,4,3,1,40,0,0
46816,-100,4,3,1,50,0,0
51985,-100,4,3,1,40,0,0
52088,-100,4,3,1,50,0,0
52191,-100,4,2,1,60,0,0
60255,-100,4,3,1,60,0,0
60462,-100,4,2,1,60,0,1
61082,-100,4,3,1,60,0,1
66664,-100,4,3,1,20,0,0
66768,-100,4,3,1,40,0,0
66871,-100,4,3,1,60,0,0
66974,-100,4,3,1,70,0,0
67078,-100,4,2,1,70,0,1
67801,-100,4,3,1,30,0,1
68525,-100,4,3,1,70,0,1
73280,-100,4,2,1,70,0,0
73694,-100,4,2,1,70,0,1
73797,-100,4,2,1,60,0,0
74004,-100,4,3,1,30,0,0
75348,-100,4,2,1,60,0,1
75451,-100,4,2,1,60,0,0
76175,-100,4,3,1,20,0,0
76278,-100,4,3,1,40,0,0
76382,-100,4,3,1,60,0,0
76485,-100,4,3,1,70,0,0
77312,-100,4,3,1,40,0,0
84445,-100,4,2,1,30,0,0
84548,-100,4,2,1,60,0,0
87030,-100,4,2,1,30,0,0
88580,-100,4,2,1,5,0,0

[Colours]
Combo1 : 209,181,67
Combo2 : 16,163,205
Combo3 : 123,188,84
Combo4 : 244,15,20

[HitObjects]
28,308,90,6,0,L|128:308,1,95,4|0,1:0|3:0,0:0:0:0:
244,276,503,1,0,3:0:0:0:
300,176,710,1,4,3:0:0:0:
300,176,813,1,4,0:0:0:0:
300,176,917,2,0,L|352:96,2,95,0|0|0,1:0|3:0|1:0,0:0:0:0:
176,168,1537,5,4,3:0:0:0:
176,168,1640,1,4,0:0:0:0:
176,168,1744,2,0,L|124:248,1,95,0|0,1:0|3:0,0:0:0:0:
260,204,2157,2,0,L|304:120,1,95,0|0,1:0|3:0,0:0:0:0:
316,108,2467,1,4,0:0:0:0:
332,100,2571,2,0,P|380:68|404:40,2,95,0|0|0,1:0|3:0|1:0,0:0:0:0:
164,64,3191,5,4,3:0:0:0:
148,68,3294,1,4,0:0:0:0:
132,76,3398,2,0,B|96:96|96:96|60:144|60:144|68:136,2,95,4|0|0,1:0|3:0|1:0,0:0:0:0:
104,260,4018,1,4,3:0:0:0:
104,260,4121,1,4,0:0:0:0:
104,260,4225,2,0,P|172:324|276:352,1,190,0|0,1:0|1:0,0:0:0:0:
460,168,4845,5,4,3:0:0:0:
460,168,4948,1,4,0:0:0:0:
460,168,5052,2,0,P|392:104|288:76,1,190,4|0,1:0|1:0,0:0:0:0:
40,216,5672,1,4,3:0:0:0:
40,216,5775,1,4,0:0:0:0:
40,216,5879,2,0,P|108:280|212:308,1,190,4|0,1:0|1:0,0:0:0:0:
196,64,6499,2,0,L|244:92,2,47.5,0|0|0,1:0|1:0|1:0,0:0:0:0:
256,192,6809,12,4,7533,0:1:0:0:
184,140,7739,5,4,0:1:0:0:
288,44,7946,1,4,0:1:0:0:
348,172,8153,2,0,P|346:225|322:268,2,95,4|4|4,0:1|0:1|0:1,0:0:0:0:
216,152,8773,1,4,0:0:0:0:
188,144,8877,1,4,0:0:0:0:
160,144,8980,1,4,0:0:0:0:
132,156,9083,1,4,0:0:0:0:
112,176,9187,6,0,B|132:228|128:264|112:320,1,142.5,0|0,3:0|0:0,0:0:0:0:
140,320,9600,2,0,P|194:310|234:326,1,95,8|0,0:0|0:0,0:0:0:0:
256,332,9910,1,4,0:0:0:0:
284,320,10014,2,0,P|300:260|296:212,1,95,0|0,3:0|0:0,0:0:0:0:
308,104,10427,2,0,P|252:116|204:112,1,95,8|0,0:0|0:0,0:0:0:0:
196,92,10737,1,4,0:0:0:0:
188,64,10841,2,0,P|148:52|96:52,1,95,0|0,3:0|0:0,0:0:0:0:
95,166,11254,2,0,P|135:178|187:178,1,95,8|0,0:0|0:0,0:0:0:0:
216,188,11564,1,4,0:0:0:0:
240,204,11668,6,0,L|276:236|312:296,2,95,0|0|8,3:0|0:0|0:0,0:0:0:0:
188,40,12288,1,4,0:0:0:0:
212,52,12391,1,4,0:0:0:0:
236,68,12495,2,0,L|324:108,1,95,0|0,3:0|0:0,0:0:0:0:
324,340,12908,6,0,L|384:320,1,63.3333333333333,8|0,0:0|0:0,0:0:0:0:
388,296,13184,1,4,3:0:0:0:
512,272,13322,2,0,L|452:252,1,63.3333333333333,8|0,0:0|0:0,0:0:0:0:
444,228,13597,1,0,3:0:0:0:
348,196,13736,1,8,0:0:0:0:
264,252,13873,1,0,3:0:0:0:
264,354,14011,1,8,0:0:0:0:
164,336,14149,6,0,P|81:244|204:60,1,380,6|4,0:0|0:3,0:0:0:0:
204,60,15079,1,4,0:3:0:0:
204,60,15183,1,4,0:3:0:0:
312,64,15389,1,4,0:3:0:0:
312,64,15493,1,4,0:3:0:0:
312,64,15596,1,4,0:3:0:0:
192,188,15803,6,0,L|180:288,1,95,2|0,0:0|0:0,0:0:0:0:
344,228,16216,2,0,L|332:128,1,95,2|0,0:0|0:0,0:0:0:0:
456,120,16630,1,4,0:3:0:0:
456,120,16733,1,4,0:0:0:0:
456,120,16837,1,12,0:3:0:0:
464,244,17043,2,0,P|460:296|436:340,1,95
288,256,17457,6,0,P|240:259|198:281,1,95,2|0,0:0|0:0,0:0:0:0:
40,216,17870,2,0,P|88:213|130:191,1,95,2|0,0:0|0:0,0:0:0:0:
116,68,18284,1,4,0:0:0:0:
106,52,18387,1,4,0:0:0:0:
92,40,18491,1,12,0:0:0:0:
208,0,18697,2,0,P|256:-4|304:8,1,95
356,140,19111,6,0,P|356:228|184:284,1,285
176,264,19835,1,4,0:0:0:0:
188,236,19938,2,0,P|252:224|320:340,1,190,8|0,0:0|0:0,0:0:0:0:
324,311,20558,1,0,0:0:0:0:
412,144,20765,2,0,L|404:48,1,95,0|0,1:0|0:0,0:0:0:0:
300,136,21178,2,0,L|300:231,1,95
188,144,21591,2,0,L|195:49,1,95,0|0,1:0|0:0,0:0:0:0:
76,152,22005,1,0,0:0:0:0:
152,280,22419,6,0,P|223:279|296:272,1,142.5,0|0,0:0|0:0,0:0:0:0:
312,268,22832,2,0,P|336:204|336:160,1,95
168,72,23246,2,0,P|144:136|144:180,1,95,8|0,0:0|0:0,0:0:0:0:
264,48,23659,1,0,0:0:0:0:
264,48,24073,6,0,L|412:68,1,142.5
456,160,24486,2,0,L|314:140,1,142.5,2|0,0:0|0:0,0:0:0:0:
248,224,24900,2,0,L|400:248,1,142.5,8|0,0:0|0:0,0:0:0:0:
308,316,25313,2,0,L|167:293,1,142.5
160,264,25727,6,0,P|115:258|32:268,2,95,2|0|0,0:0|0:0|0:0,0:0:0:0:
144,160,26347,1,4,0:0:0:0:
124,160,26451,1,4,0:0:0:0:
104,152,26554,2,0,P|56:119|37:67,1,95,8|0,0:0|0:0,0:0:0:0:
124,24,26968,2,0,P|148:64|194:81,1,95
244,168,27381,2,0,P|292:96|256:0,2,190,0|0|8,0:0|0:0|0:0,0:0:0:0:
187,71,28415,1,0,0:0:0:0:
84,84,28622,2,0,B|69:128|69:128|69:176,1,95
103,274,29035,6,0,P|192:305|285:292,1,190,0|0,0:0|0:0,2:0:0:0:
360,204,29655,1,4,0:0:0:0:
360,204,29759,1,4,0:0:0:0:
360,204,29862,2,0,P|356:108|308:24,1,190,8|0,0:0|0:0,0:0:0:0:
196,51,30482,1,0,0:0:0:0:
213,145,30689,2,0,B|245:177|245:177|239:177|239:177|270:208,1,95,0|0,0:0|0:0,0:0:0:0:
213,145,31103,2,0,L|118:128,2,95,0|0|8,0:0|0:0|0:0,0:0:0:0:
348,168,31723,1,0,0:0:0:0:
220,240,31930,1,0,0:0:0:0:
308,252,32136,1,0,0:0:0:0:
264,336,32343,6,0,P|362:329|396:216,1,190,4|0,1:2|0:0,0:0:0:0:
388,152,32963,1,4,0:0:0:0:
368,128,33067,1,4,0:0:0:0:
356,100,33171,2,0,P|356:52|376:8,1,95,8|0,0:0|0:0,0:0:0:0:
268,84,33584,2,0,P|264:136|240:176,1,95
142,182,33997,5,0,3:0:0:0:
166,83,34204,1,0,3:0:0:0:
198,259,34411,1,0,3:0:0:0:
117,324,34618,1,0,0:0:0:0:
253,336,34824,1,8,0:0:0:0:
323,263,35031,1,0,0:0:0:0:
142,182,35238,2,0,L|255:339,1,190
253,336,36065,5,0,0:0:0:0:
336,272,36271,1,4,0:0:0:0:
360,252,36375,1,4,0:0:0:0:
375,224,36478,2,0,B|390:178|390:178|411:136,1,95,8|0,0:0|0:0,0:0:0:0:
332,36,36892,2,0,B|317:81|317:81|296:123,1,95
192,112,37305,6,0,L|47:94,1,142.5,0|0,3:0|0:0,0:0:0:0:
204,208,37719,2,0,L|347:227,1,142.5,2|0,0:0|0:0,0:0:0:0:
216,304,38132,2,0,L|67:366,1,142.5,8|0,0:0|0:0,0:0:0:0:
36,288,38546,6,0,B|36:244|16:240|16:196,1,95
104,140,38959,2,0,P|71:106|20:92,2,95,4|0|0,0:0|0:0|0:0,0:0:0:0:
180,212,39580,1,4,0:0:0:0:
180,212,39683,1,4,0:0:0:0:
180,212,39786,2,0,P|196:168|236:136,1,95,8|0,0:0|0:0,0:0:0:0:
180,52,40200,2,0,P|223:35|274:46,1,95
344,116,40613,5,0,0:0:0:0:
452,144,40820,1,0,0:0:0:0:
458,255,41027,1,0,0:0:0:0:
354,295,41234,1,0,0:0:0:0:
283,210,41440,2,0,L|204:136,1,95,8|0,0:0|0:0,0:0:0:0:
112,259,41854,2,0,L|205:280,1,95
127,351,42267,6,0,B|87:379|37:379|37:379|4:346|4:292,1,190
136,192,42888,1,0,0:0:0:0:
127,32,43094,2,0,B|87:5|37:5|37:5|4:38|4:92,1,190,8|0,0:0|0:0,0:0:0:0:
208,284,43715,1,0,0:0:0:0:
208,284,43921,1,0,0:0:0:0:
208,284,44128,2,0,B|208:152|176:232|176:100,1,190,0|0,1:0|0:0,0:0:0:0:
304,96,44748,2,0,B|304:228|336:148|336:280,1,190,8|0,0:0|0:0,0:0:0:0:
336,280,45575,6,0,P|328:328|292:376,1,95
228,208,45989,1,0,0:0:0:0:
216,340,46196,1,0,0:0:0:0:
336,280,46402,2,0,P|361:240|369:193,1,95,8|0,0:0|0:0,0:0:0:0:
368,164,46713,1,0,0:0:0:0:
360,132,46816,1,0,0:0:0:0:
248,80,47023,5,0,0:0:0:0:
360,132,47229,1,0,0:0:0:0:
163,170,47436,1,0,0:0:0:0:
248,80,47643,1,0,0:0:0:0:
345,254,47850,1,0,0:0:0:0:
223,277,48056,2,0,B|168:256|136:238|136:238|96:248|52:281,1,190,8|0,1:2|3:0,0:0:0:0:
52,280,48883,6,0,P|64:234|61:186,1,95
12,32,49297,2,0,P|0:80|4:126,1,95
100,84,49710,1,8,0:0:0:0:
209,106,49917,2,0,L|232:160,2,47.5
392,8,50331,1,0,0:0:0:0:
486,182,50537,2,0,L|440:100,1,95
388,216,50951,2,0,L|434:298,1,95
376,384,51364,2,0,L|283:218,1,190,8|0,1:2|3:0,0:0:0:0:
200,336,51985,5,4,0:0:0:0:
200,336,52088,1,4,0:0:0:0:
199,336,52191,2,0,P|150:369|15:369,1,190,4|0,0:0|0:0,0:0:0:0:
8,332,52812,1,0,0:0:0:0:
140,220,53019,2,0,B|112:184|112:132,1,95,8|0,0:0|0:0,0:0:0:0:
228,164,53433,1,0,0:0:0:0:
141,221,53639,1,0,0:0:0:0:
235,268,53846,1,0,0:0:0:0:
141,221,54052,1,0,0:0:0:0:
196,100,54259,2,0,B|231:135|284:135|318:170,1,142.5
368,220,54673,2,0,P|420:216|472:204,1,95,8|0,0:0|0:0,0:0:0:0:
408,300,55086,6,0,P|459:291|510:274,1,95,0|0,0:0|0:0,0:0:0:0:
484,52,55500,2,0,P|390:49|310:97,1,190,0|0,0:0|0:0,0:0:0:0:
240,168,56120,1,0,0:0:0:0:
292,324,56327,1,8,0:0:0:0:
352,188,56533,1,0,0:0:0:0:
204,260,56740,2,0,P|156:216|176:92,2,190,0|4|0,0:0|0:0|0:0,0:0:0:0:
240,168,57774,1,0,0:0:0:0:
88,80,57981,6,0,P|76:102|68:136,3,47.5,12|0|0|0,0:0|0:0|0:0|0:0,0:0:0:0:
72,204,58394,1,0,3:0:0:0:
80,236,58497,1,0,3:0:0:0:
96,264,58601,1,0,3:0:0:0:
120,292,58704,1,0,3:0:0:0:
148,312,58808,5,4,0:0:0:0:
321,157,59014,1,0,0:0:0:0:
364,312,59221,1,4,0:0:0:0:
191,157,59428,1,0,0:0:0:0:
144,384,59635,1,4,0:0:0:0:
298,210,59841,1,4,0:0:0:0:
308,374,60048,5,4,0:0:0:0:
134,220,60255,1,4,0:0:0:0:
134,220,60358,1,4,0:0:0:0:
134,220,60462,2,0,P|104:154|96:84,1,142.5,4|0,1:0|0:0,0:0:0:0:
96,84,60875,1,8,0:0:0:0:
8,8,61082,1,4,0:0:0:0:
0,44,61185,1,4,0:0:0:0:
0,80,61289,2,0,P|0:127|16:192,1,95,0|0,3:0|0:0,0:0:0:0:
52,268,61702,1,8,0:0:0:0:
156,276,61909,5,4,0:0:0:0:
206,265,62012,1,4,0:0:0:0:
249,235,62116,2,0,P|277:185|280:145,1,95,0|0,3:0|0:0,0:0:0:0:
224,24,62529,1,8,0:0:0:0:
176,116,62736,1,4,0:0:0:0:
168,168,62839,1,4,0:0:0:0:
175,219,62943,2,0,P|214:278|280:302,1,142.5,0|0,3:0|0:0,0:0:0:0:
280,302,63356,1,8,0:0:0:0:
408,292,63563,5,4,0:0:0:0:
416,316,63666,1,4,0:0:0:0:
416,340,63770,2,0,B|384:372|356:344|328:372,1,95,0|0,3:0|0:0,0:0:0:0:
256,296,64183,2,0,P|224:320|208:344,2,63.3333333333333,8|0|0,0:0|0:0|0:0,0:0:0:0:
340,264,64597,1,0,1:0:0:0:
356,123,64803,1,0,0:0:0:0:
223,175,65010,5,8,1:2:0:0:
93,250,65217,1,0,0:0:0:0:
100,108,65424,5,4,1:2:0:0:
223,175,65631,1,4,0:0:0:0:
93,250,65837,1,12,1:2:0:0:
164,64,66044,5,4,0:0:0:0:
244,245,66251,1,4,1:2:0:0:
47,223,66458,1,4,1:2:0:0:
108,96,66664,5,4,0:1:0:0:
144,60,66768,1,4,0:0:0:0:
192,40,66871,1,4,0:0:0:0:
244,36,66974,1,4,0:0:0:0:
296,36,67078,6,0,P|372:56|424:100,1,142.5,4|0,1:0|0:0,0:0:0:0:
432,124,67491,2,0,L|448:240,1,95,8|0,0:0|0:0,0:0:0:0:
448,248,67801,1,4,0:0:0:0:
452,280,67905,6,0,P|416:282|353:265,2,95,0|0|8,3:0|0:0|0:0,0:0:0:0:
365,364,68525,1,4,0:0:0:0:
337,358,68628,1,4,0:0:0:0:
312,348,68732,2,0,P|243:328|172:331,1,142.5,0|0,3:0|0:0,0:0:0:0:
82,344,69145,2,0,P|129:348|173:330,1,95,8|0,0:0|0:0,0:0:0:0:
200,308,69455,1,4,0:0:0:0:
220,280,69559,6,0,P|231:234|222:188,1,95,0|0,3:0|0:0,0:0:0:0:
312,132,69972,1,0,0:0:0:0:
424,44,70179,1,4,0:0:0:0:
424,44,70282,1,4,0:0:0:0:
424,44,70386,2,0,P|414:90|426:135,1,95,0|0,3:0|3:0,0:0:0:0:
436,244,70799,6,0,L|444:332,2,63.3333333333333,8|0|0,0:0|0:0|3:0,0:0:0:0:
301,289,71213,2,0,L|328:232,2,63.3333333333333,8|0|0,0:0|0:0|3:0,0:0:0:0:
224,344,71626,1,8,0:0:0:0:
128,340,71764,1,0,3:0:0:0:
48,288,71902,1,8,0:0:0:0:
24,196,72040,5,4,0:0:0:0:
24,196,72247,1,0,0:0:0:0:
80,108,72453,1,2,0:0:0:0:
80,108,72660,1,0,0:0:0:0:
144,192,72867,1,4,0:3:0:0:
168,188,72970,1,4,0:3:0:0:
192,172,73074,1,4,0:3:0:0:
256,112,73280,2,0,P|273:95|299:82,2,47.5,4|4|4,0:3|0:3|0:3,0:0:0:0:
244,216,73694,6,0,P|224:258|184:283,1,95,4|0,1:2|0:0,0:0:0:0:
132,288,74004,1,0,0:0:0:0:
88,260,74107,2,0,P|76:200|126:111,1,142.5,8|0,0:0|0:0,0:0:0:0:
144,121,74521,2,0,P|172:164|180:224,1,95,0|0,1:0|0:0,0:0:0:0:
16,120,74934,1,8,0:0:0:0:
154,38,75141,1,0,0:0:0:0:
244,92,75348,6,0,P|256:164|312:240,1,142.5,4|0,1:2|0:0,0:0:0:0:
328,260,75761,2,0,P|352:292|368:344,1,95,8|0,0:0|0:0,0:0:0:0:
444,220,76175,1,4,1:0:0:0:
444,202,76278,1,4,0:0:0:0:
444,184,76382,1,4,1:0:0:0:
444,166,76485,1,4,0:1:0:0:
444,148,76588,2,0,P|444:99|457:47,1,95,12|0,0:0|0:0,0:0:0:0:
296,96,77002,6,0,P|284:144|284:192,1,95,0|0,1:0|0:0,0:0:0:0:
280,228,77312,1,4,0:0:0:0:
260,260,77415,2,0,P|212:284|161:287,1,95,8|0,0:0|0:0,0:0:0:0:
132,282,77726,1,4,0:0:0:0:
104,256,77829,2,0,P|84:212|80:165,1,95,0|0,1:0|0:0,0:0:0:0:
196,44,78242,1,8,0:0:0:0:
192,192,78449,1,0,0:0:0:0:
192,192,78553,1,0,0:0:0:0:
192,192,78656,2,0,B|228:240|180:284|212:328,1,142.5,0|0,1:0|0:0,0:0:0:0:
280,300,79070,2,0,P|285:346|258:385,1,95,8|0,0:0|0:0,0:0:0:0:
124,368,79483,2,0,L|40:320,3,63.3333333333333,8|0|0|12,0:0|0:0|1:0|0:0,0:0:0:0:
256,192,80034,12,0,81964,0:0:0:0:
256,248,82378,5,0,0:0:0:0:
324,52,82791,2,0,L|380:24,2,63.3333333333333,0|0|0,3:0|0:0|3:0,0:0:0:0:
188,52,83205,2,0,L|132:24,2,63.3333333333333,0|0|0,3:0|0:0|3:0,0:0:0:0:
256,112,83618,5,4,0:1:0:0:
256,112,84032,1,0,0:0:0:0:
232,212,84238,1,0,0:0:0:0:
152,280,84445,2,0,P|80:312|8:304,1,142.5
0,304,84859,2,0,L|-12:368,2,63.3333333333333
16,204,85272,1,0,3:2:0:0:
32,104,85479,5,0,3:2:0:0:
32,104,85892,5,2,3:2:0:0:
464,4,86926,5,4,0:0:0:0:
256,192,87030,12,0,88580,0:0:0:0:
