osu file format v12

[General]
AudioFilename: Another (ALI PROJECT) - Kyoumu Densen (TV Size).mp3
AudioLeadIn: 3000
PreviewTime: 0
Countdown: 1
SampleSet: Soft
StackLeniency: 0.7
Mode: 0
LetterboxInBreaks: 0
WidescreenStoryboard: 0

[Editor]
Bookmarks: 8773
DistanceSpacing: 2
BeatDivisor: 4
GridSize: 4
TimelineZoom: 1

[Metadata]
Title:Kyoumu Densen (TV Size)
TitleUnicode:Kyoumu Densen (TV Size)
Artist:ALI PROJECT
ArtistUnicode:ALI PROJECT
Creator:Ririi
Version:Hard
Source:Another
Tags:Misaki Mei Koichi Sakakibara Horror Splatter Opening Yukito Ayatsuji [TaikoTori] Papcio
BeatmapID:378048
BeatmapSetID:148396

[Difficulty]
HPDrainRate:5
CircleSize:4
OverallDifficulty:5
ApproachRate:7
SliderMultiplier:1.6
SliderTickRate:2

[Events]
//Background and Video events
0,0,"Another - Background.jpg",0,0
//Break Periods
//Storyboard Layer 0 (Background)
//Storyboard Layer 1 (Fail)
//Storyboard Layer 2 (Pass)
//Storyboard Layer 3 (Foreground)
//Storyboard Sound Samples
//Background Colour Transformations
3,100,163,162,255

[TimingPoints]
90,413.507925568573,4,2,1,70,1,0
3398,-100,4,2,1,60,0,0
5052,-100,4,2,1,70,0,0
5879,-100,4,2,1,80,0,0
6706,-166.666666666667,4,2,1,20,0,0
7119,-166.666666666667,4,2,1,40,0,0
7533,-100,4,2,1,60,0,0
9187,-100,4,2,1,70,0,0
15803,-100,4,2,1,60,0,0
19111,-125,4,2,1,50,0,0
19214,-125,4,2,1,60,0,0
32343,-125,4,2,1,50,0,0
32446,-125,4,2,1,60,0,0
45575,-125,4,2,1,50,0,0
47229,-125,4,2,1,60,0,0
48056,-125,4,2,1,70,0,0
48883,-125,4,2,1,50,0,0
50537,-125,4,2,1,60,0,0
51364,-125,4,2,1,70,0,0
52191,-100,4,2,1,60,0,0
60462,-100,4,2,1,70,0,1
66664,-100,4,2,1,70,0,0
67078,-100,4,2,1,70,0,1
72040,-100,4,2,1,50,0,1
73280,-100,4,2,1,50,0,0
73694,-100,4,2,1,60,0,1
73797,-100,4,2,1,60,0,0
75348,-100,4,2,1,60,0,1
75451,-100,4,2,1,60,0,0
81964,-100,4,2,1,50,0,0
86926,-100,4,2,1,30,0,0
87753,-100,4,2,1,20,0,0
88580,-100,4,2,1,5,0,0

[Colours]
Combo1 : 255,36,146
Combo2 : 255,0,0
Combo3 : 128,0,255
Combo4 : 230,230,230

[HitObjects]
224,108,90,6,0,B|288:72|288:72|312:96|404:68,1,160,4|8,0:0|0:0,0:0:0:0:
448,36,710,1,4,0:0:0:0:
460,48,813,1,4,0:0:0:0:
468,64,917,2,0,P|480:104|480:144,1,80,0|0,0:0|0:0,0:0:0:0:
468,232,1330,1,0,0:0:0:0:
468,232,1433,1,0,0:0:0:0:
468,232,1537,1,8,0:0:0:0:
392,200,1744,6,0,P|352:192|312:200,1,80,4|0,0:0|0:0,0:0:0:0:
272,276,2157,1,8,0:0:0:0:
200,224,2364,2,0,L|216:184,2,40,4|4|4,0:0|0:0|0:0,0:0:0:0:
132,280,2777,1,0,0:0:0:0:
16,316,2984,2,0,P|20:280|36:240,1,80,8|0,0:0|0:0,0:0:0:0:
48,220,3294,1,0,0:0:0:0:
64,204,3398,6,0,P|80:164|84:128,1,80,4|0,0:0|0:0,0:0:0:0:
36,32,3811,2,0,P|80:24|116:28,1,80,8|0,0:0|0:0,0:0:0:0:
208,72,4225,2,0,L|288:64,1,80,4|0,0:0|0:0,0:0:0:0:
396,84,4638,2,4,L|412:32,2,53.3333333333333,8|0|0,0:0|0:0|0:0,0:0:0:0:
368,116,5052,6,0,P|360:156|364:196,1,80,4|0,0:0|0:0,0:0:0:0:
428,256,5465,1,8,0:0:0:0:
452,164,5672,1,0,0:0:0:0:
340,280,5879,2,0,L|260:276,1,80,4|0,0:0|0:0,0:0:0:0:
176,300,6292,2,0,L|168:340,1,40
168,340,6499,1,4,0:0:0:0:
180,224,6706,6,0,P|140:144|44:148,1,191.999994140625,0|4,0:0|0:0,0:0:0:0:
132,36,7946,1,4,0:0:0:0:
292,112,8360,2,0,L|372:104,1,80,4|4,0:0|0:0,0:0:0:0:
476,56,8773,1,8,0:0:0:0:
456,136,8980,1,0,0:0:0:0:
388,192,9187,6,0,B|328:164|264:208|284:296,1,160,4|8,0:0|0:0,0:0:0:0:
344,340,9807,1,0,0:0:0:0:
256,356,10014,2,0,B|176:348|96:296,1,160,0|8,0:0|0:0,0:0:0:0:
48,240,10634,2,4,L|40:200,2,40
212,176,11254,6,0,P|256:168|292:176,1,80,8|0,0:0|0:0,0:0:0:0:
324,256,11668,2,0,L|344:96,1,160,0|8,0:0|0:0,0:0:0:0:
416,48,12288,1,4,0:0:0:0:
420,36,12391,1,4,0:0:0:0:
424,24,12495,1,4,0:0:0:0:
480,220,12908,6,0,P|492:244|496:272,2,53.3333333333333,8|0|0,0:0|0:0|0:0,0:0:0:0:
408,140,13322,2,8,P|409:114|419:87,2,53.3333333333333
384,244,13735,2,4,P|372:268|352:288,2,53.3333333333333,8|0|0,0:0|0:0|0:0,0:0:0:0:
256,192,14149,12,4,15803,0:0:0:0:
256,192,16216,5,8,0:0:0:0:
332,52,16630,2,0,P|256:24|184:52,1,160,0|8,0:0|0:0,0:0:0:0:
186,334,17457,2,0,P|256:360|332:332,2,160,4|8|0,0:0|0:0|0:0,0:0:0:0:
104,192,18697,1,8,0:0:0:0:
192,52,19111,6,0,P|256:32|320:56,1,128,4|0,0:0|0:0,0:0:0:0:
408,60,19731,1,4,0:0:0:0:
408,60,19835,1,4,0:0:0:0:
408,60,19938,2,0,B|444:112|444:112|444:176,1,128,8|0,0:0|0:0,0:0:0:0:
364,276,20765,5,2,0:0:0:0:
256,208,21178,1,0,0:0:0:0:
180,312,21592,1,8,0:0:0:0:
256,208,22005,1,0,0:0:0:0:
188,100,22419,6,0,P|124:96|60:112,2,128,2|0|8,0:0|0:0|0:0,0:0:0:0:
256,208,23659,1,8,0:0:0:0:
324,100,24073,2,0,P|388:96|452:112,2,128,2|0|8,0:0|0:0|0:0,0:0:0:0:
212,164,25313,6,0,P|180:220|184:284,1,128,0|2,0:0|0:0,0:0:0:0:
292,348,26140,1,0,0:0:0:0:
364,304,26347,2,0,L|388:332,2,32,0|0|8,0:0|0:0|0:0,0:0:0:0:
324,180,26968,1,0,0:0:0:0:
380,64,27381,2,0,B|444:76|444:76|488:120,2,128,2|0|8,0:0|0:0|0:0,0:0:0:0:
224,32,28622,6,0,L|160:44,1,64
80,28,29035,2,0,P|44:80|56:140,1,128,2|0,0:0|0:0,0:0:0:0:
128,180,29655,1,0,0:0:0:0:
104,260,29862,1,8,0:0:0:0:
256,328,30276,1,0,0:0:0:0:
408,260,30689,5,2,0:0:0:0:
472,312,30896,1,0,0:0:0:0:
488,228,31103,2,0,L|484:160,1,64
408,128,31516,2,0,L|404:60,2,64,8|0|0,0:0|0:0|0:0,0:0:0:0:
280,236,32343,6,0,B|240:228|240:228|212:208|212:208|160:200,1,128,4|0,0:0|0:0,0:0:0:0:
80,216,32963,1,4,0:0:0:0:
80,216,33067,1,4,0:0:0:0:
80,216,33170,2,0,B|60:157|60:157|78:95,1,128,8|0,0:0|0:0,0:0:0:0:
192,32,33997,6,0,L|320:48,1,128,2|0,0:0|0:0,0:0:0:0:
264,140,34824,2,0,L|392:156,1,128,8|0,0:0|0:0,0:0:0:0:
500,152,35651,6,0,B|540:204|508:280,2,128,2|0|8,0:0|0:0|0:0,0:0:0:0:
304,232,36892,1,0,0:0:0:0:
192,296,37305,2,0,B|100:304|100:304|64:296,2,128,2|0|8,0:0|0:0|0:0,0:0:0:0:
320,296,38546,6,0,P|352:296|384:304,1,64
428,364,38959,2,0,L|440:232,1,128,2|0,0:0|0:0,0:0:0:0:
476,168,39580,1,4,0:0:0:0:
476,168,39683,1,4,0:0:0:0:
476,168,39786,1,12,0:0:0:0:
364,60,40200,1,0,0:0:0:0:
216,100,40613,2,0,P|148:100|88:88,2,128,2|0|8,0:0|0:0|0:0,0:0:0:0:
456,76,41854,5,0,0:0:0:0:
320,148,42267,2,0,L|304:276,1,128,2|0,0:0|0:0,0:0:0:0:
168,344,43094,2,0,L|156:280,1,64,8|0,0:0|0:0,0:0:0:0:
80,296,43508,2,0,L|68:232,1,64
80,156,43921,2,0,P|132:120|196:124,1,128,2|0,0:0|0:0,0:0:0:0:
248,180,44542,1,0,0:0:0:0:
248,180,44748,1,8,0:0:0:0:
336,308,45162,1,0,0:0:0:0:
196,244,45575,6,0,L|132:252,1,64,2|0,0:0|0:0,0:0:0:0:
248,180,45989,2,0,L|312:172,1,64
396,248,46402,2,0,P|395:217|387:185,1,64,8|0,0:0|0:0,0:0:0:0:
336,308,46816,2,0,P|337:339|345:371,1,64
396,248,47229,1,2,0:0:0:0:
476,224,47436,2,0,P|492:198|502:166,1,64
480,84,47850,1,0,0:0:0:0:
400,44,48056,2,0,B|336:28|300:56|256:20,1,128,8|0,0:0|0:0,0:0:0:0:
88,224,48883,6,0,P|80:192|80:162,1,64,2|0,0:0|0:0,0:0:0:0:
132,38,49297,2,0,P|140:70|141:101,1,64
164,181,49710,2,0,L|228:173,1,64,8|0,0:0|0:0,0:0:0:0:
368,201,50124,2,0,L|304:209,1,64
252,273,50537,1,2,0:0:0:0:
176,301,50744,2,0,P|140:297|112:297,2,64
240,352,51364,2,0,P|304:360|368:352,1,128,8|8,0:0|0:0,0:0:0:0:
420,288,51985,5,0,0:0:0:0:
420,288,52191,2,0,B|392:200|416:160|464:120,1,160,4|0,0:0|0:0,0:0:0:0:
500,36,52812,1,0,0:0:0:0:
340,16,53019,2,0,P|260:8|180:8,1,160,8|0,0:0|0:0,0:0:0:0:
120,156,53639,1,0,0:0:0:0:
120,156,53846,2,0,L|112:76,1,80,0|0,0:0|0:0,0:0:0:0:
80,232,54259,2,0,L|72:312,1,80
80,328,54673,1,8,0:0:0:0:
276,164,55086,6,0,P|316:168|360:164,1,80
416,100,55500,2,0,P|392:180|412:252,1,160
480,304,56120,1,0,0:0:0:0:
396,336,56327,2,0,L|316:340,2,80,8|0|0,0:0|0:0|0:0,0:0:0:0:
256,192,57154,12,4,58808,0:0:0:0:
216,156,59221,5,4,0:0:0:0:
80,44,59635,2,0,P|84:88|80:124,1,80,4|4,0:0|0:0,0:0:0:0:
36,200,60048,5,8,0:0:0:0:
44,224,60255,5,8,0:0:0:0:
52,248,60462,6,0,P|112:288|196:280,1,160,4|8,0:0|0:0,0:0:0:0:
280,232,61082,1,0,0:0:0:0:
368,268,61289,2,0,B|388:188|388:188|372:108,1,160,2|8,0:0|0:0,0:0:0:0:
268,104,61909,2,4,L|260:64,2,40,0|0|0,0:0|0:0|0:0,0:0:0:0:
488,210,62529,6,0,B|477:170|477:170|480:128,1,80,8|0,0:0|0:0,0:0:0:0:
504,36,62943,2,8,B|456:20|420:48|420:48|344:48,1,160,2|8,0:0|0:0,0:0:0:0:
268,104,63563,1,4,0:0:0:0:
268,104,63666,1,4,0:0:0:0:
268,104,63770,1,4,0:0:0:0:
80,140,64183,6,4,P|68:168|60:192,2,53.3333333333333,8|0|0,0:0|0:0|0:0,0:0:0:0:
108,108,64597,1,2,0:0:0:0:
188,144,64803,1,0,0:0:0:0:
192,256,65010,1,8,0:0:0:0:
80,332,65217,1,0,0:0:0:0:
216,340,65424,6,0,L|296:340,1,80,4|4,0:0|0:0,0:0:0:0:
416,320,65837,1,8,0:0:0:0:
348,260,66044,1,4,0:0:0:0:
344,248,66147,1,4,0:0:0:0:
340,236,66251,2,0,P|336:192|340:152,1,80,4|8,0:0|0:0,0:0:0:0:
388,84,66664,1,0,0:0:0:0:
432,160,66871,1,0,0:0:0:0:
296,76,67078,6,0,B|212:60|136:80,1,160,4|8,0:0|0:0,0:0:0:0:
52,156,67698,1,4,0:0:0:0:
52,156,67801,1,4,0:0:0:0:
52,156,67905,2,0,P|28:232|44:308,1,160,2|8,0:0|0:0,0:0:0:0:
128,352,68525,1,4,0:0:0:0:
128,352,68628,1,4,0:0:0:0:
128,352,68732,1,4,0:0:0:0:
336,224,69145,5,8,0:0:0:0:
424,204,69352,2,4,L|436:164,2,40,0|0|2,0:0|0:0|0:0,0:0:0:0:
404,288,69766,1,0,0:0:0:0:
448,364,69972,1,8,0:0:0:0:
488,288,70179,1,4,0:0:0:0:
488,288,70282,1,4,0:0:0:0:
488,288,70386,1,4,0:0:0:0:
384,80,70799,6,0,P|357:68|332:60,2,53.3333333333333,8|0|0,0:0|0:0|0:0,0:0:0:0:
200,128,71213,2,8,P|227:140|252:148,2,53.3333333333333,8|0|0,0:0|0:0|0:0,0:0:0:0:
364,280,71626,2,4,P|337:268|312:260,2,53.3333333333333,8|0|0,0:0|0:0|0:0,0:0:0:0:
256,192,72040,12,4,73694,0:0:0:0:
356,260,74107,5,8,0:0:0:0:
444,84,74521,2,0,P|464:120|472:160,2,80,0|4|8,0:0|0:0|0:0,0:0:0:0:
356,68,75141,1,4,0:0:0:0:
356,68,75245,1,4,0:0:0:0:
356,68,75348,2,0,P|284:84|232:72,1,120,4|0,0:0|0:0,0:0:0:0:
212,56,75761,2,0,L|132:60,1,80,8|0,0:0|0:0,0:0:0:0:
100,140,76175,2,0,L|20:137,2,80,0|4|8,0:0|0:0|0:0,0:0:0:0:
164,200,76795,5,4,0:0:0:0:
168,212,76898,1,4,0:0:0:0:
172,224,77002,2,0,P|176:268|172:308,1,80,4|0,0:0|0:0,0:0:0:0:
264,352,77415,2,0,P|261:317|265:273,1,80,8|0,0:0|0:0,0:0:0:0:
328,212,77829,1,0,0:0:0:0:
412,240,78036,1,0,0:0:0:0:
456,164,78242,1,8,0:0:0:0:
404,92,78449,5,4,0:0:0:0:
404,92,78553,1,4,0:0:0:0:
404,92,78656,2,0,P|320:104|284:112,1,120,4|0,0:0|0:0,0:0:0:0:
260,128,79070,2,0,P|252:168|252:208,1,80,8|0,0:0|0:0,0:0:0:0:
280,292,79483,2,4,P|276:322|270:346,2,53.3333333333333
256,192,79897,12,4,81964,0:0:0:0:
380,68,82378,5,8,0:0:0:0:
436,236,82791,2,0,P|448:263|456:288,2,53.3333333333333
372,296,83205,2,4,P|368:326|362:350,2,53.3333333333333
348,212,83618,6,0,P|268:188|192:200,1,160,4|8,0:0|0:0,0:0:0:0:
116,240,84238,1,0,0:0:0:0:
32,208,84445,2,0,L|20:128,1,80
88,72,84859,2,8,L|104:20,2,53.3333333333333,8|0|0,0:0|0:0|0:0,0:0:0:0:
140,144,85272,5,4,0:0:0:0:
220,108,85479,1,4,0:0:0:0:
220,108,85892,5,4,0:0:0:0:
256,192,86926,12,0,88580,0:0:0:0:
