osu file format v14

[General]
AudioFilename: Another.mp3
AudioLeadIn: 0
PreviewTime: 60053
Countdown: 0
SampleSet: Normal
StackLeniency: 0.7
Mode: 1
LetterboxInBreaks: 0
WidescreenStoryboard: 0

[Editor]
DistanceSpacing: 1.1
BeatDivisor: 4
GridSize: 32
TimelineZoom: 1.1

[Metadata]
Title:Kyoumu Densen (TV Size)
TitleUnicode:凶夢伝染 (TV Size)
Artist:ALI PROJECT
ArtistUnicode:ALI PROJECT
Creator:Fleure De Lapin
Version:Futsuu
Source:Another
Tags:アナザー anime opening franklin_dejavu fdjv
BeatmapID:1937294
BeatmapSetID:927546

[Difficulty]
HPDrainRate:7
CircleSize:5.2
OverallDifficulty:4
ApproachRate:9.8
SliderMultiplier:1.4
SliderTickRate:1

[Events]
//Background and Video events
0,0,"Another.jpg",0,55
//Break Periods
//Storyboard Layer 0 (Background)
//Storyboard Layer 1 (Fail)
//Storyboard Layer 2 (Pass)
//Storyboard Layer 3 (Foreground)
//Storyboard Sound Samples

[TimingPoints]
95,413.507925568573,4,1,0,80,1,0
6711,413.507925568573,4,1,0,80,1,8
7538,413.507925568573,4,1,0,80,1,0
15808,-107.52688172043,4,1,0,65,0,0
19116,-113.636363636364,4,1,0,55,0,0
45580,-107.52688172043,4,1,0,65,0,0
57158,-100,4,1,0,73,0,0
60467,-100,4,1,0,80,0,1
66669,-100,4,1,0,80,0,1
82796,-105.263157894737,4,1,0,80,0,1
83623,-105.263157894737,4,1,0,65,0,0
87138,-105.263157894737,4,1,0,45,0,0

[HitObjects]
128,288,95,5,4,0:0:0:0:
384,96,508,1,8,0:0:0:0:
128,96,922,1,0,0:0:0:0:
128,96,1542,1,0,0:0:0:0:
384,96,1749,1,8,0:0:0:0:
128,96,2162,1,0,0:0:0:0:
384,96,2576,1,8,0:0:0:0:
384,288,3403,1,12,0:0:0:0:
128,96,3816,1,0,0:0:0:0:
128,96,4023,1,0,0:0:0:0:
384,96,4230,1,8,0:0:0:0:
128,96,4850,1,0,0:0:0:0:
384,96,5057,1,8,0:0:0:0:
128,96,5470,1,0,0:0:0:0:
384,96,5884,1,8,0:0:0:0:
128,96,6090,1,0,0:0:0:0:
384,96,6297,1,8,0:0:0:0:
384,288,7538,1,12,0:0:0:0:
128,288,7951,1,4,0:0:0:0:
128,288,8158,1,4,0:0:0:0:
384,288,8365,1,12,0:0:0:0:
384,288,8778,1,12,0:0:0:0:
128,96,9192,1,0,0:0:0:0:
384,96,9812,1,8,0:0:0:0:
128,96,10019,1,0,0:0:0:0:
384,96,10432,1,8,0:0:0:0:
128,96,10846,1,0,0:0:0:0:
128,96,11466,1,0,0:0:0:0:
384,96,11673,1,8,0:0:0:0:
128,96,12086,1,0,0:0:0:0:
384,96,12500,1,8,0:0:0:0:
128,96,12913,1,0,0:0:0:0:
384,96,13327,1,8,0:0:0:0:
128,96,13534,1,0,0:0:0:0:
384,96,13740,1,8,0:0:0:0:
384,96,14154,1,8,0:0:0:0:
384,96,14981,1,8,0:0:0:0:
128,96,15188,1,0,0:0:0:0:
384,96,15394,1,8,0:0:0:0:
128,288,15808,1,4,0:0:0:0:
384,96,16635,1,8,0:0:0:0:
128,96,17048,1,0,0:0:0:0:
384,288,17462,1,12,0:0:0:0:
384,96,18289,1,8,0:0:0:0:
128,96,18702,1,0,0:0:0:0:
128,288,19116,1,4,0:0:0:0:
128,96,19943,1,0,0:0:0:0:
384,96,20356,1,8,0:0:0:0:
384,96,20770,1,8,0:0:0:0:
128,96,21183,1,0,0:0:0:0:
384,96,21597,1,8,0:0:0:0:
128,96,22010,1,0,0:0:0:0:
384,96,22424,1,8,0:0:0:0:
384,96,23251,1,8,0:0:0:0:
128,96,24078,1,0,0:0:0:0:
128,96,25318,1,0,0:0:0:0:
384,96,25732,1,8,0:0:0:0:
384,96,26559,1,8,0:0:0:0:
128,96,26973,1,0,0:0:0:0:
384,96,27386,1,8,0:0:0:0:
384,96,28627,1,8,0:0:0:0:
128,96,29040,1,0,0:0:0:0:
128,96,29867,1,0,0:0:0:0:
384,96,30281,1,8,0:0:0:0:
128,96,30694,1,0,0:0:0:0:
384,96,31108,1,8,0:0:0:0:
128,288,32348,1,4,0:0:0:0:
128,96,33175,1,0,0:0:0:0:
384,96,33589,1,8,0:0:0:0:
384,96,34002,1,8,0:0:0:0:
128,96,34416,1,0,0:0:0:0:
384,96,34829,1,8,0:0:0:0:
128,96,35243,1,0,0:0:0:0:
384,96,35656,1,8,0:0:0:0:
384,96,36483,1,8,0:0:0:0:
128,96,37310,1,0,0:0:0:0:
128,96,38551,1,0,0:0:0:0:
384,96,38964,1,8,0:0:0:0:
384,96,39791,1,8,0:0:0:0:
384,96,40205,1,8,0:0:0:0:
128,96,40618,1,0,0:0:0:0:
128,96,41859,1,0,0:0:0:0:
384,96,42272,1,8,0:0:0:0:
128,96,43099,1,0,0:0:0:0:
384,96,43513,1,8,0:0:0:0:
128,96,43926,1,0,0:0:0:0:
128,96,44753,1,0,0:0:0:0:
384,96,45580,1,8,0:0:0:0:
128,96,45994,1,0,0:0:0:0:
384,96,46407,1,8,0:0:0:0:
384,96,46614,1,8,0:0:0:0:
128,96,46821,1,0,0:0:0:0:
384,96,47234,1,8,0:0:0:0:
384,96,47648,1,8,0:0:0:0:
128,96,47855,1,0,0:0:0:0:
384,96,48061,1,8,0:0:0:0:
384,96,48888,1,8,0:0:0:0:
128,96,49302,1,0,0:0:0:0:
384,96,49715,1,8,0:0:0:0:
384,96,49922,1,8,0:0:0:0:
128,96,50129,1,0,0:0:0:0:
384,96,50542,1,8,0:0:0:0:
128,96,50956,1,0,0:0:0:0:
384,96,51163,1,8,0:0:0:0:
128,96,51369,1,0,0:0:0:0:
384,288,52197,1,12,0:0:0:0:
384,96,53024,1,8,0:0:0:0:
128,96,53437,1,0,0:0:0:0:
128,96,53644,1,0,0:0:0:0:
384,96,53851,1,8,0:0:0:0:
128,96,54264,1,0,0:0:0:0:
384,96,54678,1,8,0:0:0:0:
128,96,55505,1,0,0:0:0:0:
384,96,55918,1,8,0:0:0:0:
384,96,56332,1,8,0:0:0:0:
128,96,56745,1,0,0:0:0:0:
384,288,57158,1,12,0:0:0:0:
384,288,57986,1,12,0:0:0:0:
384,96,58399,1,8,0:0:0:0:
384,288,58813,1,12,0:0:0:0:
128,288,59226,1,4,0:0:0:0:
128,288,59433,1,4,0:0:0:0:
384,288,59640,1,12,0:0:0:0:
384,288,60053,1,12,0:0:0:0:
128,96,60467,1,0,0:0:0:0:
384,96,60880,1,8,0:0:0:0:
384,96,61087,1,8,0:0:0:0:
128,96,61294,1,0,0:0:0:0:
384,96,61707,1,8,0:0:0:0:
128,96,62121,1,0,0:0:0:0:
384,96,62741,1,8,0:0:0:0:
128,96,62948,1,0,0:0:0:0:
384,96,63361,1,8,0:0:0:0:
128,96,63568,1,0,0:0:0:0:
384,96,63775,1,8,0:0:0:0:
384,96,64188,1,8,0:0:0:0:
128,96,64602,1,0,0:0:0:0:
128,96,64809,1,0,0:0:0:0:
384,96,65015,1,8,0:0:0:0:
384,288,65429,1,12,0:0:0:0:
384,288,65842,1,12,0:0:0:0:
384,288,66049,1,12,0:0:0:0:
128,288,66256,1,4,0:0:0:0:
384,288,66669,1,12,0:0:0:0:
128,96,67083,1,0,0:0:0:0:
128,96,67910,1,0,0:0:0:0:
384,96,68323,1,8,0:0:0:0:
128,96,68530,1,0,0:0:0:0:
384,96,68737,1,8,0:0:0:0:
128,96,69150,1,0,0:0:0:0:
384,96,69564,1,8,0:0:0:0:
384,96,70184,1,8,0:0:0:0:
128,96,70391,1,0,0:0:0:0:
384,96,70804,1,8,0:0:0:0:
128,96,71218,1,0,0:0:0:0:
384,96,71631,1,8,0:0:0:0:
128,96,71838,1,0,0:0:0:0:
384,96,72045,1,8,0:0:0:0:
128,96,72872,1,0,0:0:0:0:
384,96,73285,1,8,0:0:0:0:
128,288,73699,1,4,0:0:0:0:
128,96,74112,1,0,0:0:0:0:
384,96,74319,1,8,0:0:0:0:
128,96,74526,1,0,0:0:0:0:
384,288,75353,1,12,0:0:0:0:
384,96,75766,1,8,0:0:0:0:
128,96,75973,1,0,0:0:0:0:
384,96,76180,1,8,0:0:0:0:
128,96,76593,1,0,0:0:0:0:
384,96,77007,1,8,0:0:0:0:
384,96,77834,1,8,0:0:0:0:
128,96,78248,1,0,0:0:0:0:
384,96,78454,1,8,0:0:0:0:
384,96,78661,1,8,0:0:0:0:
128,96,79075,1,0,0:0:0:0:
384,96,79488,1,8,0:0:0:0:
128,96,79695,1,0,0:0:0:0:
384,288,79902,1,12,0:0:0:0:
128,96,80315,1,0,0:0:0:0:
384,288,81142,1,12,0:0:0:0:
128,96,81556,1,0,0:0:0:0:
384,96,81969,1,8,0:0:0:0:
128,96,82383,1,0,0:0:0:0:
384,96,82796,1,8,0:0:0:0:
128,288,83623,1,4,0:0:0:0:
384,96,84450,1,8,0:0:0:0:
128,96,84864,1,0,0:0:0:0:
384,288,85277,1,12,0:0:0:0:
384,96,85897,1,8,0:0:0:0:
128,288,86931,1,4,0:0:0:0:
256,192,87138,12,0,88585,0:0:0:0:
