osu file format v12

[General]
AudioFilename: a.mp3
AudioLeadIn: 3000
PreviewTime: 60048
Countdown: 0
SampleSet: Soft
StackLeniency: 0.7
Mode: 0
LetterboxInBreaks: 0

[Editor]
Bookmarks: 48470
DistanceSpacing: 1.2
BeatDivisor: 4
GridSize: 4

[Metadata]
Title:Kyoumu Densen (TV Size)
TitleUnicode:凶夢伝染 (TV Size)
Artist:ALI PROJECT
ArtistUnicode:ALI PROJECT
Creator:Chewin
Version:Normal
Source:Another
Tags:Roxas Lally alacat light novel horror splatter Yukito Ayatsuji Koichi Sakakibara Misaki Mei Opening kevincela -kevincela-
BeatmapID:259561
BeatmapSetID:91996

[Difficulty]
HPDrainRate:4
CircleSize:3
OverallDifficulty:4
ApproachRate:4
SliderMultiplier:1.4
SliderTickRate:2

[Events]
//Background and Video events
0,0,"Konachan.com - 125020 sample.jpg",0,0
Video,-300,"Another OP.avi"
//Break Periods
//Storyboard Layer 0 (Background)
//Storyboard Layer 1 (Fail)
//Storyboard Layer 2 (Pass)
//Storyboard Layer 3 (Foreground)
//Storyboard Sound Samples
//Background Colour Transformations
3,100,163,162,255

[TimingPoints]
90,413.507925568573,4,2,1,100,1,0
6499,-100,4,2,1,20,0,0
7533,-100,4,2,1,100,0,0
9187,-100,4,2,1,100,0,0
17457,-100,4,2,1,60,0,0
19111,-100,4,2,1,60,0,0
27795,-100,4,2,1,40,0,0
27898,-100,4,2,1,60,0,0
34204,-100,4,2,1,30,0,0
34307,-100,4,2,1,60,0,0
45575,-100,4,2,1,40,0,0
52191,-100,4,2,1,60,0,0
60462,-100,4,2,1,70,0,1
66664,-100,4,2,1,70,0,0
67078,-100,4,2,1,70,0,1
73280,-100,4,2,1,70,0,0
73694,-100,4,2,1,70,0,1
73797,-100,4,2,1,60,0,0
75348,-100,4,2,1,60,0,1
75451,-100,4,2,1,60,0,0
84445,-100,4,2,1,30,0,0
84548,-100,4,2,1,60,0,0
87030,-100,4,2,1,30,0,0
88580,-100,4,2,1,5,0,0

[Colours]
Combo1 : 255,36,146
Combo2 : 255,0,0
Combo3 : 128,0,255
Combo4 : 230,230,230

[HitObjects]
52,132,90,2,0,P|120:148|196:104,1,140,4|8,0:0|0:0,0:0:0:0:
236,56,710,1,0,0:0:0:0:
296,116,917,2,0,P|368:96|440:136,1,140,0|8,0:0|0:0,0:0:0:0:
440,304,1744,2,0,P|368:320|304:280,1,140,4|8,0:0|0:0,0:0:0:0:
256,228,2364,1,0,0:0:0:0:
204,292,2571,2,0,P|136:272|60:312,1,140,0|8,0:0|0:0,0:0:0:0:
120,136,3398,5,4,0:0:0:0:
256,36,3811,1,8,0:0:0:0:
392,136,4225,2,0,P|376:200|404:272,1,140,4|8,0:0|0:0,0:0:0:0:
440,340,4845,1,0,0:0:0:0:
356,336,5052,6,0,L|212:344,1,140,4|8,0:0|0:0,0:0:0:0:
96,228,5879,2,0,L|245:220,1,140,4|0,0:0|0:0,0:0:0:0:
256,192,6706,12,0,8360,0:0:0:0:
80,72,9187,6,0,L|72:224,1,140,4|8,0:0|0:0,0:0:0:0:
64,296,9807,1,0,0:0:0:0:
148,308,10014,2,0,P|208:336|292:312,1,140,0|8,0:0|0:0,0:0:0:0:
376,184,10841,2,0,P|316:156|232:180,1,140,0|8,0:0|0:0,0:0:0:0:
372,280,11668,6,0,P|436:256|460:180,1,140,0|8,0:0|0:0,0:0:0:0:
472,108,12288,1,0,0:0:0:0:
392,80,12495,2,0,P|312:56|236:72,1,140,0|8,0:0|0:0,0:0:0:0:
204,224,13322,2,0,P|136:236|64:200,2,140,0|8|0,0:0|0:0|0:0,0:0:0:0:
256,192,14356,12,0,15803,0:0:0:0:
256,216,16630,6,0,L|256:376,2,140,0|0|4,0:0|0:0|0:0,0:0:0:0:
256,48,17870,1,0,0:0:0:0:
136,164,18284,2,0,P|256:224|384:152,1,280,0|4,0:0|0:0,0:0:0:0:
52,84,19938,6,0,P|24:140|44:228,1,140,8|0,0:0|0:0,0:0:0:0:
168,316,20765,2,0,L|320:332,2,140,0|0|8,0:0|0:0|0:0,0:0:0:0:
35,214,22005,2,0,P|24:140|52:84,1,140,0|0,0:0|0:0,0:0:0:0:
212,28,22832,5,0,0:0:0:0:
348,124,23246,2,0,P|400:124|432:104,2,70,8|0|0,0:0|0:0|0:0,0:0:0:0:
212,28,24073,5,0,0:0:0:0:
164,188,24486,1,0,0:0:0:0:
324,244,24900,2,0,P|404:252|480:216,2,140,8|0|4,0:0|0:0|0:0,0:0:0:0:
52,44,26554,6,0,L|44:196,1,140,8|0,0:0|0:0,0:0:0:0:
188,268,27381,2,0,P|168:324|80:344,1,140,0|8,0:0|3:0,0:0:0:0:
148,188,28208,2,0,P|204:180|280:248,1,140,8|0,0:0|0:0,0:0:0:0:
388,344,29035,6,0,B|431:339|453:309|453:309|428:268|442:235,1,140,0|0,0:0|0:0,0:0:0:0:
500,188,29655,1,0,0:0:0:0:
432,136,29862,2,0,P|364:160|288:108,1,140,8|0,0:0|0:0,0:0:0:0:
148,76,30689,6,0,P|76:60|0:104,2,140,0|0|8,0:0|0:0|0:0,0:0:0:0:
204,140,31723,2,0,P|208:176|188:228,1,70,0|0,0:0|0:0,0:0:0:0:
56,296,32343,6,0,P|112:336|264:300,1,210,4|0,0:0|0:0,0:0:0:0:
320,276,33170,2,0,P|384:268|464:308,2,140,8|0|0,0:0|0:0|0:0,0:0:0:0:
160,220,34411,1,0,0:0:0:0:
216,64,34824,2,0,P|144:52|64:88,2,140,8|0|0,0:0|0:0|0:0,0:0:0:0:
384,40,36065,5,0,0:0:0:0:
420,204,36478,2,0,L|432:280,2,70,8|0|0,0:0|0:0|0:0,0:0:0:0:
384,40,37305,5,0,0:0:0:0:
260,160,37719,1,0,0:0:0:0:
420,204,38132,1,8,0:0:0:0:
384,40,38546,6,0,P|320:68|236:28,1,140,0|4,0:0|0:0,0:0:0:0:
52,316,39786,2,0,P|120:296|200:332,1,140,8|0,0:0|0:0,0:0:0:0:
260,348,40407,1,0,0:0:0:0:
328,300,40613,2,0,P|416:320|480:280,2,140,0|0|8,0:0|3:0|0:0,0:0:0:0:
196,192,41854,1,0,0:0:0:0:
104,52,42267,6,0,P|232:28|312:80,1,210,0|0,0:0|0:0,0:0:0:0:
352,128,43094,2,0,P|428:140|488:104,2,140,8|0|0,0:0|0:0|0:0,0:0:0:0:
196,192,44335,1,0,0:0:0:0:
92,324,44748,2,0,P|180:316|244:356,1,140,8|0,0:0|0:0,0:0:0:0:
388,344,45575,6,0,B|428:348|428:348|476:324,1,70,0|0,0:0|0:0,0:0:0:0:
480,256,45989,2,0,B|484:220|484:220|468:188,1,70,0|0,0:0|0:0,0:0:0:0:
392,156,46402,2,0,B|352:160|352:160|316:184,1,70,8|0,0:0|0:0,0:0:0:0:
308,260,46816,6,0,B|272:272|272:272|216:260,1,70,0|0,0:0|0:0,0:0:0:0:
196,196,47229,2,0,L|204:116,2,70,0|0|0,0:0|0:0|0:0,0:0:0:0:
56,288,48056,2,0,L|49:357,2,70,8|0|0,0:0|0:0|0:0,0:0:0:0:
196,196,48883,6,0,L|202:126,1,70,0|0,0:0|0:0,0:0:0:0:
284,144,49297,2,0,L|290:74,1,70,0|0,0:0|0:0,0:0:0:0:
368,104,49710,2,0,L|374:34,1,70,8|0,0:0|0:0,0:0:0:0:
452,68,50124,6,0,L|446:138,1,70,0|0,0:0|0:0,0:0:0:0:
380,188,50537,2,0,L|374:258,1,70,0|0,0:0|0:0,0:0:0:0:
436,316,50951,2,0,P|400:336|348:332,1,70,0|0,0:0|0:0,0:0:0:0:
292,320,51364,2,0,P|240:304|136:336,1,140,8|0,0:0|0:0,0:0:0:0:
64,184,52191,6,0,P|132:196|200:156,1,140,4|0,0:0|0:0,0:0:0:0:
236,92,52812,1,0,0:0:0:0:
300,144,53019,2,0,P|368:128|452:152,1,140,8|0,0:0|0:0,0:0:0:0:
488,304,53846,2,0,P|420:320|336:296,2,140,0|0|8,0:0|0:0|0:0,0:0:0:0:
344,220,55086,2,0,P|300:232|280:260,1,70,0|0,0:0|0:0,0:0:0:0:
232,316,55500,6,0,P|168:328|88:296,1,140,0|0,0:0|0:0,0:0:0:0:
56,140,56327,2,0,P|120:128|189:151,1,140,8|0,0:0|0:0,0:0:0:0:
344,220,57154,1,4,0:0:0:0:
256,192,57360,12,0,58808,0:0:0:0:
100,296,59635,6,0,P|112:264|104:216,3,70,0|4|8|8,0:0|0:0|0:0|0:0,0:0:0:0:
40,180,60462,6,0,P|104:216|212:116,1,210,4|0,0:0|0:0,0:0:0:0:
232,68,61289,2,0,L|376:80,1,140,0|8,0:0|0:0,0:0:0:0:
436,132,61909,2,0,P|452:100|448:56,1,70,0|0,0:0|0:0,0:0:0:0:
352,200,62529,1,8,0:0:0:0:
484,308,62943,6,0,P|416:344|308:268,1,210,0|0,0:0|0:0,0:0:0:0:
352,200,63770,2,0,P|276:200|228:256,1,140,0|8,0:0|0:0,0:0:0:0:
196,320,64390,2,0,P|156:336|104:316,1,70,0|0,0:0|0:0,0:0:0:0:
52,184,65010,1,8,0:0:0:0:
172,68,65424,6,0,P|180:100|172:144,2,70,4|0|4,0:0|0:0|0:0,0:0:0:0:
340,68,66251,2,0,P|332:100|340:144,2,70,0|4|8,0:0|0:0|0:0,0:0:0:0:
444,200,67078,6,0,P|360:260|256:232,1,210,4|0,0:0|0:0,0:0:0:0:
220,164,67905,2,0,P|152:144|72:180,1,140,0|8,0:0|0:0,0:0:0:0:
44,236,68525,2,0,L|52:320,1,70,0|0,0:0|0:0,0:0:0:0:
204,372,69145,1,8,0:0:0:0:
360,308,69559,6,0,B|412:312|444:344|444:344|464:252|420:204,1,210,0|0,0:0|0:0,0:0:0:0:
480,156,70386,2,0,P|408:152|360:196,1,140,0|8,0:0|0:0,0:0:0:0:
216,280,71213,2,0,P|144:292|80:248,2,140,0|8|4,0:0|0:0|0:0,0:0:0:0:
256,192,72247,12,4,73694,0:0:0:0:
76,128,74521,6,0,P|80:84|64:32,2,70,0|4|12,0:0|0:0|0:0,0:0:0:0:
124,288,75348,2,0,L|340:304,1,210,4|0,0:0|0:0,0:0:0:0:
416,284,76175,2,0,P|420:324|400:360,2,70,0|4|4,0:0|0:0|0:0,0:0:0:0:
444,120,77002,6,0,P|372:128|300:68,1,140,4|8,0:0|0:0,0:0:0:0:
256,36,77622,1,0,0:0:0:0:
204,104,77829,2,0,L|60:124,2,140,0|8|0,0:0|0:0|0:0,0:0:0:0:
256,264,79070,1,8,0:0:0:0:
424,248,79483,6,0,B|432:284|432:284|424:332,2,70,0|0|4,0:0|0:0|0:0,0:0:0:0:
256,192,80103,12,0,81964,0:0:0:0:
164,136,82791,6,0,P|168:96|164:60,2,70,0|0|0,0:0|0:0|0:0,0:0:0:0:
52,256,83618,6,0,P|112:304|240:272,1,210,4|0,0:0|0:0,0:0:0:0:
288,216,84445,2,0,L|284:80,2,105,8|0|0,0:0|0:0|0:0,0:0:0:0:
364,256,85272,2,0,L|368:356,1,70,4|4,0:0|0:0,0:0:0:0:
452,180,85892,1,4,0:0:0:0:
452,180,86926,5,4,0:0:0:0:
256,192,87030,12,0,88580,0:0:0:0:
