osu file format v12

[General]
AudioFilename: a.mp3
AudioLeadIn: 3000
PreviewTime: 60048
Countdown: 0
SampleSet: Soft
StackLeniency: 0.7
Mode: 0
LetterboxInBreaks: 0

[Editor]
DistanceSpacing: 1.2
BeatDivisor: 4
GridSize: 4

[Metadata]
Title:Kyoumu Densen (TV Size)
TitleUnicode:凶夢伝染 (TV Size)
Artist:ALI PROJECT
ArtistUnicode:ALI PROJECT
Creator:Chewin
Version:Insane
Source:Another
Tags:Roxas Lally alacat light novel horror splatter Yukito Ayatsuji Koichi Sakakibara Misaki Mei Opening kevincela -kevincela-
BeatmapID:248827
BeatmapSetID:91996

[Difficulty]
HPDrainRate:6
CircleSize:4
OverallDifficulty:6
ApproachRate:8
SliderMultiplier:1.9
SliderTickRate:2

[Events]
//Background and Video events
0,0,"Konachan.com - 125020 sample.jpg",0,0
Video,-300,"Another OP.avi"
//Break Periods
//Storyboard Layer 0 (Background)
//Storyboard Layer 1 (Fail)
//Storyboard Layer 2 (Pass)
//Storyboard Layer 3 (Foreground)
//Storyboard Sound Samples
//Background Colour Transformations
3,100,163,162,255

[TimingPoints]
90,413.507925568573,4,2,1,100,1,0
6499,-100,4,2,1,20,0,0
7533,-100,4,2,1,100,0,0
9187,-100,4,2,1,100,0,0
19111,-100,4,2,1,60,0,0
27795,-100,4,2,1,40,0,0
27898,-100,4,2,1,60,0,0
34204,-100,4,2,1,30,0,0
34307,-100,4,2,1,60,0,0
37512,-100,4,2,1,40,0,0
37615,-100,4,2,1,60,0,0
45575,-100,4,2,1,40,0,0
52191,-100,4,2,1,60,0,0
60462,-100,4,2,1,70,0,1
66664,-100,4,2,1,70,0,0
67078,-100,4,2,1,70,0,1
73280,-100,4,2,1,70,0,0
73694,-100,4,2,1,70,0,1
73797,-100,4,2,1,60,0,0
75348,-100,4,2,1,60,0,1
75451,-100,4,2,1,60,0,0
84445,-100,4,2,1,30,0,0
84548,-100,4,2,1,60,0,0
87030,-100,4,2,1,30,0,0
88580,-100,4,2,1,5,0,0

[Colours]
Combo1 : 255,36,146
Combo2 : 255,0,0
Combo3 : 128,0,255
Combo4 : 230,230,230

[HitObjects]
96,72,90,2,0,L|88:184,1,95,4|0,0:0|0:0,0:0:0:0:
56,280,503,1,8,0:0:0:0:
168,312,710,1,0,0:0:0:0:
168,312,813,1,0,0:0:0:0:
168,312,917,2,0,P|264:296|368:344,1,190,0|8,0:0|0:0,0:0:0:0:
460,300,1537,1,0,0:0:0:0:
464,288,1640,1,0,0:0:0:0:
468,276,1744,6,0,L|464:164,1,95,4|0,0:0|0:0,0:0:0:0:
360,76,2157,2,0,L|363:170,1,95,8|0,0:0|0:0,0:0:0:0:
368,212,2467,1,0,0:0:0:0:
368,212,2571,2,0,P|292:260|188:204,1,190,0|8,0:0|0:0,0:0:0:0:
144,124,3191,1,0,0:0:0:0:
144,116,3294,1,0,0:0:0:0:
144,108,3398,6,0,P|220:60|324:116,1,190,4|8,0:0|0:0,0:0:0:0:
196,192,4018,2,0,P|168:208|140:204,1,47.5
96,196,4225,2,0,B|92:260|56:292|56:292|76:332|160:332,1,190,4|8,0:0|0:0,0:0:0:0:
240,304,4845,1,0,0:0:0:0:
248,304,4948,1,0,0:0:0:0:
256,304,5052,6,0,L|456:312,1,190,4|8,0:0|0:0,0:0:0:0:
500,212,5672,1,0,0:0:0:0:
492,212,5775,1,0,0:0:0:0:
484,212,5879,2,0,L|294:204,1,190,4|0,0:0|0:0,0:0:0:0:
204,132,6499,6,0,B|208:108|208:108|200:76,2,47.5
256,192,6809,12,4,7533,0:0:0:0:
256,76,7946,5,4,0:0:0:0:
208,180,8153,2,0,P|256:192|324:164,2,95,4|4|4,0:0|0:0|0:0,0:0:0:0:
120,108,8773,2,0,P|96:96|72:72,1,47.5,4|0,0:0|0:0,0:0:0:0:
80,136,8980,2,0,P|60:128|28:128,1,47.5,4|0,0:0|0:0,0:0:0:0:
68,180,9187,6,0,P|84:244|48:336,1,142.5,4|0,0:0|0:0,0:0:0:0:
63,315,9600,2,0,P|108:308|176:352,1,95,8|0,0:0|0:0,0:0:0:0:
204,300,9910,1,0,0:0:0:0:
252,332,10014,2,0,P|296:344|364:324,1,95
448,224,10427,2,0,P|404:212|336:232,1,95,8|0,0:0|0:0,0:0:0:0:
300,240,10737,1,0,0:0:0:0:
300,240,10841,6,0,L|292:120,1,95
164,52,11254,2,0,L|170:146,1,95,8|0,0:0|0:0,0:0:0:0:
172,204,11564,1,0,0:0:0:0:
172,204,11668,6,0,B|96:176|60:224|60:224|52:256|72:304,1,190,0|8,0:0|0:0,0:0:0:0:
168,344,12288,1,0,0:0:0:0:
168,344,12391,1,0,0:0:0:0:
168,344,12495,2,0,L|284:356,1,95
368,316,12908,6,0,P|408:312|452:328,1,63.3333333333333,8|0,0:0|0:0,0:0:0:0:
476,256,13184,2,0,L|464:184,1,63.3333333333333
436,124,13460,1,0,0:0:0:0:
384,180,13597,2,0,L|394:242,1,63.3333333333333,0|8,0:0|0:0,0:0:0:0:
368,316,13873,1,0,0:0:0:0:
304,272,14011,1,0,0:0:0:0:
248,324,14149,6,0,P|164:344|48:308,2,190,0|8|0,0:0|0:0|0:0,0:0:0:0:
304,272,15079,1,0,0:0:0:0:
304,272,15183,1,0,0:0:0:0:
408,320,15389,1,0,0:0:0:0:
408,320,15493,1,0,0:0:0:0:
408,320,15596,1,0,0:0:0:0:
448,212,15803,6,0,L|456:116,1,95,6|0,0:0|0:0,0:0:0:0:
352,68,16216,2,0,L|344:162,1,95,2|0,0:0|0:0,0:0:0:0:
304,272,16630,1,0,0:0:0:0:
304,272,16733,1,0,0:0:0:0:
304,272,16837,1,0,0:0:0:0:
208,336,17043,2,0,B|160:328|160:328|88:344,1,95
44,248,17457,5,4,0:0:0:0:
40,132,17664,1,2,0:0:0:0:
60,244,17870,2,0,L|56:144,1,95
120,56,18284,1,0,0:0:0:0:
120,56,18387,1,0,0:0:0:0:
120,56,18491,1,0,0:0:0:0:
192,116,18697,2,0,P|272:168|364:120,1,190,0|12,0:0|0:0,0:0:0:0:
56,276,19731,5,0,0:0:0:0:
56,276,19835,1,0,0:0:0:0:
56,276,19938,2,0,B|136:256|164:332|164:332|180:304|240:300,1,190,8|0,0:0|0:0,0:0:0:0:
300,240,20558,1,0,0:0:0:0:
372,328,20765,2,0,P|416:316|488:324,1,95
472,204,21178,2,0,L|468:100,1,95
360,56,21592,2,0,L|363:150,1,95,8|0,0:0|0:0,0:0:0:0:
300,240,22005,1,0,0:0:0:0:
92,328,22419,6,0,P|156:352|236:308,1,142.5,0|0,0:0|0:0,0:0:0:0:
224,300,22832,2,0,L|218:182,1,95
92,104,23246,2,0,L|96:198,1,95,8|0,0:0|0:0,0:0:0:0:
196,56,23659,1,0,0:0:0:0:
200,60,24073,6,0,L|360:68,1,142.5
256,140,24486,6,0,L|416:148,1,142.5
312,220,24900,6,0,L|472:228,1,142.5,8|0,0:0|0:0,0:0:0:0:
484,336,25313,6,0,P|412:320|324:372,1,142.5
292,336,25727,6,0,P|220:360|92:296,1,190,4|0,0:0|0:0,0:0:0:0:
48,232,26347,1,0,0:0:0:0:
48,232,26451,1,0,0:0:0:0:
48,232,26554,2,0,L|44:120,1,95,8|0,0:0|0:0,0:0:0:0:
128,56,26968,2,0,P|176:48|252:72,1,95
300,140,27381,6,0,P|388:168|484:120,2,190,0|8|8,0:0|3:0|0:0,0:0:0:0:
232,48,28415,1,0,0:0:0:0:
136,112,28622,2,0,L|28:132,1,95
36,244,29035,6,0,B|84:236|144:224|144:224|184:232|224:280,1,190,0|0,0:0|0:0,0:0:0:0:
308,328,29655,1,0,0:0:0:0:
308,328,29759,1,0,0:0:0:0:
308,328,29862,2,0,P|408:348|488:304,1,190,8|0,0:0|0:0,0:0:0:0:
492,196,30482,1,0,0:0:0:0:
384,148,30689,6,0,P|376:196|392:256,1,95
468,84,31103,2,0,P|376:44|292:92,1,190,0|8,0:0|0:0,0:0:0:0:
240,176,31723,1,0,0:0:0:0:
140,124,31930,6,0,P|112:128|80:116,1,47.5
172,36,32136,2,0,B|204:44|232:92,1,47.5
240,176,32343,6,0,P|180:228|56:216,1,190,4|0,0:0|0:0,0:0:0:0:
32,120,32963,1,0,0:0:0:0:
32,120,33067,1,0,0:0:0:0:
32,120,33170,2,0,L|40:12,1,95,8|0,0:0|0:0,0:0:0:0:
140,124,33584,2,0,L|132:218,1,95
24,136,33997,5,0,0:0:0:0:
152,108,34204,1,4,0:0:0:0:
39,25,34411,2,0,L|32:120,1,95
132,218,34824,2,0,L|140:124,1,95,8|0,0:0|0:0,0:0:0:0:
40,268,35238,2,0,P|100:320|212:288,1,190,0|0,0:0|0:0,0:0:0:0:
272,208,35858,5,0,0:0:0:0:
376,260,36065,2,0,P|388:300|380:352,1,95
272,208,36478,2,0,P|336:148|430:164,1,190,8|0,0:0|0:0,0:0:0:0:
376,260,37098,1,0,0:0:0:0:
272,304,37305,6,0,P|216:288|188:228,1,95,0|4,0:0|2:0,0:0:0:0:
272,116,37719,2,0,P|328:132|356:192,1,95
184,164,38132,2,0,P|180:64|272:20,1,190,8|0,0:0|0:0,0:0:0:0:
272,208,38752,1,0,0:0:0:0:
376,260,38959,6,0,P|304:320|184:276,1,190,4|0,0:0|0:0,0:0:0:0:
112,256,39580,1,0,0:0:0:0:
112,256,39683,1,0,0:0:0:0:
112,256,39786,2,0,P|104:300|116:368,1,95,8|0,0:0|0:0,0:0:0:0:
272,208,40200,2,0,P|280:164|268:96,1,95
214,305,40613,6,0,P|304:320|376:260,2,190,0|0|8,0:0|3:0|0:0,0:0:0:0:
112,256,41647,1,0,0:0:0:0:
214,213,41854,2,0,P|224:248|214:305,1,95
116,132,42267,6,0,P|208:92|340:200,1,285,0|0,0:0|0:0,0:0:0:0:
356,308,43094,2,0,B|440:332|440:332|496:316|508:232,2,190,8|0|0,0:0|0:0|0:0,0:0:0:0:
284,220,44128,1,0,0:0:0:0:
236,324,44335,2,0,P|184:318|102:334,1,95
96,216,44748,2,0,P|189:205|304:225,1,190,8|0,0:0|0:0,0:0:0:0:
380,280,45369,1,0,0:0:0:0:
460,196,45575,6,0,L|456:80,1,95,0|0,0:0|0:0,0:0:0:0:
344,72,45989,2,0,L|347:166,1,95
232,260,46402,6,0,L|228:144,1,95,8|0,0:0|0:0,0:0:0:0:
116,136,46816,2,0,L|119:230,1,95
204,56,47229,5,0,0:0:0:0:
112,120,47436,1,0,0:0:0:0:
212,64,47643,1,0,0:0:0:0:
108,108,47850,1,0,0:0:0:0:
216,76,48056,6,0,P|268:80|340:108,1,95,8|0,0:0|0:0,0:0:0:0:
424,88,48470,2,0,L|432:24,2,47.5
360,184,48883,5,0,0:0:0:0:
448,256,49090,1,0,0:0:0:0:
352,192,49297,1,0,0:0:0:0:
440,264,49504,1,0,0:0:0:0:
348,200,49710,1,8,0:0:0:0:
432,272,49917,2,0,L|400:312,2,47.5
452,160,50331,1,0,0:0:0:0:
347,108,50537,6,0,P|336:152|348:200,1,95
452,160,50951,2,0,P|463:116|451:68,1,95
348,108,51364,2,0,P|260:136|176:64,1,190,8|0,0:0|0:0,0:0:0:0:
76,48,51985,1,0,0:0:0:0:
68,52,52088,1,0,0:0:0:0:
60,56,52191,6,0,L|56:172,1,95,4|0,0:0|0:0,0:0:0:0:
12,256,52605,1,0,0:0:0:0:
104,324,52812,1,0,0:0:0:0:
104,324,52915,1,0,0:0:0:0:
104,324,53019,2,0,P|160:316|220:352,1,95,8|0,0:0|0:0,0:0:0:0:
308,324,53432,2,0,P|342:337|398:329,1,95
488,256,53846,6,0,L|480:140,1,95
348,132,54259,2,0,L|354:226,1,95
420,64,54673,2,0,P|336:32|240:120,1,190,8|0,0:0|0:0,0:0:0:0:
220,188,55293,1,0,0:0:0:0:
116,140,55500,6,0,P|104:84|120:44,1,95
220,188,55913,2,0,P|192:232|120:236,1,95
232,76,56327,2,0,P|280:88|312:140,1,95,8|0,0:0|0:0,0:0:0:0:
336,232,56740,1,0,0:0:0:0:
432,168,56947,1,0,0:0:0:0:
464,280,57154,6,0,L|456:344,2,47.5,4|0|0,0:0|0:0|0:0,0:0:0:0:
432,168,57567,2,0,L|437:120,2,47.5
276,280,57981,6,0,L|268:344,2,47.5,12|0|0,0:0|0:0|0:0,0:0:0:0:
232,116,58394,2,0,L|237:68,2,47.5,8|8|0,0:0|0:0|0:0,0:0:0:0:
108,232,58808,5,4,0:0:0:0:
116,120,59014,1,0,0:0:0:0:
232,116,59221,1,4,0:0:0:0:
360,206,59428,5,4,0:0:0:0:
276,280,59634,1,0,0:0:0:0:
191,200,59841,1,4,0:0:0:0:
332,108,60048,5,8,0:0:0:0:
332,108,60152,1,8,0:0:0:0:
332,108,60255,1,8,0:0:0:0:
332,108,60358,1,8,0:0:0:0:
332,108,60462,2,0,P|408:116|456:184,1,142.5,4|0,0:0|0:0,0:0:0:0:
448,176,60875,2,0,P|444:224|454:285,1,95,8|0,0:0|0:0,0:0:0:0:
456,284,61185,1,0,0:0:0:0:
460,300,61289,6,0,P|380:340|284:292,1,190,0|8,0:0|0:0,0:0:0:0:
184,268,61909,1,0,0:0:0:0:
184,268,62012,1,0,0:0:0:0:
184,268,62116,2,0,L|80:276,1,95
52,172,62529,1,8,0:0:0:0:
108,72,62736,1,0,0:0:0:0:
108,72,62839,1,0,0:0:0:0:
108,72,62943,6,0,B|176:76|200:156|200:156|224:124|272:108,1,190,0|8,0:0|0:0,0:0:0:0:
340,60,63563,1,0,0:0:0:0:
340,60,63666,1,0,0:0:0:0:
340,60,63770,2,0,L|440:84,1,95
424,196,64183,2,0,B|452:204|452:204|504:184,2,63.3333333333333,8|0|0,0:0|0:0|0:0,0:0:0:0:
348,176,64597,5,0,0:0:0:0:
360,288,64803,1,0,0:0:0:0:
268,220,65010,1,8,0:0:0:0:
280,332,65216,1,0,0:0:0:0:
184,268,65424,5,4,0:0:0:0:
88,332,65631,1,0,0:0:0:0:
28,236,65837,1,4,0:0:0:0:
126,119,66044,5,4,0:0:0:0:
232,165,66251,1,0,0:0:0:0:
184,268,66457,1,4,0:0:0:0:
40,128,66664,5,8,0:0:0:0:
40,128,66768,1,8,0:0:0:0:
40,128,66871,1,8,0:0:0:0:
40,128,66974,1,8,0:0:0:0:
40,128,67078,2,0,P|56:68|148:40,1,142.5,4|0,0:0|0:0,0:0:0:0:
144,52,67491,2,0,P|200:75|236:67,1,95,8|0,0:0|0:0,0:0:0:0:
260,56,67801,1,0,0:0:0:0:
280,44,67905,6,0,B|348:24|392:64|392:64|384:96|388:140,1,190,0|8,0:0|0:0,0:0:0:0:
460,224,68525,1,0,0:0:0:0:
460,224,68628,1,0,0:0:0:0:
460,224,68732,2,0,P|388:252|316:216,1,142.5
320,216,69145,2,0,P|265:201|205:229,1,95,8|0,0:0|0:0,0:0:0:0:
224,224,69455,1,0,0:0:0:0:
216,236,69559,6,0,P|130:271|42:183,1,190,0|8,0:0|0:0,0:0:0:0:
104,120,70179,1,0,0:0:0:0:
104,120,70282,1,0,0:0:0:0:
104,120,70386,2,0,P|156:112|208:148,1,95
300,92,70799,6,0,L|380:52,2,63.3333333333333,8|0|0,0:0|0:0|0:0,0:0:0:0:
352,148,71213,2,0,L|432:108,2,63.3333333333333,0|0|0,0:0|0:0|0:0,0:0:0:0:
404,204,71626,2,0,L|484:164,2,63.3333333333333,8|0|0,0:0|0:0|0:0,0:0:0:0:
396,280,72040,5,4,0:0:0:0:
308,352,72247,1,0,0:0:0:0:
240,260,72453,1,4,0:0:0:0:
388,264,72660,5,0,0:0:0:0:
300,336,72867,1,4,0:0:0:0:
232,244,73073,1,0,0:0:0:0:
380,248,73280,6,0,L|388:184,2,47.5,4|0|0,0:0|0:0|0:0,0:0:0:0:
292,320,73694,2,0,L|192:324,1,95,4|0,0:0|0:0,0:0:0:0:
180,328,74004,1,0,0:0:0:0:
168,340,74107,2,0,P|82:336|34:256,1,142.5,8|0,0:0|0:0,0:0:0:0:
56,288,74521,2,0,P|64:228|44:176,1,95
56,80,74934,1,8,0:0:0:0:
160,32,75141,1,0,0:0:0:0:
200,140,75348,6,0,P|268:164|344:116,1,142.5,4|0,0:0|0:0,0:0:0:0:
340,132,75761,2,0,L|335:35,1,95,8|0,0:0|0:0,0:0:0:0:
448,60,76175,1,0,0:0:0:0:
450,88,76278,1,0,0:0:0:0:
451,117,76381,1,4,0:0:0:0:
453,145,76485,1,0,0:0:0:0:
454,172,76588,2,0,L|458:266,1,95,4|0,0:0|0:0,0:0:0:0:
368,336,77002,6,0,P|320:324|264:348,1,95,4|0,0:0|0:0,0:0:0:0:
268,344,77312,1,0,0:0:0:0:
260,352,77415,2,0,P|214:366|142:330,1,95,8|0,0:0|0:0,0:0:0:0:
156,348,77726,1,0,0:0:0:0:
144,340,77829,2,0,L|132:228,1,95
72,148,78242,1,8,0:0:0:0:
160,76,78449,5,0,0:0:0:0:
160,76,78553,1,0,0:0:0:0:
160,76,78656,2,0,P|224:108|308:68,1,142.5
300,72,79070,2,0,L|416:96,1,95,8|0,0:0|0:0,0:0:0:0:
412,204,79483,6,0,L|328:188,3,63.3333333333333,0|0|0|4,0:0|0:0|0:0|0:0,0:0:0:0:
256,192,80000,12,12,81964,0:0:0:0:
256,52,82378,5,12,0:0:0:0:
256,280,82791,6,0,P|260:312|256:344,2,63.3333333333333,0|0|0,0:0|0:0|0:0,0:0:0:0:
168,200,83205,2,0,P|164:168|168:136,2,63.3333333333333
280,168,83618,1,4,0:0:0:0:
280,168,84032,5,0,0:0:0:0:
256,280,84238,1,0,0:0:0:0:
168,200,84445,2,0,P|160:144|176:96,1,95,8|0,0:0|0:0,0:0:0:0:
256,280,84859,2,0,P|228:304|200:316,2,63.3333333333333
280,168,85272,5,4,0:0:0:0:
372,236,85479,1,4,0:0:0:0:
372,236,85892,1,4,0:0:0:0:
372,236,86926,5,4,0:0:0:0:
256,192,87030,12,0,88580,0:0:0:0:
