osu file format v5

[General]
AudioFilename: 01 - Kinjirareta Asobi (TV SIZE).mp3
AudioLeadIn: 507
PreviewTime: 4910
Countdown: 0
SampleSet: Normal
StackLeniency: 0.7
Mode: 0
LetterboxInBreaks: 1

[Editor]
Bookmarks: 28712,55365
DistanceSpacing: 0.800000011920929
BeatDivisor: 4
GridSize: 8

[Metadata]
Title:Kinjirareta Asobi (TV size)
Artist:ALI PROJECT
Creator:Armin
Version:Insane
Source:Rozen Maiden
Tags:Rozen Maiden TV Size xxheroxx Harry Orunitia collab Oru

[Difficulty]
HPDrainRate:8
CircleSize:5
OverallDifficulty:8
SliderMultiplier:2.3
SliderTickRate:1

[Events]
//Background and Video events
Video,399,"compressedRZ1.avi"
0,0,"rozen3a.jpg"
//Break Periods
2,78623,81516
//Storyboard Layer 0 (Background)
//Storyboard Layer 1 (Fail)
//Storyboard Layer 2 (Pass)
//Storyboard Layer 3 (Foreground)
//Storyboard Sound Samples
//Background Colour Transformations
3,100,163,162,255

[TimingPoints]
1068,495.867768595041,4,1,0,56,1,0
12039,-100,4,1,0,0,0,0
12782,-100,4,1,0,54,0,0
58464,-200,4,1,0,56,0,0
59828,-100,4,1,0,56,0,0
60572,-200,4,1,0,56,0,0
61315,-100,4,1,0,56,0,0
61563,-200,4,1,0,56,0,0
62307,-100,4,1,0,56,0,0
69559,-100,4,1,0,0,0,0
70365,-100,4,1,0,54,0,0
88960,-100,4,1,0,0,0,0

[Colours]
Combo1 : 165,154,22
Combo2 : 149,19,19
Combo3 : 24,89,21
Combo4 : 0,128,255

[HitObjects]
40,40,5034,1,10
56,80,5158,1,0
72,120,5282,1,0
160,120,5530,1,10
176,80,5654,1,0
192,40,5778,1,0
280,40,6026,1,10
296,80,6150,1,0
312,120,6274,1,0
392,72,6522,1,8
448,144,6770,1,0
392,216,7018,5,10
440,288,7266,1,2
344,288,7514,1,10
304,304,7638,1,0
264,320,7762,1,0
168,320,8010,1,10
128,304,8134,1,0
88,288,8258,1,0
136,208,8506,1,8
40,208,8753,1,0
88,128,9001,5,10
128,112,9125,1,0
168,96,9249,1,0
232,32,9497,1,10
272,48,9621,1,0
312,64,9745,1,0
384,120,9993,1,10
424,104,10117,1,0
464,88,10241,1,0
488,176,10489,1,8
384,328,10985,6,0,B|328:272,1,57.5,10|0
296,288,11233,2,0,B|240:344,1,57.5
208,328,11481,2,0,B|152:272,1,57.5,10|0
120,288,11729,2,0,B|64:344,2,57.5,0|0|10
256,192,12039,12,0,12720
472,192,12968,5,10
440,224,13092,1,0
408,256,13216,1,0
312,256,13464,1,10
280,224,13588,1,0
248,192,13712,1,0
152,192,13960,1,10
120,224,14084,1,0
88,256,14208,1,0
24,192,14456,1,8
88,120,14704,1,0
128,40,14952,5,10
168,64,15076,1,0
208,88,15200,1,0
296,88,15448,1,10
336,64,15572,1,0
376,40,15696,1,0
360,152,15944,1,10
400,128,16068,1,0
440,104,16192,1,0
448,192,16439,1,8
232,272,17059,5,10
280,272,17183,1,0
328,272,17307,1,0
376,272,17431,1,10
328,192,17679,1,0
232,192,17927,5,10
184,192,18051,1,0
136,192,18175,1,0
88,192,18299,1,0
40,192,18423,1,10
88,112,18671,1,0
40,32,18919,5,10
88,32,19043,1,0
136,32,19167,1,0
184,32,19291,1,0
232,32,19415,1,10
280,32,19539,1,0
328,32,19663,1,2
376,32,19787,1,0
424,32,19910,1,2
256,192,20034,12,0,20902
64,320,21150,5,0
112,320,21274,1,0
160,320,21398,1,8
248,320,21646,2,0,B|312:320,2,57.5,0|0|8
200,240,22142,1,0
200,144,22390,1,8
200,48,22638,5,0
248,48,22762,1,0
296,48,22886,1,8
296,144,23134,1,0
296,240,23382,1,8
384,240,23629,1,0
432,240,23753,1,0
480,240,23877,1,8
432,320,24125,1,0
336,320,24373,1,8
240,320,24621,5,0
192,320,24745,1,0
144,320,24869,1,12
48,320,25117,1,0
96,240,25365,1,8
48,160,25613,1,0
104,80,25861,1,12
192,80,26109,1,0
264,24,26357,5,8
320,96,26605,1,0
264,168,26853,1,12
320,240,27101,1,8
264,312,27348,1,12
256,192,27596,12,4,28340
464,192,28836,5,10
408,112,29084,1,0
360,192,29332,1,8
312,112,29580,1,0
264,192,29828,1,10
216,112,30076,1,0
168,192,30324,1,8
120,112,30572,1,0
72,192,30820,1,10
120,272,31067,5,0
168,352,31315,1,8
216,272,31563,1,0
264,272,31687,1,10
352,264,31935,1,2
368,304,32059,1,0
408,320,32183,1,0
448,304,32307,1,8
448,208,32555,1,0
400,128,32803,5,10
352,208,33051,1,0
304,128,33299,1,8
256,208,33547,1,0
208,128,33795,1,10
160,208,34043,1,0
112,128,34291,1,8
64,208,34539,1,0
112,280,34787,1,10
64,208,35034,5,0
112,128,35282,1,8
192,72,35530,1,0
224,40,35654,1,10
320,48,35902,1,2
360,24,36026,1,0
408,32,36150,1,0
440,64,36274,1,8
440,152,36522,1,0
360,192,36770,5,10
312,272,37018,1,0
264,192,37266,1,8
216,272,37514,1,0
168,192,37762,1,10
120,272,38010,1,0
72,192,38258,1,8
120,272,38506,1,0
24,272,38753,1,10
120,272,39001,5,0
72,352,39249,1,8
120,272,39497,1,0
168,272,39621,1,10
256,272,39869,1,2
296,296,39993,1,0
344,288,40117,1,0
376,256,40241,1,8
384,160,40489,6,0,B|384:112|360:112|360:112|336:112|336:176,1,115,0|10
256,200,40985,2,0,B|256:248|232:248|232:248|208:248|208:184,1,115,0|8
120,160,41481,2,0,B|120:112|96:112|96:112|72:112|72:176,1,115,0|10
96,248,41977,1,0
96,336,42225,1,8
168,296,42472,1,0
256,296,42720,1,10
344,296,42968,2,0,B|344:176,1,115,0|8
400,104,43464,6,0,B|400:219,1,115,0|10
459,297,43960,2,0,B|331:297,1,115,0|8
416,352,44456,2,0,B|288:352,1,115,4|12
256,192,44828,12,0,45944
400,72,46191,5,8
400,136,46357,1,0
400,200,46522,1,0
400,264,46687,1,10
304,264,46935,1,0
208,264,47183,1,8
256,344,47431,1,0
160,344,47679,1,10
112,264,47927,1,0
16,264,48175,5,8
64,344,48423,1,0
112,264,48671,1,10
64,184,48919,1,0
152,184,49167,1,8
240,184,49415,1,0
328,184,49663,1,10
416,184,49910,1,0
416,88,50158,5,8
352,88,50324,1,0
288,88,50489,1,0
224,88,50654,1,10
128,88,50902,1,0
32,88,51150,1,8
128,88,51398,1,0
80,168,51646,1,10
168,168,51894,1,0
128,248,52142,5,8
216,248,52390,1,0
168,328,52638,1,10
256,328,52886,1,0
304,248,53134,1,8
392,248,53382,1,0
344,168,53629,2,0,B|345:83|289:83|289:83|225:83|225:179,1,230,10|0
128,168,54373,1,0
176,240,54621,2,0,B|177:325|121:325|121:325|57:325|57:229,1,230,10|8
24,160,55365,1,0
48,120,55489,1,0
72,80,55613,1,10
160,80,55861,1,0
248,80,56109,5,10
312,80,56274,1,0
376,80,56439,1,0
440,80,56605,2,0,B|440:208,1,115,8|0
440,288,57101,1,10
440,288,57348,1,0
344,288,57596,2,0,B|200:288,1,115,8|0
136,288,58092,1,10
136,288,58340,1,0
48,288,58588,2,0,B|48:48,1,230,10|8
232,40,60076,5,8
296,40,60241,1,0
360,40,60406,1,0
424,40,60572,2,0,B|424:208,1,115,10|0
424,248,61315,1,0
424,296,61439,1,0
424,344,61563,2,0,B|280:344,1,115,10|0
368,168,62555,5,10
352,128,62679,1,0
336,88,62803,1,0
248,88,63051,1,10
232,128,63175,1,0
216,168,63299,1,0
128,168,63547,1,10
112,128,63671,1,0
96,88,63795,1,0
16,136,64043,1,8
16,224,64291,1,0
104,224,64539,5,10
80,264,64663,1,0
56,304,64787,1,0
152,296,65035,1,10
192,312,65159,1,0
232,328,65283,1,0
328,328,65531,1,10
368,312,65655,1,0
408,296,65779,1,0
360,216,66027,1,8
264,216,66274,1,0
168,216,66522,5,10
128,200,66646,1,0
88,184,66770,1,0
128,104,67018,1,10
168,120,67142,1,0
208,136,67266,1,0
248,56,67514,1,10
208,40,67638,1,0
168,24,67762,1,0
72,24,68010,1,8
32,200,68506,6,8,B|88:144,1,57.5,10|8
104,192,68754,2,0,B|48:248,1,57.5
96,264,69002,2,0,B|152:208,1,57.5,10|0
168,256,69250,2,0,B|112:312,2,57.5,0|0|10
256,192,69559,12,0,70241
472,192,70489,5,10
440,224,70613,1,0
408,256,70737,1,0
312,256,70985,1,10
280,224,71109,1,0
248,192,71233,1,0
152,192,71481,1,10
120,224,71605,1,0
88,256,71729,1,0
24,192,71977,1,8
88,120,72225,1,0
128,40,72473,5,10
168,64,72597,1,0
208,88,72721,1,0
296,88,72969,1,10
336,64,73093,1,0
376,40,73217,1,0
360,152,73465,1,10
400,128,73589,1,0
440,104,73713,1,0
448,192,73960,1,8
256,320,74580,6,0,B|200:280,1,57.5,8|0
168,256,74828,2,0,B|104:208,1,57.5,2|8
264,32,75572,2,0,B|320:72,1,57.5,8|0
352,96,75820,2,0,B|416:144,1,57.5,2|8
360,264,76563,6,0,B|288:264,1,57.5
304,216,76811,2,0,B|232:216|232:216|232:208,1,57.5,2|8
248,160,77059,2,0,B|176:160,1,57.5
192,112,77307,2,0,B|120:112,1,57.5,2|8
256,192,77555,12,4,78423
256,192,82266,5,2
304,192,82390,2,0,B|304:272|384:272|464:272|464:160,1,230,8|2
304,192,83258,1,2
256,192,83382,2,0,B|256:112|176:112|88:112|104:224,1,230,8|0
32,360,84373,5,12
32,176,84869,1,8
32,40,85241,1,0
80,40,85365,2,6,B|144:136|144:136|216:32,1,230,2|12
384,48,86357,5,12
472,48,86605,1,0
472,136,86853,1,8
384,136,87101,1,0
432,216,87348,2,12,B|488:256|480:336|384:392|320:296,1,230,12|12
272,264,88092,1,0
200,200,88340,1,8
128,136,88588,1,0
56,72,88836,1,12
256,192,88960,12,4,90324
