osu file format v14

[General]
AudioFilename: Katana no Saya.mp3
AudioLeadIn: 1500
PreviewTime: 50312
Countdown: 0
SampleSet: Normal
StackLeniency: 0.7
Mode: 0
LetterboxInBreaks: 0
WidescreenStoryboard: 0

[Editor]
DistanceSpacing: 1.4
BeatDivisor: 4
GridSize: 4
TimelineZoom: 1

[Metadata]
Title:Katana to Saya
TitleUnicode:刀と鞘
Artist:ALI PROJECT
ArtistUnicode:ALI PROJECT
Creator:CSLM
Version:Insane
Source:刀語
Tags:katanagatari togame shichika sword story opening 2 tv size kenterz dakedekaane neku okazaki cslmvenezuela white fox
BeatmapID:564853
BeatmapSetID:245118

[Difficulty]
HPDrainRate:6
CircleSize:5
OverallDifficulty:7
ApproachRate:8
SliderMultiplier:1.6
SliderTickRate:1

[Events]
//Background and Video events
0,0,"BG.jpg",0,0
Video,0,"Katana no Saya.avi"
//Break Periods
//Storyboard Layer 0 (Background)
//Storyboard Layer 1 (Fail)
//Storyboard Layer 2 (Pass)
//Storyboard Layer 3 (Foreground)
//Storyboard Sound Samples

[TimingPoints]
535,444.444444444444,4,1,1,80,1,0
37868,-133.333333333333,4,1,1,70,0,0
38312,-166.666666666667,4,2,1,60,0,0
43646,-142.857142857143,4,2,1,65,0,0
44090,-125,4,2,1,70,0,0
44534,-111.111111111111,4,2,1,75,0,0
44979,-100,4,1,1,80,0,0
52090,-100,4,1,1,90,0,1
66201,-100,4,1,1,90,0,0
66312,-100,4,1,1,90,0,1
80534,-166.666666666667,4,2,1,60,0,0
85979,-166.666666666667,4,2,1,40,0,0

[Colours]
Combo1 : 163,0,251
Combo2 : 255,140,13
Combo3 : 255,17,17
Combo4 : 232,220,0

[HitObjects]
88,160,535,6,0,L|92:244,1,80,4|0,0:0|0:0,0:0:0:0:
214,197,979,2,0,L|176:128,1,80,8|0,0:0|0:0,0:0:0:0:
240,56,1423,2,0,P|288:64|340:48,1,80,0|0,0:0|0:0,0:0:0:0:
460,76,1868,2,0,P|424:100|396:136,1,80,8|0,0:0|0:0,0:0:0:0:
352,232,2312,5,0,0:0:0:0:
356,256,2423,1,0,0:0:0:0:
360,276,2534,1,0,0:0:0:0:
260,196,2757,2,0,L|240:92,1,80,8|0,0:0|0:0,0:0:0:0:
144,92,3090,1,0,0:0:0:0:
128,108,3201,2,0,P|132:152|164:204,1,80
296,296,3646,2,0,P|240:252|216:248,1,80,8|0,0:0|0:0,0:0:0:0:
140,288,4090,5,4,0:0:0:0:
162,161,4423,1,8,0:0:0:0:
260,244,4757,1,0,0:0:0:0:
230,43,4979,5,4,0:0:0:0:
329,126,5312,1,8,0:0:0:0:
208,169,5646,1,0,0:0:0:0:
397,244,5868,5,4,0:0:0:0:
276,288,6201,1,8,0:0:0:0:
299,162,6534,1,0,0:0:0:0:
140,288,6757,6,0,P|84:116|320:88,1,480,4|8,0:2|0:0,0:0:0:0:
208,168,8534,1,8,0:0:0:0:
209,187,8646,1,0,0:0:0:0:
210,207,8757,1,0,0:0:0:0:
212,227,8868,1,0,0:0:0:0:
213,247,8979,1,8,0:0:0:0:
215,267,9090,1,0,0:0:0:0:
216,287,9201,1,0,0:0:0:0:
218,307,9312,1,0,0:0:0:0:
220,324,9423,6,0,P|260:320|304:296,1,80,4|0,0:2|0:0,0:0:0:0:
136,264,9868,2,0,P|119:300|118:350,1,80,8|0,0:0|0:0,0:0:0:0:
228,216,10312,2,0,P|204:183|161:157,1,80
68,136,10757,1,8,0:0:0:0:
88,32,10979,1,0,0:0:0:0:
96,28,11090,1,0,0:0:0:0:
104,24,11201,2,0,L|196:20,1,80
276,88,11646,2,0,P|312:104|404:96,1,120,8|0,0:0|0:0,0:0:0:0:
391,101,12090,2,0,L|408:200,1,80
336,344,12534,2,0,B|324:304|324:304|328:264|328:264|312:232|320:184,1,160,8|0,0:0|0:0,0:0:0:0:
408,212,13201,5,0,0:0:0:0:
319,187,13423,2,0,L|224:176,1,80,8|0,0:0|0:0,0:0:0:0:
148,120,13868,2,0,L|228:100,1,80
312,40,14312,2,0,P|256:32|224:16,1,80,8|0,0:0|0:0,0:0:0:0:
140,20,14757,1,0,0:0:0:0:
180,148,14979,1,0,0:0:0:0:
140,20,15201,2,0,P|92:48|56:52,1,80,8|0,0:0|0:0,0:0:0:0:
60,60,15534,1,0,0:0:0:0:
56,72,15646,2,0,L|64:172,1,80
96,248,16090,1,8,0:0:0:0:
134,256,16201,1,0,0:0:0:0:
168,276,16312,1,0,0:0:0:0:
193,307,16423,1,0,0:0:0:0:
206,345,16534,1,4,0:0:0:0:
308,304,16757,5,0,0:0:0:0:
416,276,16979,2,0,L|408:372,1,80,8|0,0:0|0:0,0:0:0:0:
308,304,17423,2,0,L|296:216,1,80
380,144,17868,2,0,P|424:156|472:152,1,80,8|0,0:0|0:0,0:0:0:0:
468,152,18201,1,0,0:0:0:0:
476,148,18312,2,0,L|484:60,1,80
380,144,18757,2,0,L|372:280,1,120,8|0,0:0|0:0,0:0:0:0:
372,263,19201,2,0,P|324:252|292:256,1,80
192,304,19646,2,0,P|132:312|40:264,1,160,8|0,0:0|0:0,0:0:0:0:
32,144,20312,5,0,0:0:0:0:
128,128,20534,2,0,P|120:184|88:224,1,80,8|0,0:0|0:0,0:0:0:0:
205,9,20979,5,0,0:0:0:0:
304,62,21201,1,0,0:0:0:0:
270,154,21423,2,0,P|225:119|206:71,1,80,8|0,0:0|0:0,0:0:0:0:
338,268,21868,5,0,0:0:0:0:
240,340,22090,1,0,0:0:0:0:
177,264,22312,2,0,P|229:242|280:250,1,80,8|0,0:0|0:0,0:0:0:0:
44,269,22757,6,2,L|40:208,1,60,2|2,0:2|0:2,0:2:0:0:
100,108,23090,1,2,0:2:0:0:
132,96,23201,2,0,P|176:92|216:100,1,80,2|2,0:2|0:2,0:0:0:0:
232,108,23534,1,2,0:2:0:0:
252,120,23646,6,0,L|284:208,1,80,4|0,0:2|0:0,0:0:0:0:
352,304,24090,2,0,L|372:212,1,80,8|0,0:0|0:0,0:0:0:0:
264,284,24534,2,0,L|284:372,1,80
176,376,24979,1,8,0:0:0:0:
152,288,25201,1,0,0:0:0:0:
152,288,25312,1,0,0:0:0:0:
152,288,25423,2,0,P|96:288|64:296,1,80
24,184,25868,2,0,P|28:120|16:44,1,120,8|0,0:0|0:0,0:0:0:0:
21,64,26312,2,0,L|108:52,1,80
288,148,26757,2,0,L|116:128,1,160,8|0,0:0|0:0,0:0:0:0:
84,228,27423,5,0,0:0:0:0:
188,248,27646,2,0,P|200:208|204:156,1,80,8|0,0:0|0:0,0:0:0:0:
364,184,28090,2,0,P|323:193|276:216,1,80
220,60,28534,2,0,P|248:90|291:119,1,80,8|0,0:0|0:0,0:0:0:0:
364,184,28979,1,0,0:0:0:0:
476,136,29201,1,0,0:0:0:0:
476,136,29312,1,0,0:0:0:0:
476,136,29423,2,0,L|492:236,1,80,8|0,0:0|0:0,0:0:0:0:
396,360,29868,2,0,L|412:260,1,80
364,184,30312,1,8,0:0:0:0:
329,204,30423,1,0,0:0:0:0:
291,214,30534,1,0,0:0:0:0:
251,213,30645,1,0,0:0:0:0:
213,202,30756,1,4,0:0:0:0:
168,100,30979,5,0,0:0:0:0:
76,120,31201,2,0,L|0:144,2,80,8|0|0,0:0|0:0|0:0,0:0:0:0:
214,158,31868,5,0,0:0:0:0:
120,220,32090,2,0,L|44:278,2,80,8|0|0,0:0|0:0|0:0,0:0:0:0:
272,202,32757,5,0,0:0:0:0:
192,312,32979,2,0,L|130:408,1,80,8|0,0:0|0:0,0:0:0:0:
280,336,33423,2,0,P|276:284|264:256,1,80,0|0,0:0|0:0,0:0:0:0:
240,232,33757,1,0,0:0:0:0:
204,220,33868,1,8,0:0:0:0:
116,256,34090,1,0,0:0:0:0:
32,208,34312,6,0,L|16:120,1,80,4|0,0:0|0:0,0:0:0:0:
112,44,34757,2,0,L|108:140,1,80,8|0,0:0|0:0,0:0:0:0:
200,192,35201,2,0,P|208:148|208:96,1,80
320,44,35646,2,0,P|308:96|308:124,1,80,8|0,0:0|0:0,0:0:0:0:
308,232,36090,5,0,0:0:0:0:
424,224,36312,1,0,0:0:0:0:
443,222,36423,1,0,0:0:0:0:
463,221,36534,1,8,0:0:0:0:
308,232,36757,1,0,0:0:0:0:
476,220,36979,2,0,P|480:168|468:136,1,80
304,104,37423,2,0,P|347:133|380:139,1,80,8|0,0:0|0:0,0:0:0:0:
472,16,37868,6,0,P|444:34|423:60,1,60.0000022888184,2|0,0:2|0:0,0:0:0:0:
404,184,38312,2,0,L|376:-8,1,191.999994140625,4|2,0:0|0:0,0:0:0:0:
288,20,39423,1,0,0:0:0:0:
228,88,39646,2,0,P|180:108|128:108,1,95.9999970703126,4|2,0:1|0:0,0:0:0:0:
16,184,40534,2,0,P|40:232|44:288,1,95.9999970703126,2|2,0:0|0:0,0:0:0:0:
8,356,41201,1,0,0:0:0:0:
104,340,41423,6,0,P|132:336|168:340,1,47.9999985351563,4|0,0:0|0:0,0:0:0:0:
244,348,41868,2,0,B|292:360|336:344|336:344|384:328|436:340,1,191.999994140625,2|2,0:0|0:0,0:0:0:0:
476,264,42979,1,0,0:0:0:0:
444,176,43201,2,0,L|428:128,1,47.9999985351563,4|0,0:1|0:0,0:0:0:0:
344,80,43646,2,0,L|340:144,1,55.9999982910157,2|0,0:0|0:0,0:0:0:0:
280,256,44090,2,0,L|268:180,1,64,2|0,0:0|0:0,0:0:0:0:
188,72,44534,2,0,L|180:144,1,71.9999978027344,2|0,0:0|0:0,0:0:0:0:
136,256,44979,6,0,P|96:224|64:144,1,120,8|0,0:0|0:0,0:0:0:0:
180,144,45423,2,0,P|220:176|252:256,1,120,8|0,0:0|0:0,0:0:0:0:
312,304,45868,2,0,L|440:272,1,120,8|0,0:0|0:0,0:0:0:0:
232,348,46312,2,0,L|104:340,1,120,8|0,0:0|0:0,0:0:0:0:
328,384,46757,6,0,L|460:348,1,120,8|0,0:0|0:0,0:0:0:0:
480,264,47201,2,0,P|408:264|368:296,1,120,8|0,0:0|0:0,0:0:0:0:
272,276,47646,2,0,P|312:240|332:152,1,120,8|0,0:0|0:0,0:0:0:0:
304,92,48090,2,0,L|172:120,1,120,8|0,0:0|0:0,0:0:0:0:
172,28,48534,6,0,P|112:68|184:208,1,240,4|0,0:2|0:0,0:0:0:0:
196,276,49423,2,0,P|200:312|188:376,1,80,8|0,0:0|0:0,0:0:0:0:
244,124,49868,2,0,P|240:96|244:36,1,80,8|0,0:0|0:0,0:0:0:0:
279,211,50312,6,8,P|283:239|283:267,1,53.3333333333333
311,131,50609,1,8,0:0:0:0:
242,44,50757,6,8,P|207:30|176:12,1,53.3333333333333
311,131,51054,1,8,0:0:0:0:
447,111,51201,6,8,P|482:83|521:60,1,53.3333333333333
311,131,51498,1,8,0:0:0:0:
152,76,51646,1,12,0:0:0:0:
152,76,52090,5,4,0:2:0:0:
108,236,52423,1,8,0:0:0:0:
280,176,52757,1,0,0:0:0:0:
334,57,52979,5,2,0:0:0:0:
168,64,53312,1,8,0:0:0:0:
278,209,53646,1,0,0:0:0:0:
408,224,53868,5,2,0:0:0:0:
349,69,54201,1,8,0:0:0:0:
245,219,54534,1,0,0:0:0:0:
271,346,54757,5,2,0:0:0:0:
401,243,55090,1,8,0:0:0:0:
227,190,55423,1,0,0:0:0:0:
113,255,55646,5,2,0:0:0:0:
252,346,55979,1,8,0:0:0:0:
248,164,56312,1,0,0:0:0:0:
152,75,56534,2,0,P|204:44|312:52,1,160,2|8,0:0|0:0,0:0:0:0:
392,88,57201,1,0,0:0:0:0:
396,100,57312,1,0,0:0:0:0:
400,112,57423,6,0,L|408:196,1,80,2|0,0:0|0:0,0:0:0:0:
316,84,57868,2,0,L|324:0,1,80,8|0,0:0|0:0,0:0:0:0:
224,60,58312,1,2,0:0:0:0:
224,60,58423,1,0,0:0:0:0:
224,60,58534,2,0,L|232:144,1,80,0|8,0:0|0:0,0:0:0:0:
216,244,58979,1,0,0:0:0:0:
244,344,59201,5,4,0:2:0:0:
356,248,59534,1,8,0:0:0:0:
108,176,59868,1,0,0:0:0:0:
148,296,60090,2,0,L|144:400,1,80,2|0,0:0|0:0,0:0:0:0:
144,375,60423,1,0,0:0:0:0:
144,375,60534,1,8,0:0:0:0:
52,296,60757,2,0,L|40:232,1,40
32,176,60979,5,4,0:2:0:0:
248,48,61312,1,8,0:0:0:0:
72,40,61646,1,0,0:0:0:0:
128,140,61868,1,2,0:0:0:0:
120,272,62090,1,0,0:0:0:0:
120,272,62201,1,0,0:0:0:0:
120,272,62312,1,8,0:0:0:0:
128,140,62534,2,0,L|132:75,1,40
140,16,62757,6,0,P|180:24|224:24,1,80,2|0,0:0|0:0,0:0:0:0:
388,88,63201,2,0,P|332:92|296:104,1,80,8|0,0:0|0:0,0:0:0:0:
136,188,63646,2,0,P|192:184|228:172,1,80,2|0,0:0|0:0,0:0:0:0:
400,236,64090,2,0,P|360:228|316:228,1,80,8|0,0:0|0:0,0:0:0:0:
244,336,64534,6,8,L|184:316,1,53.3333333333333
212,212,64831,1,8,0:0:0:0:
52,168,64979,6,8,L|113:113,1,53.3333333333333
212,212,65276,1,8,0:0:0:0:
367,62,65423,6,8,L|380:124,1,53.3333333333333
212,212,65720,1,8,0:0:0:0:
190,47,65868,1,12,0:0:0:0:
190,47,66312,5,4,0:2:0:0:
212,212,66646,1,8,0:0:0:0:
112,92,66979,1,0,0:0:0:0:
97,209,67201,5,2,0:0:0:0:
261,240,67535,1,8,0:0:0:0:
116,298,67868,1,0,0:0:0:0:
224,348,68090,5,2,0:0:0:0:
303,201,68424,1,8,0:0:0:0:
313,357,68757,1,0,0:0:0:0:
394,270,68979,5,2,0:0:0:0:
279,149,69313,1,8,0:0:0:0:
431,188,69646,1,0,0:0:0:0:
373,84,69868,5,2,0:0:0:0:
223,156,70202,1,8,0:0:0:0:
306,24,70535,1,0,0:0:0:0:
190,47,70757,2,0,P|132:91|116:184,1,160,2|8,0:0|0:0,0:0:0:0:
204,232,71423,1,0,0:0:0:0:
212,248,71534,1,0,0:0:0:0:
220,264,71646,6,0,P|224:304|216:360,1,80,2|0,0:0|0:0,0:0:0:0:
115,292,72090,2,0,P|116:265|128:208,1,80,8|0,0:0|0:0,0:0:0:0:
80,360,72534,1,2,0:0:0:0:
80,360,72646,1,0,0:0:0:0:
80,360,72757,2,0,P|20:372|-12:368,1,80,0|8,0:0|0:0,0:0:0:0:
0,268,73201,1,0,0:0:0:0:
40,172,73423,5,2,0:2:0:0:
208,120,73757,1,8,0:0:0:0:
76,4,74090,1,0,0:0:0:0:
112,100,74312,2,0,L|136:176,1,80,2|0,0:0|0:0,0:0:0:0:
236,296,74757,2,0,L|248:196,1,80,8|0,0:0|0:0,0:0:0:0:
472,176,75201,5,2,0:2:0:0:
304,120,75535,1,8,0:0:0:0:
436,4,75868,1,0,0:0:0:0:
400,100,76090,2,0,L|376:176,1,80,2|0,0:0|0:0,0:0:0:0:
276,296,76535,2,0,L|264:196,1,80,8|0,0:0|0:0,0:0:0:0:
120,64,76979,6,8,L|112:124,1,53.3333333333333
196,232,77275,2,8,L|184:164,1,53.3333333333333
100,268,77572,2,8,L|88:336,1,53.3333333333333
212,348,77868,2,0,B|252:352|252:352|260:344|260:344|304:348,1,80,4|0,0:0|0:0,0:0:0:0:
256,192,78312,5,6,0:2:0:0:
256,192,78423,12,0,80090,0:0:0:0:
72,108,80534,6,0,P|112:92|180:104,1,95.9999970703126,4|2,0:0|0:0,0:0:0:0:
232,156,81201,1,0,0:0:0:0:
280,232,81423,2,0,L|272:288,1,47.9999985351563
196,356,81868,2,0,L|188:304,1,47.9999985351563,2|0,0:0|0:0,0:0:0:0:
188,220,82312,2,0,B|160:220|138:236|138:236|116:252|88:252,1,95.9999970703126,0|2,0:0|0:0,0:0:0:0:
89,162,82979,1,0,0:0:0:0:
120,80,83201,2,0,P|160:88|176:88,1,47.9999985351563
354,52,83646,6,0,P|306:52|260:64,2,95.9999970703126,2|4|2,0:0|0:0|0:0,0:0:0:0:
396,132,84757,1,0,0:0:0:0:
316,160,84979,2,0,L|332:208,1,47.9999985351563
286,293,85423,2,0,L|256:256,1,47.9999985351563,2|0,0:0|0:0,0:0:0:0:
224,360,85868,5,4,0:0:0:0:
256,192,85979,12,4,87646,0:1:0:0:
