osu file format v12

[General]
AudioFilename: 28.mp3
AudioLeadIn: 0
PreviewTime: 66346
Countdown: 0
SampleSet: Normal
StackLeniency: 0.7
Mode: 0
LetterboxInBreaks: 1
WidescreenStoryboard: 0

[Editor]
Bookmarks: 70251
DistanceSpacing: 1
BeatDivisor: 4
GridSize: 4

[Metadata]
Title:Datengoku Sensen
TitleUnicode:堕天國宣戦
Artist:ALI PROJECT
ArtistUnicode:ALI PROJECT
Creator:P o M u T a
Version:Normal
Source:Tatakau Shisho: The Book of Bantorra
Tags:Opening pomuta 戦う司書
BeatmapID:319410
BeatmapSetID:121468

[Difficulty]
HPDrainRate:4
CircleSize:3
OverallDifficulty:4
ApproachRate:5
SliderMultiplier:0.999999999999999
SliderTickRate:1

[Events]
//Background and Video events
0,0,"bg.jpg",0,0
//Break Periods
2,95737,101194
2,175451,187765
2,238022,243529
//Storyboard Layer 0 (Background)
//Storyboard Layer 1 (Fail)
//Storyboard Layer 2 (Pass)
//Storyboard Layer 3 (Foreground)
//Storyboard Sound Samples
//Background Colour Transformations
3,100,163,162,255

[TimingPoints]
18395,428.571428571429,4,1,1,60,1,0
22680,428.571428571429,4,1,1,60,1,0
67251,-100,4,1,1,60,0,1
95537,428.571428571429,4,1,1,60,1,0
140108,-100,4,1,1,60,0,1
168394,428.571428571429,4,1,1,60,1,0
217251,-100,4,1,1,40,0,0
219822,-100,4,1,1,75,0,1
232679,-100,4,1,1,75,0,1
233108,-100,4,1,1,75,0,1
238779,857.142857142857,4,2,1,40,1,0
244729,857.142857142857,4,2,1,40,1,0

[Colours]
Combo1 : 128,0,0
Combo2 : 128,255,255
Combo3 : 255,128,64

[HitObjects]
176,192,18394,2,0,P|144:228|96:244,2,99.9999999999999,4|0|4,0:0|0:0|0:0,0:0:0:0:
256,132,19680,1,0,0:0:0:0:
336,192,20109,2,0,P|368:228|416:244,2,99.9999999999999,4|0|4,0:0|0:0|0:0,0:0:0:0:
256,132,21395,1,8,0:0:0:0:
164,92,21823,6,0,P|112:99|71:127,2,99.9999999999999,0|8|4,0:0|0:0|0:0,0:0:0:0:
256,192,22787,12,4,26108,0:0:0:0:
256,283,26965,6,0,L|356:303,1,99.9999999999999,0|4,0:0|0:0,0:0:0:0:
452,328,27822,2,0,P|456:280|432:236,1,99.9999999999999,4|0,0:0|0:0,0:0:0:0:
364,160,28680,2,0,P|339:116|343:67,2,99.9999999999999,4|8|4,0:0|0:0|0:0,0:0:0:0:
444,220,29965,6,0,P|408:252|356:264,1,99.9999999999999,8|0,0:0|0:0,0:0:0:0:
264,232,30822,1,8,0:0:0:0:
172,196,31251,2,0,P|164:244|188:292,2,99.9999999999999,0|8|0,0:0|0:0|0:0,0:0:0:0:
252,136,32537,2,0,L|168:80,1,99.9999999999999,8|0,0:0|0:0,0:0:0:0:
80,36,33394,6,0,P|44:72|32:120,1,99.9999999999999,8|0,0:0|0:0,0:0:0:0:
100,192,34251,1,8,0:0:0:0:
31,265,34680,2,0,P|44:313|80:348,1,99.9999999999999,0|8,0:0|0:0,0:0:0:0:
164,296,35537,2,0,P|198:330|244:352,1,99.9999999999999,0|8,0:0|0:0,0:0:0:0:
344,352,36394,6,0,P|389:330|424:295,1,99.9999999999999,0|8,0:0|0:0,0:0:0:0:
424,196,37251,2,0,L|460:152,2,50,0|0|8,0:0|0:0|0:0,0:0:0:0:
328,228,38108,2,0,P|276:232|232:216,1,99.9999999999999,0|8,0:0|0:0,0:0:0:0:
140,176,38965,2,0,L|76:196,2,50,0|0|8,0:0|0:0|0:0,0:0:0:0:
196,92,39822,6,0,P|232:60|280:44,1,99.9999999999999,0|8,0:0|0:0,0:0:0:0:
376,72,40680,2,0,L|412:168,1,99.9999999999999,0|8,0:0|0:0,0:0:0:0:
452,256,41537,2,0,B|492:288|500:340,2,99.9999999999999,4|8|0,0:0|0:0|0:0,0:0:0:0:
360,296,42822,2,0,L|300:324,1,50,8|0,0:0|0:0,0:0:0:0:
268,336,43251,5,4,0:0:0:0:
244,240,43680,2,0,P|196:252|167:292,1,99.9999999999999,8|0,0:0|0:0,0:0:0:0:
104,368,44537,1,8,0:0:0:0:
32,296,44965,2,0,L|20:196,1,99.9999999999999,0|8,0:0|0:0,0:0:0:0:
76,112,45822,2,0,L|92:12,2,99.9999999999999,0|8|0,0:0|0:0|0:0,0:0:0:0:
136,192,47108,6,0,P|188:184|224:152,1,99.9999999999999,8|0,0:0|0:0,0:0:0:0:
256,60,47965,1,8,0:0:0:0:
344,112,48394,2,0,P|368:72|416:52,2,99.9999999999999,0|8|0,0:0|0:0|0:0,0:0:0:0:
404,192,49680,2,0,P|416:236|396:288,1,99.9999999999999,8|0,0:0|0:0,0:0:0:0:
308,328,50537,6,0,L|208:348,1,99.9999999999999,8|4,0:0|0:0,0:0:0:0:
112,328,51394,1,8,0:0:0:0:
52,248,51822,1,0,0:0:0:0:
88,156,52251,2,0,L|32:72,2,99.9999999999999,8|4|8,0:0|0:0|0:0,0:0:0:0:
180,192,53537,6,0,P|229:200|280:192,1,99.9999999999999,0|4,0:0|0:0,0:0:0:0:
280,92,54394,2,0,P|230:84|181:92,1,99.9999999999999,0|4,0:0|0:0,0:0:0:0:
96,144,55251,2,2,P|63:181|56:232,1,99.9999999999999,0|8,0:0|0:0,0:0:0:0:
112,312,56108,1,0,0:0:0:0:
192,252,56537,2,0,L|237:297,1,50,8|0,0:0|0:0,0:0:0:0:
256,328,56965,6,0,P|304:344|356:336,1,99.9999999999999,0|8,0:0|0:0,0:0:0:0:
436,284,57822,2,0,L|452:184,1,99.9999999999999,0|4,0:0|0:0,0:0:0:0:
468,88,58680,2,0,P|384:36|284:44,1,200
200,92,59965,1,4,0:0:0:0:
256,176,60394,6,0,P|216:212|172:228,1,99.9999999999999,0|8,0:0|0:0,0:0:0:0:
76,204,61251,2,0,P|72:248|104:296,1,99.9999999999999,0|4,0:0|0:0,0:0:0:0:
192,336,62108,2,0,P|240:332|288:309,1,99.9999999999999,0|8,0:0|0:0,0:0:0:0:
312,212,62965,2,0,P|264:216|216:239,1,99.9999999999999,0|8,0:0|0:0,0:0:0:0:
256,192,63822,12,4,66394,0:0:0:0:
256,76,67251,6,0,P|348:88|400:176,1,200,4|0,0:0|0:0,0:0:0:0:
340,254,68537,1,8,0:0:0:0:
256,308,68965,2,0,P|164:296|112:208,1,200
172,130,70251,1,8,0:0:0:0:
256,76,70680,6,0,B|216:44|169:29,2,99.9999999999999,0|8|0,0:0|0:0|0:0,0:0:0:0:
312,160,71965,1,8,0:0:0:0:
396,216,72394,2,0,P|448:208|496:188,2,99.9999999999999,0|8|0,0:0|0:0|0:0,0:0:0:0:
308,264,73680,1,8,0:0:0:0:
228,204,74108,6,0,P|160:148|52:172,1,200,4|0,0:0|0:0,0:0:0:0:
128,240,75394,1,8,0:0:0:0:
32,272,75822,2,0,P|100:328|208:304,1,200,4|0,0:0|0:0,0:0:0:0:
256,224,77108,1,8,0:0:0:0:
308,307,77537,6,0,P|402:330|480:272,1,200,4|0,0:0|0:0,0:0:0:0:
436,184,78822,1,8,0:0:0:0:
416,88,79251,2,0,P|456:56|488:16,2,99.9999999999999,4|8|0,0:0|0:0|0:0,0:0:0:0:
316,96,80537,1,8,0:0:0:0:
228,48,80965,6,0,P|132:88|80:168,1,200,4|0,0:0|0:0,0:0:0:0:
100,264,82251,1,8,0:0:0:0:
184,320,82680,2,0,P|280:332|384:328,1,200
460,264,83965,1,8,0:0:0:0:
384,200,84394,6,0,P|340:196|284:200,1,99.9999999999999,0|8,0:0|0:0,0:0:0:0:
256,296,85251,2,0,P|206:299|156:295,1,99.9999999999999,0|8,0:0|0:0,0:0:0:0:
72,244,86108,2,0,P|48:196|48:148,1,99.9999999999999,0|8,0:0|0:0,0:0:0:0:
112,72,86965,1,0,0:0:0:0:
208,48,87394,1,8,0:0:0:0:
308,56,87822,6,0,P|404:88|460:168,1,200,4|4,0:0|0:0,0:0:0:0:
440,264,89108,1,8,0:0:0:0:
360,324,89537,2,0,P|258:317|184:255,1,200,4|4,0:0|0:0,0:0:0:0:
132,172,90822,2,0,L|104:128,1,50,8|0,0:0|0:0,0:0:0:0:
84,84,91251,6,0,P|124:52|172:48,2,99.9999999999999,4|4|4,0:0|0:0|0:0,0:0:0:0:
24,164,92537,1,4,0:0:0:0:
40,264,92965,2,0,P|80:292|132:308,1,99.9999999999999,4|4,0:0|0:0,0:0:0:0:
228,300,93822,2,0,B|332:284|332:312|433:300,1,200,4|0,0:0|0:0,0:0:0:0:
460,208,95108,5,8,0:0:0:0:
424,116,95537,1,4,0:0:0:0:
100,116,102394,5,4,0:0:0:0:
180,56,102822,2,0,P|224:40|280:40,1,99.9999999999999,8|0,0:0|0:0,0:0:0:0:
372,68,103679,1,8,0:0:0:0:
464,108,104108,2,0,L|420:200,1,99.9999999999999,0|8,0:0|0:0,0:0:0:0:
328,236,104965,2,0,L|371:326,2,99.9999999999999,0|8|0,0:0|0:0|0:0,0:0:0:0:
250,172,106251,6,0,P|202:152|178:112,1,99.9999999999999,8|0,0:0|0:0,0:0:0:0:
79,94,107108,2,0,P|99:46|139:22,2,99.9999999999999,8|0|8,0:0|0:0|0:0,0:0:0:0:
20,176,108394,2,0,L|40:276,1,99.9999999999999,0|8,0:0|0:0,0:0:0:0:
104,352,109251,5,4,0:0:0:0:
176,284,109679,2,0,P|208:248|260:236,2,99.9999999999999,8|0|8,0:0|0:0|0:0,0:0:0:0:
262,333,110965,2,0,L|374:321,1,99.9999999999999,0|8,0:0|0:0,0:0:0:0:
456,292,111822,1,0,0:0:0:0:
489,197,112251,1,8,0:0:0:0:
464,100,112679,6,0,P|432:64|380:48,1,99.9999999999999,0|8,0:0|0:0,0:0:0:0:
288,84,113537,2,0,P|324:124|372:136,2,99.9999999999999,0|8|0,0:0|0:0|0:0,0:0:0:0:
203,31,114822,2,0,P|157:51|120:84,1,99.9999999999999,8|0,0:0|0:0,0:0:0:0:
68,168,115679,1,8,0:0:0:0:
168,168,116108,5,4,0:0:0:0:
120,256,116537,2,0,P|152:296|200:316,1,99.9999999999999,8|0,0:0|0:0,0:0:0:0:
256,236,117394,1,8,0:0:0:0:
316,315,117822,2,0,P|363:325|406:364,2,99.9999999999999,0|8|0,0:0|0:0|0:0,0:0:0:0:
220,340,119108,2,0,P|168:356|124:352,1,99.9999999999999,8|0,0:0|0:0,0:0:0:0:
48,284,119965,5,8,0:0:0:0:
88,192,120394,1,0,0:0:0:0:
48,100,120822,1,8,0:0:0:0:
147,112,121251,2,0,P|200:112|240:88,1,99.9999999999999,0|8,0:0|0:0,0:0:0:0:
324,36,122108,2,0,P|324:89|348:129,1,99.9999999999999,0|8,0:0|0:0,0:0:0:0:
436,176,122965,5,0,0:0:0:0:
376,256,123394,2,0,P|424:264|468:292,2,99.9999999999999,8|4|8,0:0|0:0|0:0,0:0:0:0:
284,296,124679,1,0,0:0:0:0:
188,316,125108,2,0,B|152:328|132:340|132:340|84:336,2,99.9999999999999,8|4|8,0:0|0:0|0:0,0:0:0:0:
216,220,126394,6,0,P|180:184|136:164,1,99.9999999999999,0|4,0:0|0:0,0:0:0:0:
196,84,127251,2,0,P|241:63|276:27,1,99.9999999999999,0|4,0:0|0:0,0:0:0:0:
376,28,128108,2,2,P|411:63|456:84,1,99.9999999999999,4|8,0:0|0:0,0:0:0:0:
484,180,128965,1,0,0:0:0:0:
424,260,129394,1,8,0:0:0:0:
344,320,129822,6,0,L|244:336,1,99.9999999999999,0|8,0:0|0:0,0:0:0:0:
284,244,130679,2,0,L|184:228,1,99.9999999999999,0|4,0:0|0:0,0:0:0:0:
228,140,131537,2,0,P|300:76|400:72,1,200
480,132,132822,1,4,0:0:0:0:
456,228,133251,6,0,P|416:256|364:252,1,99.9999999999999,0|8,0:0|0:0,0:0:0:0:
336,156,134108,2,0,P|287:160|244:130,1,99.9999999999999,0|4,0:0|0:0,0:0:0:0:
160,84,134965,2,0,P|204:63|226:16,2,99.9999999999999,0|8|0,0:0|0:0|0:0,0:0:0:0:
68,44,136251,1,4,0:0:0:0:
256,192,136679,12,4,139251,0:0:0:0:
112,209,140108,6,0,P|160:293|256:308,1,200,4|0,0:0|0:0,0:0:0:0:
340,254,141394,1,8,0:0:0:0:
399,174,141822,2,0,P|351:90|256:76,1,200
172,130,143108,1,8,0:0:0:0:
92,188,143537,6,0,P|52:152|32:112,2,99.9999999999999,0|8|0,0:0|0:0|0:0,0:0:0:0:
164,256,144822,1,8,0:0:0:0:
236,324,145251,2,0,P|192:352|144:352,2,99.9999999999999,0|8|0,0:0|0:0|0:0,0:0:0:0:
260,228,146537,1,8,0:0:0:0:
352,268,146965,6,0,P|432:204|432:112,1,200,4|0,0:0|0:0,0:0:0:0:
380,28,148251,1,8,0:0:0:0:
292,76,148679,2,0,L|192:64,1,99.9999999999999,4|8,0:0|0:0,0:0:0:0:
92,52,149537,2,0,L|56:16,2,50,0|0|8,0:0|0:0|0:0,0:0:0:0:
124,148,150394,6,0,P|120:240|28:256,2,200,4|0|4,0:0|0:0|0:0,0:0:0:0:
84,56,152537,2,0,L|184:40,1,99.9999999999999,8|0,0:0|0:0,0:0:0:0:
256,108,153394,1,8,0:0:0:0:
329,40,153822,6,0,P|424:72|456:160,1,200,4|0,0:0|0:0,0:0:0:0:
408,248,155108,1,8,0:0:0:0:
332,316,155537,2,0,P|284:336|236:332,1,99.9999999999999,0|8,0:0|0:0,0:0:0:0:
168,260,156394,2,0,P|216:240|264:244,1,99.9999999999999,0|8,0:0|0:0,0:0:0:0:
332,316,157251,6,0,P|420:268|448:176,1,200
452,76,158537,1,8,0:0:0:0:
360,116,158965,2,0,P|308:124|264:104,1,99.9999999999999,0|8,0:0|0:0,0:0:0:0:
196,32,159822,1,0,0:0:0:0:
112,88,160251,2,0,L|73:148,1,50,8|0,0:0|0:0,0:0:0:0:
64,176,160679,6,0,B|64:276|64:276|124:356,1,200,4|4,0:0|0:0,0:0:0:0:
200,292,161965,1,8,0:0:0:0:
276,356,162394,2,0,B|336:276|336:276|336:176,1,200,4|4,0:0|0:0,0:0:0:0:
312,80,163679,2,0,L|264:64,1,50,8|0,0:0|0:0,0:0:0:0:
216,52,164108,6,0,P|168:68|120:64,2,99.9999999999999,4|4|4,0:0|0:0|0:0,0:0:0:0:
312,80,165394,1,4,0:0:0:0:
404,120,165822,2,0,P|408:172|432:216,1,99.9999999999999,4|4,0:0|0:0,0:0:0:0:
480,300,166679,2,0,B|376:284|376:312|275:300,2,200,4|0|4,0:0|0:0|0:0,0:0:0:0:
400,116,169251,6,0,P|428:72|472:56,2,99.9999999999999,0|4|0,0:0|0:0|0:0,0:0:0:0:
480,300,170965,1,0,0:0:0:0:
256,192,171822,12,4,175251,0:0:0:0:
388,132,188965,6,0,L|456:60,2,99.9999999999999,0|8|4,0:0|0:0|0:0,0:0:0:0:
420,228,190251,2,0,P|400:248|364:260,1,50,8|0,0:0|0:0,0:0:0:0:
332,248,190679,6,0,P|280:248|232:260,2,99.9999999999999,4|8|0,0:0|0:0|0:0,0:0:0:0:
360,152,191965,1,8,0:0:0:0:
388,56,192394,2,0,P|440:56|488:44,2,99.9999999999999,0|8|0,0:0|0:0|0:0,0:0:0:0:
292,28,193679,1,8,0:0:0:0:
200,64,194108,6,0,P|160:96|112:120,1,99.9999999999999,0|8,0:0|0:0,0:0:0:0:
48,192,194965,1,0,0:0:0:0:
116,264,195394,1,8,0:0:0:0:
216,252,195822,2,0,P|264:256|312:280,1,99.9999999999999,0|8,0:0|0:0,0:0:0:0:
388,340,196679,1,0,0:0:0:0:
452,264,197108,1,8,0:0:0:0:
468,164,197536,6,0,P|400:88|312:48,1,200,4|0,0:0|0:0,0:0:0:0:
212,56,198822,1,8,0:0:0:0:
256,144,199251,2,0,P|280:184|328:212,1,99.9999999999999,4|8,0:0|0:0,0:0:0:0:
268,296,200108,2,0,P|244:256|196:228,1,99.9999999999999,0|8,0:0|0:0,0:0:0:0:
112,180,200965,5,4,0:0:0:0:
41,109,201394,1,8,0:0:0:0:
112,38,201822,1,0,0:0:0:0:
182,109,202251,1,8,0:0:0:0:
256,40,202679,2,0,L|360:40,2,99.9999999999999,4|8|0,0:0|0:0|0:0,0:0:0:0:
182,109,203965,2,0,P|196:132|216:144,1,50,8|0,0:0|0:0,0:0:0:0:
264,156,204394,6,0,P|304:184|328:228,1,99.9999999999999,4|8,0:0|0:0,0:0:0:0:
376,316,205251,2,0,P|399:272|440:243,1,99.9999999999999,0|8,0:0|0:0,0:0:0:0:
484,156,206108,2,0,P|500:108|484:64,2,99.9999999999999,0|8|0,0:0|0:0|0:0,0:0:0:0:
388,128,207394,2,0,L|344:96,1,50,8|0,0:0|0:0,0:0:0:0:
328,52,207822,6,0,P|276:52|228:36,1,99.9999999999999,0|8,0:0|0:0,0:0:0:0:
132,24,208679,1,0,0:0:0:0:
52,84,209108,1,8,0:0:0:0:
132,144,209536,2,0,L|132:244,2,99.9999999999999,0|8|0,0:0|0:0|0:0,0:0:0:0:
212,84,210822,1,8,0:0:0:0:
304,44,211251,6,0,P|352:60|400:56,1,99.9999999999999,4|8,0:0|0:0,0:0:0:0:
480,116,212108,2,0,P|464:164|468:212,1,99.9999999999999,4|8,0:0|0:0,0:0:0:0:
388,272,212965,2,0,P|340:256|292:260,1,99.9999999999999,4|8,0:0|0:0,0:0:0:0:
196,292,213822,1,4,0:0:0:0:
96,280,214251,2,0,L|72:232,1,50,8|0,0:0|0:0,0:0:0:0:
60,188,214679,6,0,L|112:96,1,99.9999999999999,4|8,0:0|0:0,0:0:0:0:
208,112,215536,2,0,L|156:20,2,99.9999999999999,4|8|4,0:0|0:0|0:0,0:0:0:0:
307,101,216822,2,0,L|257:188,1,99.9999999999999,8|4,0:0|0:0,0:0:0:0:
153,358,218108,5,0,0:0:0:0:
335,275,218965,1,0,0:0:0:0:
152,192,219822,6,0,L|52:192,2,99.9999999999999,4|8|0,0:0|0:0|0:0,0:0:0:0:
244,152,221108,1,8,0:0:0:0:
316,84,221536,2,0,P|360:64|412:60,1,99.9999999999999,0|8,0:0|0:0,0:0:0:0:
436,156,222394,2,0,P|392:176|340:180,1,99.9999999999999,0|8,0:0|0:0,0:0:0:0:
244,152,223251,6,0,P|188:128|148:120,1,99.9999999999999,0|8,0:0|0:0,0:0:0:0:
56,156,224108,2,0,L|24:216,1,50
56,244,224536,1,8,0:0:0:0:
120,320,224965,2,0,P|160:344|212:352,1,99.9999999999999,0|8,0:0|0:0,0:0:0:0:
304,308,225822,2,0,L|352:272,1,50
384,248,226251,2,0,L|336:212,1,50,8|0,0:0|0:0,0:0:0:0:
308,184,226679,6,0,P|352:88|296:24,1,200,4|4,0:0|0:0,0:0:0:0:
212,76,227965,1,8,0:0:0:0:
132,136,228394,2,0,P|86:218|142:295,1,200,4|4,0:0|0:0,0:0:0:0:
236,324,229679,2,0,L|300:336,1,50,8|0,0:0|0:0,0:0:0:0:
320,368,230108,6,0,P|368:356|408:320,1,99.9999999999999,4|8,0:0|0:0,0:0:0:0:
472,248,230965,1,4,0:0:0:0:
388,192,231394,1,8,0:0:0:0:
472,136,231822,2,0,L|472:36,2,99.9999999999999,4|8|4,0:0|0:0|0:0,0:0:0:0:
388,192,233108,2,0,L|328:192,1,50,8|0,0:0|0:0,0:0:0:0:
288,192,233536,6,0,P|296:144|328:104,2,99.9999999999999,4|8|4,0:0|0:0|0:0,0:0:0:0:
336,280,234822,1,8,0:0:0:0:
256,344,235251,2,0,P|208:336|164:308,1,99.9999999999999,4|8,0:0|0:0,0:0:0:0:
112,224,236108,1,4,0:0:0:0:
88,128,236536,2,0,P|112:116|128:96,1,50,8|0,0:0|0:0,0:0:0:0:
164,64,236965,6,0,L|268:64,2,99.9999999999999,0|8|4,0:0|0:0|0:0,0:0:0:0:
404,144,244729,6,0,P|392:192|352:220,1,99.9999999999999,2|2,0:0|0:0,0:0:0:0:
256,192,246443,2,0,L|232:140,2,50,2|0|2,0:0|0:0|0:0,0:0:0:0:
232,236,247729,1,0,0:0:0:0:
188,256,248157,6,0,P|136:248|104:216,1,99.9999999999999,2|2,0:0|0:0,0:0:0:0:
92,116,249871,2,0,P|144:124|176:156,2,99.9999999999999,2|2|6,0:0|0:0|0:0,0:0:0:0:
