osu file format v12

[General]
AudioFilename: 28.mp3
AudioLeadIn: 0
PreviewTime: 66346
Countdown: 0
SampleSet: Normal
StackLeniency: 0.7
Mode: 0
LetterboxInBreaks: 1
WidescreenStoryboard: 0

[Editor]
Bookmarks: 33394,35537,70251
DistanceSpacing: 1.2
BeatDivisor: 4
GridSize: 4

[Metadata]
Title:Datengoku Sensen
TitleUnicode:堕天國宣戦
Artist:ALI PROJECT
ArtistUnicode:ALI PROJECT
Creator:P o M u T a
Version:Hard
Source:Tatakau Shisho: The Book of Bantorra
Tags:Opening pomuta 戦う司書
BeatmapID:319839
BeatmapSetID:121468

[Difficulty]
HPDrainRate:6
CircleSize:4
OverallDifficulty:6
ApproachRate:7
SliderMultiplier:1.6
SliderTickRate:1

[Events]
//Background and Video events
0,0,"bg.jpg",0,0
//Break Periods
2,99165,101494
2,175451,188922
//Storyboard Layer 0 (Background)
//Storyboard Layer 1 (Fail)
//Storyboard Layer 2 (Pass)
//Storyboard Layer 3 (Foreground)
//Storyboard Sound Samples
//Background Colour Transformations
3,100,163,162,255

[TimingPoints]
18395,428.571428571429,4,1,1,60,1,0
22680,428.571428571429,4,1,1,60,1,0
67251,-100,4,1,1,60,0,1
95537,428.571428571429,4,1,1,60,1,0
140108,-100,4,1,1,60,0,1
168394,428.571428571429,4,1,1,60,1,0
217251,-133.333333333333,4,1,1,40,0,0
219822,-100,4,1,1,75,0,1
232679,-100,4,1,1,75,0,1
233108,-100,4,1,1,75,0,1
238779,857.142857142857,4,2,1,40,1,0
244729,857.142857142857,4,2,1,40,1,0

[Colours]
Combo1 : 128,0,0
Combo2 : 128,255,255
Combo3 : 255,128,64

[HitObjects]
364,44,18394,2,0,P|420:96|432:176,1,160,4|4,0:0|0:0,0:0:0:0:
336,344,19252,2,0,P|280:292|268:212,1,160,4|4,0:0|0:0,0:0:0:0:
88,140,20109,2,0,P|144:192|156:272,2,160,4|8|4,0:0|0:0|0:0,0:0:0:0:
20,72,21180,5,0,0:0:0:0:
108,32,21395,2,0,P|148:40|188:40,1,80,8|0,0:0|0:0,0:0:0:0:
282,43,21823,2,0,P|322:35|362:35,1,80,0|0,0:0|0:0,0:0:0:0:
434,99,22252,2,0,P|454:135|486:155,2,80,8|0|4,0:0|0:0|0:0,0:0:0:0:
256,192,22787,12,0,26108,0:0:0:0:
196,304,26537,6,0,L|164:332,2,40,8|0|0,0:0|0:0|0:0,0:0:0:0:
316,304,26965,2,0,L|348:332,2,40,0|0|0,0:0|0:0|0:0,0:0:0:0:
256,228,27394,2,0,L|256:68,1,160,4|4,0:0|0:0,0:0:0:0:
64,68,28251,6,0,L|48:24,2,40,8|0|0,0:0|0:0|0:0,0:0:0:0:
160,68,28680,2,0,L|176:24,2,40,4|0|0,0:0|0:0|0:0,0:0:0:0:
112,152,29108,1,8,0:0:0:0:
112,152,29322,2,0,L|112:196,2,40,0|0|4,0:0|0:0|0:0,0:0:0:0:
256,24,29965,6,0,P|292:64|356:88,1,120,8|0,0:0|0:0,0:0:0:0:
375,95,30394,1,0,0:0:0:0:
470,97,30608,1,0,0:0:0:0:
488,192,30822,2,0,L|448:264,1,80,8|0,0:0|0:0,0:0:0:0:
396,340,31251,6,0,P|320:360|240:360,1,160,0|8,0:0|0:0,0:0:0:0:
164,300,31894,1,0,0:0:0:0:
88,244,32108,2,0,P|48:244|12:260,2,80,0|0|8,0:0|0:0|0:0,0:0:0:0:
164,300,32751,1,0,0:0:0:0:
232,232,32965,6,0,P|212:200|180:172,1,80,0|0,0:0|0:0,0:0:0:0:
100,120,33394,2,0,P|69:93|48:60,2,80,8|0|0,0:0|0:0|0:0,0:0:0:0:
188,80,34037,1,0,0:0:0:0:
284,84,34251,2,0,L|300:32,2,53.3333333333333,8|0|0,0:0|0:0|0:0,0:0:0:0:
296,116,34680,6,0,P|360:148|448:136,1,160,0|8,0:0|0:0,0:0:0:0:
492,56,35322,1,0,0:0:0:0:
400,76,35537,2,0,P|368:140|380:228,1,160,0|8,0:0|0:0,0:0:0:0:
432,304,36180,1,0,0:0:0:0:
344,344,36394,6,0,B|304:348|304:340|264:344,1,80,0|0,0:0|0:0,0:0:0:0:
168,344,36822,2,0,B|132:332|132:332|132:292|104:256,1,120,8|0,0:0|0:0,0:0:0:0:
88,236,37251,2,0,B|58:210|58:210|50:170,2,80,0|0|8,0:0|0:0|0:0,0:0:0:0:
148,144,37894,1,0,0:0:0:0:
108,40,38108,6,0,P|144:52|188:52,1,80,0|0,0:0|0:0,0:0:0:0:
280,32,38537,2,0,B|300:48|300:48|292:96|316:140,1,120,8|0,0:0|0:0,0:0:0:0:
328,160,38965,1,0,0:0:0:0:
256,224,39180,1,0,0:0:0:0:
328,288,39394,2,0,P|356:316|396:328,1,80,8|0,0:0|0:0,0:0:0:0:
408,232,39822,6,0,P|445:220|473:192,1,80,0|0,0:0|0:0,0:0:0:0:
484,96,40251,2,0,L|376:44,1,120,8|0,0:0|0:0,0:0:0:0:
360,24,40680,2,0,P|316:28|280:16,1,80,0|0,0:0|0:0,0:0:0:0:
188,16,41108,2,0,P|172:76|88:120,1,160,8|4,0:0|0:0,0:0:0:0:
92,120,41965,5,8,0:0:0:0:
156,192,42180,1,0,0:0:0:0:
92,264,42394,2,0,L|72:312,2,40,8|0|0,0:0|0:0|0:0,0:0:0:0:
180,304,42822,2,0,L|195:267,2,40,8|0|0,0:0|0:0|0:0,0:0:0:0:
256,212,43251,6,0,P|292:232|320:260,1,80,4|0,0:0|0:0,0:0:0:0:
376,336,43680,2,0,P|408:284|452:244,1,120,8|0,0:0|0:0,0:0:0:0:
476,240,44108,1,0,0:0:0:0:
452,148,44322,2,0,P|480:120|484:80,2,80,0|8|0,0:0|0:0|0:0,0:0:0:0:
360,180,44965,6,0,P|284:144|284:72,1,160,0|8,0:0|0:0,0:0:0:0:
356,104,45608,1,0,0:0:0:0:
356,104,45822,2,0,P|292:148|212:164,1,160,0|8,0:0|0:0,0:0:0:0:
128,96,46465,1,0,0:0:0:0:
33,226,46680,6,0,L|52:148,1,80,0|0,0:0|0:0,0:0:0:0:
128,96,47108,2,0,P|192:56|276:36,1,160,8|0,0:0|0:0,0:0:0:0:
356,84,47751,2,0,P|368:124|392:152,1,80,0|8,0:0|0:0,0:0:0:0:
420,168,48108,2,0,P|436:196|436:220,1,53.3333333333333,0|0,0:0|0:0,0:0:0:0:
424,248,48394,6,0,P|348:276|328:348,1,160,0|8,0:0|0:0,0:0:0:0:
232,360,49037,1,0,0:0:0:0:
140,336,49251,2,0,L|68:296,1,80,0|0,0:0|0:0,0:0:0:0:
144,236,49680,2,0,L|216:196,1,80,8|0,0:0|0:0,0:0:0:0:
144,132,50108,6,0,P|104:120|72:92,1,80,0|0,0:0|0:0,0:0:0:0:
160,56,50537,2,0,L|280:36,1,120,8|0,0:0|0:0,0:0:0:0:
312,56,50965,2,0,B|348:76|348:76|388:84,1,80,4|0,0:0|0:0,0:0:0:0:
420,180,51394,2,0,P|368:156|304:152,1,120,8|0,0:0|0:0,0:0:0:0:
272,176,51822,6,0,L|188:176,1,80,0|0,0:0|0:0,0:0:0:0:
96,184,52251,2,0,P|84:244|96:300,1,120,8|0,0:0|0:0,0:0:0:0:
124,328,52680,2,0,P|156:340|204:344,1,80,4|0,0:0|0:0,0:0:0:0:
256,288,53108,2,0,P|304:320|364:336,1,120,8|0,0:0|0:0,0:0:0:0:
396,312,53537,6,0,L|472:172,1,160,0|12,0:0|0:0,0:0:0:0:
332,40,54394,2,0,L|256:180,1,160,0|12,0:0|0:0,0:0:0:0:
132,328,55251,2,2,B|60:276|60:276|60:204,1,160,2|8,0:0|0:0,0:0:0:0:
132,140,55894,1,0,0:0:0:0:
212,192,56108,2,0,L|232:152,2,40,8|0|0,0:0|0:0|0:0,0:0:0:0:
284,256,56537,2,0,L|304:216,2,40,8|0|0,0:0|0:0|0:0,0:0:0:0:
352,324,56965,6,0,P|412:296|448:256,1,120,0|0,0:0|0:0,0:0:0:0:
468,212,57394,2,0,P|488:156|480:96,1,120,8|0,0:0|0:0,0:0:0:0:
456,56,57822,2,0,P|376:48|296:24,2,160,0|8|0,0:0|0:0|0:0,0:0:0:0:
416,144,58894,5,0,0:0:0:0:
324,176,59108,2,0,P|256:176|212:152,1,120,8|0,0:0|0:0,0:0:0:0:
172,108,59537,2,0,L|236:56,1,80,0|0,0:0|0:0,0:0:0:0:
124,40,59965,2,0,L|60:92,1,80,12|0,0:0|0:0,0:0:0:0:
112,192,60394,5,0,0:0:0:0:
112,192,60822,2,0,P|88:256|112:304,1,120,8|0,0:0|0:0,0:0:0:0:
140,324,61251,2,0,L|220:304,1,80,0|0,0:0|0:0,0:0:0:0:
296,248,61680,2,0,L|400:312,1,120,12|0,0:0|0:0,0:0:0:0:
440,336,62108,6,0,P|480:296|476:248,1,106.666666666667,0|0,0:0|0:0,0:0:0:0:
444,208,62537,2,0,L|460:100,1,106.666666666667,8|0,0:0|0:0,0:0:0:0:
492,60,62965,1,0,0:0:0:0:
368,28,63251,1,0,0:0:0:0:
368,28,63394,2,0,P|316:40|264:36,1,106.666666666667,12|0,0:0|0:0,0:0:0:0:
256,192,63822,12,0,65965,0:0:0:0:
256,288,66394,6,0,L|216:336,2,53.3333333333333,0|0|0,0:0|0:0|0:0,0:0:0:0:
204,276,66822,2,0,L|152:284,2,53.3333333333333,8|0|0,0:0|0:0|0:0,0:0:0:0:
160,244,67251,6,0,P|104:176|120:112,2,160,4|8|0,0:0|0:0|0:0,0:0:0:0:
208,160,68322,1,0,0:0:0:0:
208,160,68537,2,0,P|256:128|316:120,1,120,8|0,0:0|0:0,0:0:0:0:
364,128,68965,6,0,P|424:180|444:260,2,160,0|8|0,0:0|0:0|0:0,0:0:0:0:
300,56,70037,1,0,0:0:0:0:
300,56,70251,2,0,P|232:56|180:40,1,120,8|0,0:0|0:0,0:0:0:0:
136,36,70680,6,0,B|64:72|64:72|40:148,2,160,0|8|0,0:0|0:0|0:0,0:0:0:0:
176,124,71751,1,0,0:0:0:0:
176,220,71965,2,0,P|156:276|116:324,1,120,8|0,0:0|0:0,0:0:0:0:
148,360,72394,6,0,P|224:328|290:360,1,160,0|8,0:0|0:0,0:0:0:0:
290,263,73037,1,0,0:0:0:0:
290,360,73251,2,0,P|360:328|431:360,2,160,0|8|4,0:0|0:0|0:0,0:0:0:0:
384,192,74537,6,0,P|344:128|272:88,1,160,8|0,0:0|0:0,0:0:0:0:
176,76,75180,1,0,0:0:0:0:
93,126,75394,1,8,0:0:0:0:
44,210,75608,1,0,0:0:0:0:
41,306,75822,6,0,P|84:328|120:328,1,80,4|0,0:0|0:0,0:0:0:0:
152,320,76144,1,0,0:0:0:0:
188,308,76251,2,0,L|152:224,2,80,8|0|0,0:0|0:0|0:0,0:0:0:0:
256,376,76894,1,0,0:0:0:0:
312,300,77108,1,8,0:0:0:0:
404,268,77322,1,0,0:0:0:0:
496,296,77537,6,0,L|468:128,1,160,4|8,0:0|0:0,0:0:0:0:
504,48,78180,1,0,0:0:0:0:
412,20,78394,2,0,P|332:32|248:32,1,160,0|8,0:0|0:0,0:0:0:0:
156,20,79037,1,0,0:0:0:0:
84,84,79251,6,0,P|68:160|12:216,2,160,4|8|4,0:0|0:0|0:0,0:0:0:0:
160,144,80322,1,0,0:0:0:0:
160,144,80537,2,0,P|188:196|168:256,1,120,8|0,0:0|0:0,0:0:0:0:
140,276,80965,5,4,0:0:0:0:
200,352,81180,1,0,0:0:0:0:
284,308,81394,2,0,L|404:300,1,120,8|0,0:0|0:0,0:0:0:0:
436,324,81822,1,0,0:0:0:0:
480,240,82037,1,0,0:0:0:0:
480,240,82251,2,0,P|452:184|456:128,1,120,8|0,0:0|0:0,0:0:0:0:
480,96,82680,5,0,0:0:0:0:
412,28,82894,1,0,0:0:0:0:
348,100,83108,2,0,P|292:112|228:108,1,120,8|0,0:0|0:0,0:0:0:0:
196,88,83537,1,0,0:0:0:0:
224,180,83751,1,0,0:0:0:0:
320,196,83965,2,0,P|296:248|244:284,1,120,8|0,0:0|0:0,0:0:0:0:
204,288,84394,5,0,0:0:0:0:
256,368,84608,1,0,0:0:0:0:
204,288,84822,2,0,P|144:288|88:256,1,120,8|0,0:0|0:0,0:0:0:0:
68,228,85251,2,0,L|68:144,1,80,0|0,0:0|0:0,0:0:0:0:
36,56,85680,2,0,L|80:48,1,40,8|0,0:0|0:0,0:0:0:0:
164,88,86001,2,0,L|203:95,1,40,0|0,0:0|0:0,0:0:0:0:
264,172,86322,5,0,0:0:0:0:
264,172,86537,2,0,P|328:176|384:160,1,120,8|0,0:0|0:0,0:0:0:0:
416,144,86965,1,0,0:0:0:0:
468,232,87180,1,0,0:0:0:0:
420,332,87394,2,0,P|364:344|296:340,1,120,8|0,0:0|0:0,0:0:0:0:
272,316,87822,6,0,P|252:284|192:252,1,106.666666666667,4|0,0:0|0:0,0:0:0:0:
140,244,88251,2,0,L|104:284,2,53.3333333333333,8|0|0,0:0|0:0|0:0,0:0:0:0:
112,200,88680,2,0,P|108:140|24:104,1,160,4|8,0:0|0:0,0:0:0:0:
208,32,89537,6,0,P|244:72|296:80,1,106.666666666667,4|0,0:0|0:0,0:0:0:0:
348,76,89965,2,0,L|372:24,2,53.3333333333333,8|0|0,0:0|0:0|0:0,0:0:0:0:
388,112,90394,2,0,B|424:180|424:180|388:256,1,160,4|8,0:0|0:0,0:0:0:0:
216,324,91251,6,0,L|192:372,2,53.3333333333333,4|0|0,0:0|0:0|0:0,0:0:0:0:
176,318,91680,2,0,L|124:352,2,53.3333333333333,8|0|0,0:0|0:0|0:0,0:0:0:0:
141,300,92108,2,0,L|88:304,2,53.3333333333333,4|0|0,0:0|0:0|0:0,0:0:0:0:
114,270,92537,2,0,L|64:252,2,53.3333333333333,8|0|0,0:0|0:0|0:0,0:0:0:0:
100,233,92965,6,0,P|128:152|188:112,2,160,4|8|0,0:0|0:0|0:0,0:0:0:0:
196,248,94037,1,0,0:0:0:0:
288,220,94251,2,0,P|324:200|364:200,1,80,8|0,0:0|0:0,0:0:0:0:
440,260,94680,2,0,P|404:280|364:280,1,80,8|0,0:0|0:0,0:0:0:0:
362,199,95108,2,0,P|388:168|400:132,1,80,8|0,0:0|0:0,0:0:0:0:
396,96,95430,1,0,0:0:0:0:
384,60,95537,1,4,0:0:0:0:
256,192,95644,12,4,98965,0:0:0:0:
400,104,102394,5,4,0:0:0:0:
400,104,102822,2,0,P|384:156|340:204,1,120,8|0,0:0|0:0,0:0:0:0:
320,216,103251,2,0,P|320:252|344:288,1,80,0|0,0:0|0:0,0:0:0:0:
264,340,103679,2,0,P|264:304|240:268,1,80,8|0,0:0|0:0,0:0:0:0:
180,192,104108,6,0,B|164:272|164:272|104:324,1,160,0|8,0:0|0:0,0:0:0:0:
56,240,104751,1,0,0:0:0:0:
76,148,104965,2,0,B|76:108|76:108|52:76,2,80,0|0|8,0:0|0:0|0:0,0:0:0:0:
164,108,105608,1,0,0:0:0:0:
116,24,105822,5,4,0:0:0:0:
116,24,106251,2,0,L|276:16,1,160,8|0,0:0|0:0,0:0:0:0:
368,48,106894,1,0,0:0:0:0:
456,88,107108,2,0,L|492:40,2,53.3333333333333,8|0|0,0:0|0:0|0:0,0:0:0:0:
436,112,107537,6,0,L|452:272,1,160,0|8,0:0|0:0,0:0:0:0:
504,352,108179,1,0,0:0:0:0:
408,356,108394,2,0,P|368:352|336:328,1,80,0|0,0:0|0:0,0:0:0:0:
272,260,108822,2,0,P|268:300|244:332,1,80,8|0,0:0|0:0,0:0:0:0:
152,356,109251,6,0,L|72:364,1,80,4|0,0:0|0:0,0:0:0:0:
32,276,109679,2,0,P|84:240|124:196,1,120,8|0,0:0|0:0,0:0:0:0:
132,176,110108,2,0,P|88:176|48:160,2,80,0|0|8,0:0|0:0|0:0,0:0:0:0:
212,120,110751,1,0,0:0:0:0:
232,108,110858,1,0,0:0:0:0:
252,96,110965,6,0,B|292:92|292:92|336:96,1,80,0|0,0:0|0:0,0:0:0:0:
388,16,111394,2,0,B|443:50|443:50|444:112,1,120,8|0,0:0|0:0,0:0:0:0:
440,128,111822,2,0,P|452:168|480:192,2,80,0|0|8,0:0|0:0|0:0,0:0:0:0:
352,164,112465,2,0,L|312:184,1,40,0|0,0:0|0:0,0:0:0:0:
295,193,112679,6,0,P|271:225|259:265,1,80,0|0,0:0|0:0,0:0:0:0:
288,356,113108,2,0,P|336:320|396:320,1,120,8|0,0:0|0:0,0:0:0:0:
436,344,113537,2,0,L|484:276,1,80,0|0,0:0|0:0,0:0:0:0:
424,200,113965,2,0,L|380:88,1,120,8|0,0:0|0:0,0:0:0:0:
364,44,114394,6,2,P|320:36|288:20,1,80,0|0,0:0|0:0,0:0:0:0:
260,112,114822,2,0,P|225:83|206:53,1,80,8|0,0:0|0:0,0:0:0:0:
112,36,115251,2,0,L|64:24,2,40,8|0|0,0:0|0:0|0:0,0:0:0:0:
56,112,115679,2,0,L|16:140,2,40,8|0|0,0:0|0:0|0:0,0:0:0:0:
152,124,116108,5,4,0:0:0:0:
152,124,116537,2,0,P|136:184|104:236,1,120,8|0,0:0|0:0,0:0:0:0:
88,248,116965,1,0,0:0:0:0:
164,308,117179,1,0,0:0:0:0:
256,332,117394,1,8,0:0:0:0:
348,308,117608,1,0,0:0:0:0:
424,248,117822,6,0,P|464:172|476:96,2,160,0|8|0,0:0|0:0|0:0,0:0:0:0:
348,192,118894,1,0,0:0:0:0:
260,232,119108,2,0,P|228:256|188:264,1,80,8|0,0:0|0:0,0:0:0:0:
96,240,119537,5,4,0:0:0:0:
96,240,119965,2,0,L|72:160,1,80,8|0,0:0|0:0,0:0:0:0:
132,68,120394,2,0,L|156:148,1,80,0|0,0:0|0:0,0:0:0:0:
236,192,120822,2,0,L|212:240,2,53.3333333333333,8|0|0,0:0|0:0|0:0,0:0:0:0:
228,160,121251,6,0,B|272:96|356:68,1,160,0|8,0:0|0:0,0:0:0:0:
444,108,121894,1,0,0:0:0:0:
436,204,122108,2,0,P|472:224|496:256,1,80,0|0,0:0|0:0,0:0:0:0:
344,204,122537,2,0,P|308:224|284:256,1,80,8|0,0:0|0:0,0:0:0:0:
264,348,122965,6,0,P|224:360|184:356,1,80,0|0,0:0|0:0,0:0:0:0:
96,324,123394,2,0,L|128:208,1,120,8|0,0:0|0:0,0:0:0:0:
140,168,123822,2,0,P|108:144|72:128,1,80,4|0,0:0|0:0,0:0:0:0:
160,84,124251,2,0,P|208:124|264:132,1,120,8|0,0:0|0:0,0:0:0:0:
296,112,124679,6,0,L|296:32,1,80,0|0,0:0|0:0,0:0:0:0:
376,32,125108,2,0,L|376:168,1,120,8|0,0:0|0:0,0:0:0:0:
376,192,125537,2,0,P|384:228|412:264,1,80,4|0,0:0|0:0,0:0:0:0:
408,340,125965,2,0,L|360:360,3,40,8|0|0|0,0:0|0:0|0:0|0:0,0:0:0:0:
332,364,126394,6,0,P|248:368|168:340,1,160,0|4,0:0|0:0,0:0:0:0:
180,20,127251,2,0,P|264:16|344:44,1,160,0|4,0:0|0:0,0:0:0:0:
496,144,128108,2,0,B|444:200|444:200|360:200,1,160,0|8,0:0|0:0,0:0:0:0:
264,200,128751,1,0,0:0:0:0:
168,200,128965,2,0,L|116:200,2,40,8|0|0,0:0|0:0|0:0,0:0:0:0:
215,283,129394,2,0,L|215:323,2,40,8|0|0,0:0|0:0|0:0,0:0:0:0:
264,200,129822,6,0,P|296:248|348:284,1,120,0|0,0:0|0:0,0:0:0:0:
388,284,130251,2,0,P|437:250|470:200,1,120,8|0,0:0|0:0,0:0:0:0:
472,160,130679,2,0,P|432:92|356:56,2,160,0|12|0,0:0|0:0|0:0,0:0:0:0:
376,148,131751,5,0,0:0:0:0:
284,128,131965,2,0,P|216:136|168:152,1,120,8|0,0:0|0:0,0:0:0:0:
128,164,132394,2,0,P|100:136|64:112,2,80,0|0|12,0:0|0:0|0:0,0:0:0:0:
160,256,133037,1,0,0:0:0:0:
116,340,133251,6,0,P|168:364|236:368,1,120,0|0,0:0|0:0,0:0:0:0:
256,336,133679,2,0,P|296:300|360:284,1,120,8|0,0:0|0:0,0:0:0:0:
396,296,134108,2,0,B|444:240|444:240|444:152,1,160,0|12,0:0|0:0,0:0:0:0:
296,90,134965,6,0,B|252:118|252:118|196:126,1,106.666666666667,0|0,0:0|0:0,0:0:0:0:
144,130,135394,2,0,B|90:137|90:137|46:165,1,106.666666666667,8|0,0:0|0:0,0:0:0:0:
44,218,135822,2,0,B|88:246|88:246|142:254,1,106.666666666667,0|0,0:0|0:0,0:0:0:0:
197,256,136251,2,0,B|250:263|250:263|294:291,1,106.666666666667,12|0,0:0|0:0,0:0:0:0:
256,192,136679,12,0,138822,0:0:0:0:
256,96,139251,6,0,L|216:48,2,53.3333333333333,0|0|0,0:0|0:0|0:0,0:0:0:0:
204,108,139679,2,0,L|152:100,2,53.3333333333333,8|0|0,0:0|0:0|0:0,0:0:0:0:
160,140,140108,6,0,P|132:208|144:292,2,160,4|8|0,0:0|0:0|0:0,0:0:0:0:
240,192,141179,1,0,0:0:0:0:
240,192,141394,2,0,P|228:248|264:296,1,120,8|0,0:0|0:0,0:0:0:0:
304,300,141822,6,0,P|380:288|460:316,2,160,0|8|0,0:0|0:0|0:0,0:0:0:0:
216,340,142894,1,0,0:0:0:0:
120,328,143108,2,0,P|68:300|40:248,1,120,8|0,0:0|0:0,0:0:0:0:
64,216,143537,6,0,L|20:60,2,160,0|8|0,0:0|0:0|0:0,0:0:0:0:
156,192,144608,2,0,L|132:112,2,80,0|8|0,0:0|0:0|0:0,0:0:0:0:
252,192,145251,6,0,L|208:348,2,160,0|8|0,0:0|0:0|0:0,0:0:0:0:
344,216,146322,2,0,L|320:296,2,80,0|8|0,0:0|0:0|0:0,0:0:0:0:
368,124,146965,6,0,P|448:124|496:184,1,160,4|8,0:0|0:0,0:0:0:0:
432,256,147608,2,0,P|464:280|480:320,2,80,0|0|0,0:0|0:0|0:0,0:0:0:0:
396,328,148251,2,0,B|360:344|360:344|312:344,1,80,8|0,0:0|0:0,0:0:0:0:
240,344,148679,6,0,P|196:336|160:316,1,80,4|0,0:0|0:0,0:0:0:0:
132,300,149001,1,0,0:0:0:0:
100,276,149108,2,0,P|80:240|76:200,1,80,8|0,0:0|0:0,0:0:0:0:
104,128,149537,2,0,P|92:92|60:64,1,80,0|0,0:0|0:0,0:0:0:0:
224,63,149965,2,0,P|194:89|181:127,1,80,8|0,0:0|0:3,0:0:0:0:
228,192,150394,6,0,L|252:244,2,53.3333333333333,4|0|0,0:0|0:0|0:0,0:0:0:0:
280,204,150822,2,0,L|328:232,2,53.3333333333333,8|0|0,0:0|0:0|0:0,0:0:0:0:
332,188,151251,2,0,L|388:196,2,53.3333333333333,0|0|0,0:0|0:0|0:0,0:0:0:0:
360,144,151679,2,0,L|420:128,2,53.3333333333333,8|0|0,0:0|0:0|0:0,0:0:0:0:
360,92,152108,6,0,P|300:48|216:28,2,160,4|8|0,0:0|0:0|0:0,0:0:0:0:
456,120,153179,1,0,0:0:0:0:
456,120,153394,2,0,L|472:240,1,120,8|0,0:0|0:0,0:0:0:0:
500,268,153822,6,0,P|444:332|372:344,2,160,4|8|0,0:0|0:0|0:0,0:0:0:0:
404,252,154894,1,0,0:0:0:0:
320,204,155108,2,0,B|264:204|264:204|200:220,1,120,8|0,0:0|0:0,0:0:0:0:
160,220,155537,6,0,P|88:172|56:104,2,160,0|8|0,0:0|0:0|0:0,0:0:0:0:
188,144,156608,1,0,0:0:0:0:
240,84,156822,2,0,P|272:60|360:44,1,120,8|0,0:0|0:0,0:0:0:0:
388,48,157251,6,0,P|448:96|460:176,2,160,0|8|0,0:0|0:0|0:0,0:0:0:0:
364,140,158322,1,0,0:0:0:0:
296,208,158537,2,0,L|248:224,1,40,8|0,0:0|0:0,0:0:0:0:
172,176,158858,2,0,L|134:188,1,40,0|0,0:0|0:0,0:0:0:0:
52,236,159179,5,0,0:0:0:0:
52,236,159394,2,0,P|72:292|124:328,1,120,8|0,0:0|0:0,0:0:0:0:
168,324,159822,2,0,L|248:336,1,80,0|0,0:0|0:0,0:0:0:0:
344,332,160251,2,0,P|376:280|432:264,1,120,8|0,0:0|0:0,0:0:0:0:
476,276,160679,6,0,L|476:164,1,106.666666666667,4|0,0:0|0:0,0:0:0:0:
484,116,161108,2,0,L|508:64,2,53.3333333333333,8|0|0,0:0|0:0|0:0,0:0:0:0:
436,140,161537,2,0,P|380:156|292:112,1,160,4|8,0:0|0:0,0:0:0:0:
152,36,162394,6,0,L|72:108,1,106.666666666667,4|0,0:0|0:0,0:0:0:0:
64,160,162822,2,0,L|8:160,2,53.3333333333333,8|0|0,0:0|0:0|0:0,0:0:0:0:
64,212,163251,2,0,B|108:272|108:272|184:316,1,160,4|8,0:0|0:0,0:0:0:0:
376,304,164108,6,0,P|396:324|420:332,2,53.3333333333333,4|0|0,0:0|0:0|0:0,0:0:0:0:
364,252,164537,2,0,P|344:232|320:224,2,53.3333333333333,8|0|0,0:0|0:0|0:0,0:0:0:0:
416,240,164965,2,0,P|436:260|460:268,2,53.3333333333333,4|0|0,0:0|0:0|0:0,0:0:0:0:
404,188,165394,2,0,P|384:168|360:160,2,53.3333333333333,8|0|0,0:0|0:0|0:0,0:0:0:0:
456,180,165822,6,0,P|488:104|480:28,2,160,4|8|4,0:0|0:0|0:0,0:0:0:0:
256,148,167108,6,0,L|256:68,1,80,8|0,0:0|0:0,0:0:0:0:
214,219,167537,2,0,L|144:259,1,80,0|0,0:0|0:0,0:0:0:0:
297,219,167965,2,0,L|366:259,1,80,8|0,0:0|0:0,0:0:0:0:
256,192,168394,12,4,175251,0:0:0:0:
256,148,189822,5,0,0:0:0:0:
340,192,190036,1,0,0:0:0:0:
256,236,190251,1,8,0:0:0:0:
172,192,190465,2,0,L|120:192,2,40,0|0|4,0:0|0:0|0:0,0:0:0:0:
256,148,190894,5,0,0:0:0:0:
308,68,191108,2,0,P|392:60|444:116,1,160,8|0,0:0|0:0,0:0:0:0:
492,192,191751,1,0,0:0:0:0:
442,275,191965,2,0,P|398:311|338:335,1,120,8|0,0:0|0:0,0:0:0:0:
304,312,192394,6,0,P|228:324|148:304,2,160,0|8|0,0:0|0:0|0:0,0:0:0:0:
356,232,193465,1,0,0:0:0:0:
356,232,193679,2,0,P|400:188|456:168,1,120,8|0,0:0|0:0,0:0:0:0:
500,156,194108,6,0,B|444:88|444:88|380:56,2,160,0|8|0,0:0|0:0|0:0,0:0:0:0:
460,244,195179,1,0,0:0:0:0:
396,316,195394,2,0,P|360:336|320:340,1,80,8|0,0:0|0:0,0:0:0:0:
228,316,195822,6,0,P|152:292|72:288,1,160,0|8,0:0|0:0,0:0:0:0:
8,216,196465,1,0,0:0:0:0:
100,184,196679,2,0,P|176:208|256:212,1,160,0|8,0:0|0:0,0:0:0:0:
352,192,197322,1,0,0:0:0:0:
444,164,197536,6,0,P|460:124|392:44,2,160,4|8|0,0:0|0:0|0:0,0:0:0:0:
352,192,198608,1,0,0:0:0:0:
268,144,198822,1,8,0:0:0:0:
280,48,199036,1,0,0:0:0:0:
191,86,199251,6,0,P|120:84|76:156,1,160,4|8,0:0|0:0,0:0:0:0:
172,172,199894,1,0,0:0:0:0:
99,239,200108,2,0,L|43:303,1,80,0|0,0:0|0:0,0:0:0:0:
225,233,200536,2,0,L|172:172,1,80,8|0,0:0|0:0,0:0:0:0:
248,359,200965,6,0,L|408:347,1,160,4|8,0:0|0:0,0:0:0:0:
508,192,201822,1,0,0:0:0:0:
440,124,202036,1,0,0:0:0:0:
352,84,202251,1,8,0:0:0:0:
256,88,202465,1,0,0:0:0:0:
164,116,202679,6,0,P|120:116|72:96,2,80,4|0|8,0:0|0:0|0:0,0:0:0:0:
236,180,203322,1,0,0:0:0:0:
180,256,203536,2,0,P|140:268|112:292,1,80,0|0,0:0|0:0,0:0:0:0:
212,344,203965,2,0,P|250:333|280:307,1,80,8|0,0:0|0:0,0:0:0:0:
332,208,204394,6,0,P|392:252|476:236,2,160,4|8|0,0:0|0:0|0:0,0:0:0:0:
416,160,205465,1,0,0:0:0:0:
416,160,205679,2,0,P|360:100|288:72,2,160,8|0|8,0:0|0:0|0:0,0:0:0:0:
428,256,206751,1,0,0:0:0:0:
364,328,206965,2,0,P|332:352|292:360,1,80,0|0,0:0|0:0,0:0:0:0:
220,296,207394,2,0,P|251:272|290:263,2,80,8|0|0,0:0|0:0|0:0,0:0:0:0:
140,352,208036,5,0,0:0:0:0:
56,304,208251,2,0,P|32:240|32:188,1,120,8|0,0:0|0:0,0:0:0:0:
56,160,208679,2,0,P|96:148|124:120,1,80,0|0,0:0|0:0,0:0:0:0:
92,20,209108,2,0,L|48:20,1,40,8|0,0:0|0:0,0:0:0:0:
192,56,209429,1,0,0:0:0:0:
192,56,209536,6,0,L|272:56,1,80,0|0,0:0|0:0,0:0:0:0:
392,56,209965,2,0,L|432:56,2,40,8|0|0,0:0|0:0|0:0,0:0:0:0:
292,124,210394,2,0,L|240:124,2,40,0|0|0,0:0|0:0|0:0,0:0:0:0:
392,192,210822,2,0,L|444:192,2,40,8|0|0,0:0|0:0|0:0,0:0:0:0:
292,260,211251,6,0,B|252:292|252:292|192:292,1,106.666666666667,4|0,0:0|0:0,0:0:0:0:
144,300,211679,2,0,L|112:344,2,53.3333333333333,8|0|0,0:0|0:0|0:0,0:0:0:0:
108,260,212108,2,0,P|72:212|68:164,1,106.666666666667,4|0,0:0|0:0,0:0:0:0:
104,128,212536,1,8,0:0:0:0:
156,116,212679,1,0,0:0:0:0:
204,140,212822,1,0,0:0:0:0:
248,168,212965,6,0,P|300:176|356:168,1,106.666666666667,4|0,0:0|0:0,0:0:0:0:
388,128,213394,2,0,L|380:76,2,53.3333333333333,8|0|0,0:0|0:0|0:0,0:0:0:0:
436,152,213822,1,4,0:0:0:0:
256,192,213929,12,4,216394,0:0:0:0:
111,171,217251,6,0,P|144:65|256:72,1,240.000009155274,4|0,0:0|0:0,0:0:0:0:
400,212,218965,6,0,P|367:318|256:312,1,240.000009155274,0|4,0:0|0:0,0:0:0:0:
72,184,220251,6,0,P|121:152|179:160,1,120,8|0,0:0|0:0,0:0:0:0:
220,184,220679,2,0,P|256:192|304:192,1,80,0|0,0:0|0:0,0:0:0:0:
368,124,221108,2,0,P|404:168|464:192,1,120,8|0,0:0|0:0,0:0:0:0:
461,191,221536,6,0,P|455:231|431:263,1,80,0|0,0:0|0:0,0:0:0:0:
352,312,221965,2,0,B|304:332|304:332|272:316|236:324,1,120,8|0,0:0|0:0,0:0:0:0:
192,336,222394,1,0,0:0:0:0:
104,296,222608,1,0,0:0:0:0:
52,216,222822,2,0,L|32:92,1,120,8|0,0:0|0:0,0:0:0:0:
80,88,223251,6,0,L|160:80,1,80,0|0,0:0|0:0,0:0:0:0:
248,116,223679,2,0,B|304:136|304:136|368:140,1,120,8|0,0:0|0:0,0:0:0:0:
412,144,224108,2,0,P|424:180|460:204,1,80,0|0,0:0|0:0,0:0:0:0:
440,344,224536,2,0,P|416:292|360:264,1,120,8|0,0:0|0:0,0:0:0:0:
316,272,224965,5,0,0:0:0:0:
228,312,225179,1,0,0:0:0:0:
136,288,225394,2,0,P|88:256|28:248,1,120,8|0,0:0|0:0,0:0:0:0:
27,248,225822,2,0,L|64:176,1,80,0|0,0:0|0:0,0:0:0:0:
100,88,226251,2,0,L|124:40,1,40,8|0,0:0|0:0,0:0:0:0:
227,27,226572,1,0,0:0:0:0:
227,27,226679,6,0,P|280:48|332:52,1,106.666666666667,4|0,0:0|0:0,0:0:0:0:
380,36,227108,2,0,L|372:88,2,53.3333333333333,8|0|0,0:0|0:0|0:0,0:0:0:0:
428,56,227536,2,0,P|456:116|400:184,1,160,4|8,0:0|0:0,0:0:0:0:
244,168,228394,6,0,P|208:132|152:128,1,106.666666666667,4|0,0:0|0:0,0:0:0:0:
104,148,228822,2,0,L|48:140,2,53.3333333333333,8|0|0,0:0|0:0|0:0,0:0:0:0:
124,196,229251,2,0,B|96:272|96:272|24:324,1,160,4|8,0:0|0:0,0:0:0:0:
192,312,230108,6,0,L|248:312,2,53.3333333333333,4|0|0,0:0|0:0|0:0,0:0:0:0:
224,268,230536,2,0,L|280:268,2,53.3333333333333,8|0|0,0:0|0:0|0:0,0:0:0:0:
256,224,230965,2,0,L|312:224,2,53.3333333333333,4|0|0,0:0|0:0|0:0,0:0:0:0:
288,180,231394,2,0,L|344:180,2,53.3333333333333,8|0|0,0:0|0:0|0:0,0:0:0:0:
256,136,231822,6,0,P|176:100|140:40,2,160,4|8|4,0:0|0:0|0:0,0:0:0:0:
404,192,233108,2,0,L|388:232,3,40,8|0|0|0,0:0|0:0|0:0|0:0,0:0:0:0:
368,264,233536,6,0,P|328:312|240:296,1,160,4|8,0:0|0:0,0:0:0:0:
368,120,234394,2,0,P|328:72|240:88,1,160,4|8,0:0|0:0,0:0:0:0:
120,192,235251,6,0,P|96:180|68:176,2,53.3333333333333,4|0|0,0:0|0:0|0:0,0:0:0:0:
156,232,235679,1,8,0:0:0:0:
192,270,235821,1,0,0:0:0:0:
239,294,235964,1,0,0:0:0:0:
292,300,236108,2,0,P|368:296|452:312,2,160,4|8|0,0:0|0:0|0:0,0:0:0:0:
204,260,237179,5,0,0:0:0:0:
256,180,237394,2,0,L|256:60,1,120,8|0,0:0|0:0,0:0:0:0:
256,20,237822,1,4,0:0:0:0:
256,192,237929,12,2,243064,2:0:0:0:
96,48,244729,6,0,P|116:116|188:164,1,160,2|2,0:0|0:0,0:0:0:0:
360,80,246443,2,0,P|388:48|420:24,2,80,2|0|2,0:0|0:0|0:0,0:0:0:0:
332,172,247729,1,0,0:0:0:0:
356,264,248157,6,0,P|392:328|468:364,1,160,2|2,0:0|0:0,0:0:0:0:
156,264,249871,2,0,P|115:331|44:363,1,160,2|2,0:0|0:0,0:0:0:0:
96,212,251157,2,0,P|128:192|172:188,1,80,0|4,0:0|0:0,0:0:0:0:
