osu file format v5

[General]
AudioFilename: 19 - Boukoku Kakusei Catharsis [TV Ver.].mp3
AudioLeadIn: 1000
PreviewTime: 67037
Countdown: 1
SampleSet: Normal
StackLeniency: 0.7
Mode: 0
LetterboxInBreaks: 1

[Editor]
Bookmarks: 11189,47422,67037,88268,89652
DistanceSpacing: 0.699999988079071
BeatDivisor: 4
GridSize: 8

[Metadata]
Title:Boukoku Kakusei Catharsis (TV Size)
Artist:ALI PROJECT
Creator:Armin
Version:Relax Mode
Source:
Tags:hack//root Armin Ed Ending

[Difficulty]
HPDrainRate:2
CircleSize:4
OverallDifficulty:3
SliderMultiplier:1.7
SliderTickRate:1

[Events]
//Background and Video events
0,0,"sfondo2.jpg"
Video,-100,"endingc1.avi"
//Break Periods
2,20389,21518
//Storyboard Layer 0 (Background)
//Storyboard Layer 1 (Fail)
//Storyboard Layer 2 (Pass)
//Storyboard Layer 3 (Foreground)
//Storyboard Sound Samples
//Background Colour Transformations
3,100,163,162,255

[TimingPoints]
4266,461.538461538462,4,1,0,70,1,0
20073,-100,4,2,0,0,0,0
20304,-100,4,1,0,70,0,0

[Colours]
Combo1 : 128,128,255
Combo2 : 128,0,0
Combo3 : 0,0,160
Combo4 : 0,128,192

[HitObjects]
40,136,4266,5,8
168,136,4727,1,2
104,256,5189,1,0
168,256,5419,1,8
232,256,5650,1,0
288,136,6112,1,0
416,136,6573,1,0
352,256,7035,1,0
416,256,7265,1,2
480,256,7496,2,0,L|488:312|456:328,2,85,0|0|8
480,120,8419,5,0
376,32,8881,1,0
312,48,9112,1,8
248,64,9342,1,0
248,200,9804,1,8
248,336,10266,1,0
184,320,10497,1,0
120,304,10727,1,2
40,40,11650,5,8
128,144,12112,1,0
216,40,12573,1,2
280,40,12804,1,0
344,40,13035,1,0
280,160,13496,5,0
344,160,13727,1,0
408,160,13958,1,0
472,160,14189,1,8
472,216,14419,2,0,B|472:312|472:312|384:312,2,170,0|2|0
472,88,15804,2,0,B|296:88,1,170,0|8
328,224,16727,1,0
184,224,17189,1,2
256,96,17650,2,0,B|224:48|144:48|104:96,1,170,2|8
256,192,18227,12,4,20189
480,272,22958,6,0,B|472:136|416:96,1,170
344,32,23881,2,0,B|336:168|280:208,1,170
208,272,24804,2,0,B|200:136|144:96,1,170,0|2
72,32,25727,2,0,B|64:168|8:208,1,170,0|2
32,312,26650,6,0,B|152:312,2,85
120,232,27573,2,0,B|224:232|232:232,2,85
40,136,28496,1,0
96,120,28727,1,0
152,104,28958,1,8
264,152,29419,1,8
320,136,29650,1,0
376,120,29881,1,2
456,208,30342,6,0,B|456:288|368:336|312:272|304:280,1,170
216,288,31266,2,0,B|144:288|144:208,3,85,0|8|0|8
256,104,32650,5,0
256,160,32881,1,2
432,160,33573,1,8
432,112,33804,1,0
384,288,34496,1,2
320,288,34727,1,0
144,288,35419,1,8
80,288,35650,2,0,B|48:240|48:120|80:72|112:32,1,255,0|0
216,40,36804,1,2
280,40,37035,1,0
456,40,37727,6,0,B|448:176|392:216,1,170
328,280,38650,2,0,B|320:144|264:104,1,170
192,40,39573,2,0,B|184:176|128:216,1,170,2|0
56,280,40496,2,0,B|48:144|-8:104,1,170,2|0
120,144,41419,5,8
160,88,41650,1,0
200,144,41881,1,0
320,144,42342,1,0
360,88,42573,1,0
400,144,42804,1,8
400,264,43266,1,0
360,320,43497,1,0
320,264,43728,1,2
200,264,44189,1,8
160,320,44420,1,0
120,264,44651,1,2
40,176,45112,5,0
96,176,45342,2,0,B|88:160|120:96|176:136,1,85
264,120,46035,1,0
320,120,46266,2,0,B|312:136|344:200|400:160,2,85,2|0|0
480,192,47419,5,0
480,128,47650,1,10
312,192,48342,1,0
312,248,48573,1,0
256,80,49266,6,0,B|192:80,2,42.5
432,80,50189,2,0,B|480:80|496:80,2,42.5,0|0|0
256,192,50535,12,0,52266
200,88,52727,5,0
256,128,52958,1,0
312,88,53189,1,8
480,192,53881,5,0
480,256,54112,1,0
416,224,54342,2,0,B|365:212|352:160,3,85
112,48,55958,5,8
168,168,56419,1,0
208,224,56650,1,8
248,168,56881,1,0
440,96,57573,5,0
440,32,57804,1,0
376,64,58035,2,0,B|325:76|312:128,3,85,0|0|8|8
208,32,59189,5,0
136,32,59419,1,0
64,32,59650,2,0,B|16:56|16:152|80:152|128:112|168:112|192:160|168:232|176:256|112:272,1,340,2|0
128,336,60804,5,8
192,336,61035,1,0
256,336,61266,1,8
320,336,61496,2,0,B|392:328|464:320|456:208|336:208|328:152|456:112,1,340,2|0
448,48,62650,5,8
384,48,62881,1,8
320,48,63112,1,0
256,48,63342,2,8,B|200:48|208:112|232:160|224:200|128:200|96:168,1,255,2|8
64,128,64266,1,4
256,192,64381,12,0,66573
256,48,67035,5,8
256,168,67496,1,2
256,288,67958,1,0
312,288,68188,1,8
368,288,68419,1,2
376,168,68881,1,0
256,168,69342,1,0
136,168,69804,1,0
72,168,70034,1,2
104,216,70265,2,0,L|112:272|80:288,2,85,2|0|8
104,96,71188,5,0
224,96,71650,1,0
280,96,71881,1,8
253,149,72111,1,0
376,152,72573,1,8
376,272,73035,1,0
432,272,73266,1,8
405,325,73496,1,0
168,320,74419,5,8
48,320,74881,1,2
104,216,75342,1,2
128,160,75573,1,8
152,104,75804,1,0
256,40,76265,5,0
296,152,76727,1,0
344,264,77189,2,0,B|400:336|400:336|464:288,2,170,8|2|0
224,264,78573,2,0,B|168:336|168:336|104:288,2,170,8|0|0
280,160,79958,2,0,B|352:104|352:104|304:40,2,170,2|2|8
432,344,81804,5,0
480,232,82266,1,0
432,120,82727,1,0
384,232,83189,1,0
344,120,83650,1,0
256,192,83881,12,8,85496
256,56,85958,5,8
256,176,86419,1,8
256,296,86881,1,8
144,240,87342,1,2
256,192,87573,12,4,88727
