osu file format v12

[General]
AudioFilename: -HiMEOP HD.mp3
AudioLeadIn: 0
PreviewTime: 103231
Countdown: 0
SampleSet: Normal
StackLeniency: 0.7
Mode: 0
LetterboxInBreaks: 0

[Editor]
DistanceSpacing: 1
BeatDivisor: 6
GridSize: 4

[Metadata]
Title:Ashura Hime
TitleUnicode:阿修羅姫
Artist:ALI PROJECT
ArtistUnicode:ALI PROJECT
Creator:P o M u T a
Version:Kyoji
Source:Mai-HiME - Unmei no Keitouju
Tags:My-HiME Highly advanced Materializing Equipment frost-b-spec Guy Game theme CIRCUS opening pomuta
BeatmapID:194272
BeatmapSetID:64112

[Difficulty]
HPDrainRate:2
CircleSize:2
OverallDifficulty:2
ApproachRate:3
SliderMultiplier:1.00000000596046
SliderTickRate:2

[Events]
//Background and Video events
Video,0,"op.avi"
0,0,"mai-hime_14.jpg",0,0
//Break Periods
//Storyboard Layer 0 (Background)
//Storyboard Layer 1 (Fail)
//Storyboard Layer 2 (Pass)
//Storyboard Layer 3 (Foreground)
//Storyboard Sound Samples
//Background Colour Transformations
3,100,163,162,255

[TimingPoints]
27744,428.571428571429,4,1,1,70,1,0
31065,-100,4,2,1,50,0,0
31279,-100,4,1,1,70,0,0
34494,-100,4,2,1,70,0,0
34708,-100,4,1,1,70,0,0
36208,-100,4,2,1,70,0,0
36422,-100,4,1,1,70,0,0
37065,-100,4,2,1,70,0,0
37279,-100,4,1,1,70,0,0
37922,-100,4,2,1,70,0,0
38029,-100,4,2,1,70,0,1
38136,-100,4,1,1,80,0,1
44779,-100,4,2,1,80,0,1
44994,-100,4,1,1,80,0,1
51744,-100,4,1,1,70,0,0
56886,-100,4,1,1,60,0,0
58601,-100,4,1,1,50,0,0
60208,-100,4,2,1,70,0,0
60422,-100,4,1,1,70,0,0
73922,-100,4,2,1,70,0,0
74136,-100,4,1,1,70,0,0
87636,-100,4,2,1,70,0,0
87851,-100,4,1,1,70,0,0
97922,-100,4,2,1,70,0,0
98136,-100,4,1,1,70,0,0
99636,-100,4,2,1,70,0,0
99851,-100,4,1,1,70,0,0
101351,-100,4,2,1,70,0,0
101565,-100,4,1,1,70,0,0
102208,-100,4,2,1,70,0,0
102422,-100,4,1,1,70,0,0
103065,-100,4,2,1,70,0,0
103172,-100,4,2,1,70,0,1
103279,-100,4,1,1,80,0,1
109922,-100,4,2,1,80,0,1
110136,-100,4,1,1,80,0,1
116886,-100,4,2,1,70,0,0
116994,-100,4,1,1,70,0,0
120208,-100,4,2,1,70,0,0
120422,-100,4,1,1,70,0,0
121922,-100,4,2,1,70,0,0
122136,-100,4,1,1,70,0,0
122351,-100,4,1,1,60,0,0
122565,-100,4,1,1,70,0,0
122779,-100,4,2,1,70,0,0
122994,-100,4,1,1,70,0,0
123744,-100,4,2,1,50,0,0
129315,-100,4,2,1,45,0,0
129744,-100,4,2,1,40,0,0
130172,-100,4,2,1,35,0,0
130601,-100,4,2,1,30,0,0
131029,-100,4,2,1,25,0,0
131458,-100,4,2,1,20,0,0
131886,-100,4,2,1,15,0,0
132315,-100,4,2,1,70,0,0
133172,-100,4,1,1,70,0,0
133922,-100,4,2,1,70,0,0
134136,-100,4,1,1,70,0,0
135636,-100,4,2,1,70,0,0
135851,-100,4,1,1,70,0,0
137351,-100,4,2,1,70,0,0
137565,-100,4,1,1,70,0,0
139065,-100,4,2,1,70,0,0
140029,-100,4,1,1,50,0,0
140244,-100,4,2,1,10,0,0
140386,-100,4,1,1,50,0,0

[Colours]
Combo1 : 255,255,128
Combo2 : 255,128,0
Combo3 : 255,217,179

[HitObjects]
256,52,27744,2,0,B|321:83|360:122|392:192,1,200.000001192092,4|0,0:0|0:0,0:0:0:0:
256,340,29458,2,0,B|222:311|210:300|185:269,2,100.000000596046,0|8|0,0:0|0:0|0:0,0:0:0:0:
392,192,31172,6,0,B|360:122|321:83|256:52,1,200.000001192092,4|0,0:0|0:0,0:0:0:0:
68,120,32886,2,0,B|93:151|104:162|140:192,2,100.000000596046,0|8|0,0:0|0:0|0:0,0:0:0:0:
260,60,34601,6,0,B|312:52|354:83,2,100.000000596046,4|8|0,0:0|0:0|0:0,0:0:0:0:
160,68,35886,1,8,0:0:0:0:
64,96,36315,2,0,B|20:132|28:184,1,100.000000596046,4|8,0:0|0:0,0:0:0:0:
88,264,37172,2,0,B|132:228|124:176,1,100.000000596046,4|8,0:0|0:0,0:0:0:0:
64,96,38029,6,0,P|104:68|242:95,1,200.000001192092,4|0,0:0|0:0,0:0:0:0:
280,188,39315,1,8,0:0:0:0:
372,224,39744,2,0,P|403:186|387:45,1,200.000001192092,0|0,0:0|0:0,0:0:0:0:
288,40,41029,1,8,0:0:0:0:
188,52,41458,6,0,P|140:64|116:108,1,100.000000596046,0|8,0:0|0:0,0:0:0:0:
168,192,42315,2,0,P|216:180|240:136,1,100.000000596046,0|8,0:0|0:0,0:0:0:0:
316,76,43172,2,0,P|364:72|416:76,2,100.000000596046,0|8|0,0:0|0:0|0:0,0:0:0:0:
220,100,44458,1,8,0:0:0:0:
132,52,44886,6,0,P|80:44|32:52,2,100.000000596046,4|8|0,0:0|0:0|0:0,0:0:0:0:
220,100,46172,1,8,0:0:0:0:
308,148,46601,2,0,B|356:156|408:148,1,100.000000596046,0|8,0:0|0:0,0:0:0:0:
408,48,47458,2,0,B|360:40|308:48,1,100.000000596046,0|8,0:0|0:0,0:0:0:0:
220,100,48315,6,0,L|124:164,2,100.000000596046,0|8|0,0:0|0:0|0:0,0:0:0:0:
296,168,49601,1,8,0:0:0:0:
368,100,50029,2,0,L|464:164,2,100.000000596046,0|8|0,0:0|0:0|0:0,0:0:0:0:
296,32,51315,1,8,0:0:0:0:
196,40,51743,6,0,P|72:120|20:257,1,300.000001788138,4|8,0:0|0:0,0:0:0:0:
104,316,53458,2,0,P|228:236|279:98,1,300.000001788138,0|8,0:0|0:0,0:0:0:0:
256,192,55172,12,4,58601,0:0:0:0:
348,292,60315,6,0,B|396:308|446:292,2,100.000000596046,4|8|0,0:0|0:0|0:0,0:0:0:0:
256,252,61601,1,8,0:0:0:0:
336,192,62029,1,0,0:0:0:0:
256,132,62458,2,0,P|164:108|104:188,1,200.000001192092,0|8,0:0|0:0,0:0:0:0:
88,280,63743,6,0,P|128:312|176:328,1,100.000000596046,0|8,0:0|0:0,0:0:0:0:
228,244,64601,2,0,P|273:259|313:291,1,100.000000596046,0|8,0:0|0:0,0:0:0:0:
412,272,65458,1,0,0:0:0:0:
452,180,65886,2,0,B|464:132|426:121|452:84,2,100.000000596046,8|0|8,0:0|0:0|0:0,0:0:0:0:
412,272,67172,5,0,0:0:0:0:
314,293,67601,1,8,0:0:0:0:
216,272,68029,2,0,B|129:221,1,100.000000596046,0|8,0:0|0:0,0:0:0:0:
40,180,68886,2,0,B|44:124|96:100,2,100.000000596046,0|8|0,0:0|0:0|0:0,0:0:0:0:
100,260,70172,1,8,0:0:0:0:
188,312,70601,6,0,L|292:312,1,100.000000596046,0|8,0:0|0:0,0:0:0:0:
328,220,71458,2,0,L|224:220,1,100.000000596046,0|8,0:0|0:0,0:0:0:0:
188,128,72315,2,0,L|292:128,1,100.000000596046,0|8,0:0|0:0,0:0:0:0:
328,36,73172,2,0,L|228:36,1,100.000000596046,0|8,0:0|0:0,0:0:0:0:
128,36,74029,6,0,B|71:43|43:87,2,100.000000596046,4|8|0,0:0|0:0|0:0,0:0:0:0:
128,136,75315,1,8,0:0:0:0:
168,228,75743,1,0,0:0:0:0:
248,288,76172,2,0,P|352:296|420:236,1,200.000001192092,8|8,0:0|0:0,0:0:0:0:
416,136,77458,6,0,B|368:120|316:136,2,100.000000596046,0|8|0,0:0|0:0|0:0,0:0:0:0:
416,236,78743,1,8,0:0:0:0:
416,336,79172,2,0,B|368:352|316:336,1,100.000000596046,0|8,0:0|0:0,0:0:0:0:
256,256,80029,1,0,0:0:0:0:
256,156,80458,1,8,0:0:0:0:
256,56,80886,6,0,B|208:40|156:56,1,100.000000596046,0|8,0:0|0:0,0:0:0:0:
112,144,81743,2,0,B|61:159|13:143,2,100.000000596046,0|8|0,0:0|0:0|0:0,0:0:0:0:
157,55,83029,2,0,B|208:40|256:56,2,100.000000596046,8|0|8,0:0|0:0|0:0,0:0:0:0:
208,140,84315,6,0,P|292:172|376:244,1,200.000001192092
420,332,85601,1,8,0:0:0:0:
256,192,86029,12,4,87743,0:0:0:0:
256,276,88601,6,0,L|152:276,1,100.000000596046,0|8,0:0|0:0,0:0:0:0:
64,236,89458,2,0,P|52:184|64:136,2,100.000000596046,0|8|0,0:0|0:0|0:0,0:0:0:0:
152,184,90743,1,8,0:0:0:0:
204,100,91172,6,0,B|256:92|304:100,1,100.000000596046,0|8,0:0|0:0,0:0:0:0:
356,184,92029,2,0,B|304:192|256:184,1,100.000000596046,0|8,0:0|0:0,0:0:0:0:
204,100,92886,2,0,B|152:92|104:100,2,100.000000596046,0|8|0,0:0|0:0|0:0,0:0:0:0:
256,184,94172,1,8,0:0:0:0:
308,268,94601,6,0,B|348:300|397:311,2,100.000000596046,0|8|0,0:0|0:0|0:0,0:0:0:0:
208,268,95886,1,8,0:0:0:0:
108,268,96315,2,0,B|56:264|19:225,2,100.000000596046,0|8|0,0:0|0:0|0:0,0:0:0:0:
158,184,97601,1,8,0:0:0:0:
200,92,98029,6,0,B|312:60|280:140|392:108,1,200.000001192092,4|0,0:0|0:0,0:0:0:0:
456,184,99315,1,8,0:0:0:0:
456,284,99743,6,0,B|408:300|356:284,1,100.000000596046,4|8,0:0|0:0,0:0:0:0:
356,184,100601,2,0,B|308:167|256:184,1,100.000000596046,0|8,0:0|0:0,0:0:0:0:
256,284,101458,2,0,B|208:300|156:284,1,100.000000596046,4|8,0:0|0:0,0:0:0:0:
156,184,102315,2,0,B|108:167|56:184,1,100.000000596046,4|8,0:0|0:0,0:0:0:0:
20,276,103172,6,0,P|60:304|198:276,1,200.000001192092,4|0,0:0|0:0,0:0:0:0:
256,192,104458,1,8,0:0:0:0:
319,115,104886,2,0,P|457:87|497:115,1,200.000001192092,0|0,0:0|0:0,0:0:0:0:
496,216,106172,1,8,0:0:0:0:
496,316,106601,6,0,B|448:332|397:316,1,100.000000596046,0|8,0:0|0:0,0:0:0:0:
304,280,107458,2,0,B|288:232|303:181,1,100.000000596046,0|8,0:0|0:0,0:0:0:0:
392,232,108315,2,0,B|408:184|392:132,1,100.000000596046,0|8,0:0|0:0,0:0:0:0:
356,40,109172,2,0,B|308:24|256:40,1,100.000000596046,0|8,0:0|0:0,0:0:0:0:
176,96,110029,6,0,L|76:96,2,100.000000596046,4|8|0,0:0|0:0|0:0,0:0:0:0:
256,156,111315,1,8,0:0:0:0:
307,242,111743,2,0,L|307:342,1,100.000000596046,0|8,0:0|0:0,0:0:0:0:
207,342,112601,2,0,L|207:238,1,100.000000596046,0|8,0:0|0:0,0:0:0:0:
172,148,113458,6,0,B|72:148,2,100.000000596046,0|8|0,0:0|0:0|0:0,0:0:0:0:
256,92,114743,1,8,0:0:0:0:
340,148,115172,2,0,B|440:148,2,100.000000596046,0|8|0,0:0|0:0|0:0,0:0:0:0:
256,204,116458,1,8,0:0:0:0:
172,260,116886,6,0,P|31:215|79:108,1,300.000001788138,4|8,0:0|0:0,0:0:0:0:
160,168,118601,2,0,P|300:212|252:319,1,300.000001788138,0|8,0:0|0:0,0:0:0:0:
172,260,120315,6,0,P|31:215|79:108,1,300.000001788138,4|8,0:0|0:0,0:0:0:0:
168,60,122029,2,0,L|268:60,2,100.000000596046,4|8|4,0:0|0:0|0:0,0:0:0:0:
77,109,123315,1,8,0:3:0:0:
80,208,123743,6,0,L|156:272,1,100.000000596046,4|10,0:0|0:0,0:0:0:0:
256,272,124601,2,0,L|332:208,1,100.000000596046,2|10,0:0|0:0,0:0:0:0:
412,144,125458,1,2,0:0:0:0:
332,80,125886,2,0,L|240:28,2,100.000000596046,10|2|8,0:0|0:0|0:0,0:0:0:0:
332,180,127172,6,0,L|240:232,1,100.000000596046,2|10,0:0|0:0,0:0:0:0:
296,316,128029,2,0,L|388:264,1,100.000000596046,2|10,0:0|0:0,0:0:0:0:
256,192,128886,12,4,132315,0:0:0:0:
412,336,133172,6,0,B|363:325|320:292,1,100.000000596046,0|8,0:0|0:0,0:0:0:0:
320,192,134029,2,0,B|369:203|409:235,2,100.000000596046,4|8|0,0:0|0:0|0:0,0:0:0:0:
238,250,135315,1,8,0:0:0:0:
156,192,135743,6,0,L|88:120,2,100.000000596046,4|8|0,0:0|0:0|0:0,0:0:0:0:
256,192,137029,1,8,0:0:0:0:
356,192,137458,2,0,L|424:264,2,100.000000596046,4|8|0,0:0|0:0|0:0,0:0:0:0:
256,192,138743,1,8,0:0:0:0:
156,192,139172,6,0,L|104:192,1,50.000000298023,4|4,0:0|0:0,0:0:0:0:
216,88,140029,2,0,B|240:76|272:76|296:88,2,83.3333338300383,4|0|4,0:0|0:0|0:0,0:0:0:0:
