osu file format v6

[General]
AudioFilename: angoku.mp3
AudioLeadIn: 0
PreviewTime: 60842
Countdown: 1
SampleSet: Soft
StackLeniency: 0.7
Mode: 0
LetterboxInBreaks: 1

[Editor]
Bookmarks: 5096,10638,18217,27375,38550,48240,60878,71194,80775
DistanceSpacing: 0.800000011920929
BeatDivisor: 3
GridSize: 8

[Metadata]
Title:Ankoku Tengoku (TV Size)
Artist:ALI PROJECT
Creator:HarryOrunitia
Version:Hard
Source:Kamichama Karin
Tags:Jpop Jrock Ali Project Arika Takarano Armin Oru

[Difficulty]
HPDrainRate:7
CircleSize:5
OverallDifficulty:7
SliderMultiplier:1.4
SliderTickRate:1

[Events]
//Background and Video events
0,0,"BGHard.jpg"
Video,-200,"compressed-1.avi"
//Break Periods
2,24949,27641
//Storyboard Layer 0 (Background)
//Storyboard Layer 1 (Fail)
//Storyboard Layer 2 (Pass)
//Storyboard Layer 3 (Foreground)
//Storyboard Sound Samples
//Background Colour Transformations
3,100,163,162,255

[TimingPoints]
5582,315.955766192733,4,2,0,100,1,0
24638,-100,4,2,0,0,0,0
24849,-100,4,2,0,100,0,0
29384,-200,4,2,0,100,0,0
33284,-100,4,2,0,100,0,0
34539,-200,4,2,0,100,0,0
35285,-100,4,2,0,100,0,0
39593,-200,4,2,0,100,0,0
40973,-100,4,2,0,100,0,0
42119,-200,4,2,0,100,0,0
45489,-100,4,2,0,100,0,0
48437,-200,4,2,0,100,0,0
53611,-100,4,2,0,100,0,0
57281,-200,4,2,0,100,0,0
58561,-100,4,2,0,100,0,0
61194,-100,4,2,0,100,0,1
71199,-100,4,2,0,100,0,0
71304,-100,4,2,0,100,0,1
78887,-100,4,2,0,100,0,0
88882,-100,4,2,0,0,0,0

[Colours]
Combo1 : 242,242,242
Combo2 : 255,164,209
Combo3 : 136,217,255

[HitObjects]
304,48,5582,2,0,B|384:80|384:160,1,140,4|8
304,128,6108,1,0
208,336,6424,5,0
208,336,6529,2,0,B|128:304|128:224,1,140,4|8
208,256,7056,1,0
304,336,7372,5,0
304,336,7477,2,0,B|384:304|384:224,1,140,4|8
384,112,8109,1,0
320,80,8320,5,0
288,64,8425,1,0
208,64,8636,1,0
176,80,8741,1,4
176,160,8952,1,0
208,176,9057,1,0
208,256,9268,5,0
176,272,9373,2,0,B|80:272|32:192,1,140,4|0
16,288,9900,1,0
40,312,10005,1,8
112,352,10216,2,0,B|176:352,1,46.6666666666667
240,336,10531,5,0
272,304,10637,2,0,B|368:320|400:224,1,140,4|8
400,176,11163,1,0
288,208,11479,5,0
256,176,11585,2,0,B|160:192|128:80,1,140,4|8
160,48,12111,2,0,B|192:144|304:112,1,140,4|8
304,112,12533,1,0
384,192,12848,1,0
336,288,13164,5,0
256,304,13375,1,0
176,288,13586,1,0
128,224,13796,1,0
128,144,14007,1,0
176,80,14218,1,0
256,64,14428,2,0,B|336:64|384:144,2,140,0|8|0
64,192,15376,5,8
448,304,15692,5,4
256,32,16008,6,0,B|256:144,1,93.3333333333333,8|0
256,240,16535,1,0
256,240,16640,1,4
256,128,16956,6,0,B|256:16,1,93.3333333333333,8|0
200,176,17588,1,4
312,176,17904,1,4
184,272,18430,6,0,B|152:320,1,46.6666666666667
232,288,18746,2,0,B|216:352,1,46.6666666666667,0|4
280,288,19062,2,0,B|296:352,1,46.6666666666667
328,272,19378,2,0,B|376:336,1,46.6666666666667,0|4
416,224,19800,1,0
416,144,20010,1,0
384,112,20115,1,8
304,112,20326,2,0,B|256:176,1,46.6666666666667
224,208,20642,5,0
224,208,20747,2,0,B|144:256|64:192,1,140,4|8
32,160,21274,1,0
288,64,21590,5,0
288,64,21695,2,0,B|368:16|448:80,1,140,4|8
480,112,22222,1,0
352,304,22643,5,4
160,128,22959,5,4
256,208,23275,12,0,24749
48,64,28541,6,0,B|80:112,1,46.6666666666667,0|4
144,80,28857,2,0,B|160:144,1,46.6666666666667,0|8
112,184,29173,2,0,B|176:232,1,46.6666666666667
208,176,29489,1,8
240,208,29594,2,0,B|304:256|384:208,1,140,4|4
96,336,31069,5,0
128,304,31174,1,4
208,304,31385,1,0
208,304,31490,1,4
288,288,31701,1,0
320,256,31806,1,0
384,208,32016,1,4
384,208,32122,2,0,B|320:176|304:96,1,140,0|4
384,320,33386,1,4
304,320,33596,5,0
272,288,33702,1,8
192,288,33912,2,0,B|192:224,1,46.6666666666667,0|8
112,240,34228,2,0,B|112:288,1,46.6666666666667,0|8
32,288,34544,1,0
32,256,34649,2,0,B|32:120,1,116.666666666667,4|0
32,96,35281,1,8
112,80,35492,1,0
144,64,35597,1,8
208,96,35808,1,0
128,224,36229,6,0,B|176:288|240:208,1,93.3333333333333,4|0
224,208,36545,2,0,B|288:176|336:240,1,93.3333333333333,4|0
304,256,36861,2,0,B|352:304|416:256,1,93.3333333333333,4|0
416,256,37177,1,0
448,192,37388,2,0,B|336:160|320:48,1,186.666666666667,4|0
208,64,38125,1,4
96,64,38441,1,4
80,144,38652,5,0
80,176,38757,1,8
160,176,38967,1,0
160,208,39073,1,8
240,208,39283,1,0
240,240,39389,1,0
320,240,39599,1,8
320,272,39705,2,0,B|384:320|400:224|480:304,1,140,4|4
448,64,40969,1,8
368,64,41179,6,0,B|368:128,1,46.6666666666667,0|4
320,176,41495,1,0
288,208,41600,2,0,B|240:240|176:192,1,93.3333333333333,8|0
176,176,41916,1,0
128,240,42127,1,0
160,272,42232,2,0,B|224:320|304:288,1,140,4|4
256,64,43496,1,8
176,64,43707,5,0
192,96,43812,1,8
256,144,44023,1,0
256,144,44128,1,8
320,96,44339,1,0
336,64,44444,1,0
416,64,44655,1,0
432,96,44760,2,0,B|464:160|432:224,1,116.666666666667,4|0
416,240,45392,1,0
368,304,45603,2,0,B|304:304,1,46.6666666666667,0|8
256,272,45919,1,0
256,128,46340,5,4
192,80,46550,1,0
192,80,46656,1,4
128,128,46866,1,0
128,128,46972,1,4
192,176,47182,1,0
192,176,47288,1,0
256,208,47393,12,4,48236
48,112,48551,6,0,B|112:64|192:112,1,140,2|0
160,176,49394,1,2
224,224,49605,1,2
304,208,49815,2,0,B|368:256|448:208,1,140
256,80,51079,6,0,B|192:32|112:96,1,140,2|0
144,160,51922,1,2
192,224,52132,1,2
272,240,52343,2,0,B|336:192|416:240,1,140
112,288,53817,6,0,B|160:224,1,46.6666666666667,0|4
208,288,54133,2,0,B|240:240,1,46.6666666666667,0|4
304,288,54449,2,0,B|336:240,1,46.6666666666667,0|4
400,240,54765,2,0,B|464:176|400:96,1,140,4|0
368,112,55187,1,4
288,112,55397,6,0,B|256:160,1,46.6666666666667,0|8
192,112,55713,2,0,B|160:160,1,46.6666666666667,0|4
96,112,56029,2,0,B|48:176|96:256,1,140,4|0
112,272,56450,1,4
168,320,56661,5,0
208,320,56766,1,8
208,248,56977,1,0
248,248,57082,1,4
248,176,57293,1,0
288,176,57398,2,0,B|336:128|368:208|432:160,1,140,0|4
192,112,58662,6,0,B|144:160|80:80,2,93.3333333333333,4|0|0
336,192,59294,6,0,B|384:240|448:160,2,93.3333333333333,4|0|0
264,344,59926,5,4
248,312,60031,1,0
264,280,60137,1,0
248,248,60242,1,4
264,216,60347,1,0
248,184,60452,1,0
264,152,60558,1,4
256,40,60874,5,0
64,224,61190,6,0,B|64:304|144:336,1,140,4|8
160,256,61716,1,0
448,224,62032,5,0
448,224,62138,2,0,B|448:304|368:336,1,140,4|8
352,256,62664,1,0
448,144,62980,5,0
448,144,63085,2,0,B|448:64|368:32,1,140,4|8
256,32,63717,1,0
208,80,63928,5,0
192,112,64033,1,0
240,160,64244,1,0
256,192,64349,1,4
192,240,64560,1,0
176,272,64665,1,0
240,304,64876,5,0
272,272,64981,2,0,B|368:272|384:160,1,140,4|0
432,144,65508,2,0,B|432:96|400:80,1,46.6666666666667,0|8
352,64,65824,2,0,B|336:32|304:32,1,46.6666666666667
256,80,66140,5,0
224,48,66245,2,0,B|128:32|96:128,1,140,4|8
112,176,66772,1,0
224,176,67088,5,0
256,208,67193,2,0,B|352:192|384:288,1,140,4|8
336,328,67719,2,0,B|256:360|208:264,1,140,4|8
192,256,68141,1,4
104,328,68457,1,4
256,96,68773,5,0
352,192,68983,1,0
256,288,69194,1,0
160,192,69405,1,0
256,96,69615,1,0
352,192,69826,1,0
256,288,70036,2,0,B|192:240|192:352|96:256,2,140,0|8|0
64,192,70984,5,8
448,80,71300,5,4
400,232,71616,6,0,B|328:240|320:160,1,93.3333333333333,8|0
256,96,72143,5,0
256,96,72248,1,4
184,192,72564,6,0,B|184:256|104:248,1,93.3333333333333,8|0
256,320,73196,6,0,B|256:176,1,140,4|4
184,112,74039,6,0,B|152:64,1,46.6666666666667
232,96,74355,2,0,B|216:32,1,46.6666666666667,0|4
280,96,74670,2,0,B|296:32,1,46.6666666666667
328,112,74986,2,0,B|376:48,1,46.6666666666667,0|4
456,128,75408,5,0
456,200,75618,1,0
456,240,75724,1,8
416,304,75934,2,0,B|376:336,1,46.6666666666667
304,320,76250,5,0
304,320,76356,2,0,B|224:368|144:304,1,140,4|8
112,272,76882,1,0
216,64,77198,5,0
216,64,77303,2,0,B|296:16|376:80,1,140,4|8
408,112,77830,1,0
256,144,78251,5,4
256,256,78567,5,4
256,208,78883,12,0,80779
432,112,81411,5,0
384,144,81569,1,0
328,160,81727,1,0
272,160,81885,1,0
216,144,82043,2,0,B|160:104|80:136,1,140
104,248,82675,5,0
152,280,82833,1,0
200,304,82991,1,0
256,312,83149,1,0
312,304,83307,1,0
360,280,83465,1,0
408,248,83623,1,0
408,136,83939,5,0
360,104,84097,1,0
312,80,84254,1,0
256,72,84412,1,0
200,80,84570,1,0
152,104,84728,1,0
112,144,84886,1,0
400,192,85202,5,0
384,264,85413,1,0
328,312,85624,1,0
256,336,85834,5,0
184,312,86045,1,0
128,264,86256,1,0
112,192,86466,5,0
128,120,86677,1,0
184,72,86888,1,0
256,48,87098,5,0
328,72,87309,1,0
384,120,87520,1,0
400,192,87730,1,0
256,208,87835,12,0,89310
