osu file format v9

[General]
AudioFilename: Sakurakagetsu.mp3
AudioLeadIn: 750
PreviewTime: 15788
Countdown: 0
SampleSet: Soft
StackLeniency: 0.5
Mode: 0
LetterboxInBreaks: 1
SkinPreference:Default

[Editor]
DistanceSpacing: 2
BeatDivisor: 4
GridSize: 8

[Metadata]
Title:Sakura Kagetsu
Artist:AKITO
Creator:MoonFragrance
Version:Maximum
Source:
Tags:BMS Tari Eter DJMAX Online NatsumeRin KRZY

[Difficulty]
HPDrainRate:8
CircleSize:4
OverallDifficulty:7
ApproachRate:7
SliderMultiplier:1.8
SliderTickRate:1

[Events]
//Background and Video events
0,0,"Sakura.jpg"
Video,0,"sakura.avi"
//Break Periods
//Storyboard Layer 0 (Background)
//Storyboard Layer 1 (Fail)
//Storyboard Layer 2 (Pass)
//Storyboard Layer 3 (Foreground)
//Storyboard Sound Samples
//Background Colour Transformations
3,100,163,162,255

[TimingPoints]
1908,434.782608695652,4,2,1,25,1,0
1908,-200,4,2,1,25,0,0
15821,-100,4,2,1,75,0,0
29734,-200,4,2,2,60,0,0
31690,-200,4,2,2,5,0,0
32560,-200,4,2,2,60,0,0
35494,-100,4,2,2,60,0,0
36799,-100,4,1,1,60,0,0
43538,-100,4,2,1,60,0,0
50386,-100,4,2,2,60,0,0
50821,-100,4,2,1,60,0,0
52125,-100,4,2,2,60,0,0
52560,-100,4,2,1,60,0,0
53864,-100,4,2,2,60,0,0
54299,-100,4,2,1,60,0,0
55712,-100,4,2,2,60,0,0
55929,-100,4,2,1,60,0,0
57342,-100,4,2,2,60,0,0
57777,-100,4,2,1,60,0,0
59081,-100,4,2,2,60,0,0
59516,-100,4,2,1,60,0,0
60821,-100,4,2,2,60,0,0
64516,-200,4,2,1,45,0,0
70929,-100,4,2,1,60,0,0
74516,-100,4,2,2,60,0,0
74625,-100,4,2,1,60,0,0
77994,-100,4,2,2,60,0,0
78103,-100,4,2,1,60,0,0
81473,-100,4,2,2,60,0,0
81581,-100,4,2,1,60,0,0
84951,-100,4,2,2,60,0,0
85277,-100,4,2,1,60,0,0
85494,-100,4,2,2,60,0,0
98864,-100,4,2,1,60,0,0
99299,-100,4,2,1,60,0,1
99407,-100,4,2,2,60,0,1
106147,-100,4,2,1,60,0,1
106473,-100,4,2,2,60,0,1
109625,-100,4,2,1,60,0,1
113212,-200,4,2,1,25,0,0

[Colours]
Combo1 : 255,128,64
Combo2 : 128,255,128
Combo3 : 128,128,255
Combo4 : 255,128,128

[HitObjects]
208,48,1908,1,2
208,48,2342,1,0
248,128,2560,1,0
328,176,2777,2,0,B|384:260|328:344,1,180,2|0
327,344,4081,5,2
240,360,4299,1,0
160,320,4516,2,0,B|128:280|136:216,2,90,0|2|0
256,56,5821,5,2
344,40,6038,1,0
416,88,6255,1,0
416,176,6473,1,0
416,176,6690,2,0,B|416:280,1,90,0|2
344,320,7342,5,0
256,304,7560,1,0
80,336,7994,1,2
120,160,8429,1,0
256,304,8864,5,2
432,336,9299,1,0
412,248,9516,1,0
392,160,9734,1,0
80,336,10603,5,2
100,248,10821,1,0
120,160,11038,2,0,B|144:64,2,90,0|2|0
300,344,12777,5,2
212,344,12994,1,0
256,264,13212,2,0,B|256:168,1,90
256,174,14081,5,2
256,192,14299,12,4,15821
168,128,16255,5,8
212,48,16473,1,2
300,48,16690,1,0
344,128,16907,1,2
344,128,17016,1,0
344,128,17125,2,0,B|344:218,2,90,8|2|0
256,128,17777,5,2
256,128,17886,1,0
256,128,17994,1,8
200,200,18212,2,0,B|160:248,1,45,2|8
312,200,18538,2,0,B|352:248,1,45,8|2
256,272,18864,1,8
256,272,19081,1,2
200,344,19299,5,0
200,344,19407,1,0
200,344,19516,2,0,B|152:344|120:304,2,90,2|8|2
312,344,20168,2,0,B|360:344|392:304,2,90,0|2|8
256,272,20821,1,2
336,168,21038,5,2
336,168,21147,1,0
336,168,21255,1,2
304,88,21473,6,0,B|304:40,2,45,8|0|2
176,168,21907,5,0
176,168,22016,1,8
176,168,22125,1,2
208,88,22342,6,0,B|208:40,2,45,8|0|2
256,168,22777,6,0,B|288:256|224:256|256:344,1,180,4|8
344,360,23429,1,2
424,320,23647,1,0
424,232,23864,1,2
424,232,23973,1,0
424,232,24081,2,0,B|424:144,2,90,8|2|0
344,272,24734,5,2
344,272,24842,1,0
344,272,24951,1,8
320,184,25168,2,0,B|304:128,1,45,0|8
192,183,25494,2,0,B|204:140,1,45,8|2
256,248,25821,2,0,B|256:336,1,90,8|2
168,344,26255,5,2
168,344,26364,1,0
344,344,26581,1,2
344,344,26690,1,8
176,260,26907,2,0,B|128:240,1,45,2|8
336,260,27234,2,0,B|384:240,1,45,8|2
256,208,27560,1,8
256,208,27668,1,0
256,208,27777,2,0,B|256:112,1,90,0|10
256,192,28212,12,4,29734
212,24,31038,5,2
300,24,31255,1,0
256,104,31473,2,0,B|184:232|320:232|256:360,1,270,0|2
168,376,32994,5,0
112,304,33212,2,0,B|80:240|112:168,1,135,0|2
155,44,34081,2,0,B|144:88,1,45
200,192,34516,1,2
200,164,34625,1,0
212,140,34734,2,0,B|228:92,1,45
326,53,35168,2,0,B|312:96,1,45,0|2
304,184,35603,5,0
352,288,35821,1,2
256,352,36038,1,0
160,288,36255,1,2
208,184,36473,1,0
256,112,36690,5,4
344,88,36907,2,0,B|432:64,2,90,2|12|2
344,88,37451,1,4
168,88,37668,1,4
168,88,37777,2,0,B|80:64,2,90,2|12|2
256,112,38429,5,8
300,192,38647,1,2
212,192,38864,1,12
256,272,39081,1,2
256,272,39190,2,4,B|256:360,1,90
256,362,39516,1,2
168,336,39734,2,0,B|168:248,1,90,12|2
344,336,40168,6,0,B|344:248,1,90,8|2
320,160,40603,1,12
300,72,40821,1,2
300,72,40929,1,4
212,72,41147,1,4
212,72,41255,1,2
192,160,41473,1,12
256,224,41690,2,0,B|256:320,1,90,2|8
176,360,42125,6,0,B|128:344|128:288,2,90,2|12|2
176,360,42668,1,4
336,360,42886,1,4
336,360,42994,2,0,B|384:344|384:288,2,90,2|12|2
256,312,43647,5,4
256,312,43755,1,0
256,312,43864,2,0,B|256:216,1,90,0|8
212,144,44299,1,0
212,144,44407,1,8
300,144,44625,1,8
300,144,44734,2,0,B|352:144|373:187,2,90,2|8|2
376,280,45386,5,0
376,280,45494,1,0
376,280,45603,2,0,B|354:323|302:323,1,90,2|8
256,248,46038,1,2
256,248,46147,1,8
209,323,46364,1,8
209,323,46473,2,0,B|157:323|136:280,2,90,2|8|2
304,324,47125,6,0,B|360:324,2,45,0|0|2
256,248,47560,1,8
208,168,47777,1,2
208,168,47886,2,8,B|192:120|208:80,1,90
208,79,48212,1,2
303,79,48429,2,8,B|320:120|304:168,1,90,8|2
256,248,48864,5,2
256,248,48973,1,2
256,248,49081,2,0,B|256:344,2,90,2|8|2
256,160,49734,1,2
120,48,50168,5,8
116,76,50277,1,2
112,104,50386,1,0
108,132,50494,1,2
104,160,50603,1,4
392,48,51038,5,8
396,76,51147,1,2
400,104,51255,1,0
404,132,51364,1,2
408,160,51473,1,0
120,336,51907,5,8
116,308,52016,1,2
112,280,52125,1,0
108,252,52234,1,2
104,224,52342,1,4
392,336,52777,5,8
396,308,52886,1,2
400,280,52994,1,0
404,252,53103,1,2
408,224,53212,1,0
256,132,53647,5,8
256,160,53755,1,2
256,188,53864,1,0
256,216,53973,1,2
256,244,54081,1,4
96,328,54516,5,8
96,328,54734,2,0,B|56:296|56:240,2,90,2|0|2
184,296,55386,1,8
256,352,55603,1,2
328,296,55821,1,4
328,296,55929,1,0
328,296,56038,1,2
416,328,56255,1,8
416,328,56473,2,0,B|456:296|456:240,2,90,2|0|2
360,216,57125,5,8
364,188,57234,1,2
368,160,57342,1,0
372,132,57451,1,2
376,104,57560,1,4
152,216,57994,5,8
148,188,58103,1,2
144,160,58212,1,0
140,132,58321,1,2
136,104,58429,1,0
432,304,58864,5,8
436,276,58973,1,2
440,248,59081,1,0
444,220,59190,1,2
448,192,59299,1,4
80,304,59734,5,8
76,276,59842,1,2
72,248,59951,1,0
68,220,60060,1,2
64,192,60168,1,0
256,100,60603,5,2
256,284,61038,1,4
256,192,61255,12,4,64516
256,72,64951,5,0
336,112,65168,2,0,B|336:208,1,90
300,284,65821,1,0
212,284,66038,1,0
160,208,66255,2,0,B|112:208,2,45,2|0|0
248,208,66907,2,0,B|264:160|248:120,1,90
176,72,67560,5,0
148,72,67668,1,0
124,84,67777,1,0
104,104,67886,1,0
92,128,67994,1,2
84,156,68103,1,0
88,184,68212,2,0,B|104:216|96:248,2,45
256,272,69081,5,0
336,312,69299,1,0
364,312,69407,1,0
388,300,69516,1,0
408,280,69625,1,0
420,256,69734,1,2
428,228,69842,1,0
424,200,69951,1,0
416,176,70060,1,0
408,152,70168,2,0,B|368:96|376:24,1,135,0|8
288,40,71038,5,10
284,68,71147,1,8
280,96,71255,1,8
276,124,71364,1,0
272,152,71473,6,0,B|260:256,2,90,4|2|8
360,184,72125,1,2
360,184,72234,1,8
360,184,72342,2,0,B|348:288,2,90,0|0|8
448,160,72994,1,2
448,160,73212,2,2,B|432:344,1,180,2|8
344,344,73864,5,2
344,344,73973,1,8
344,344,74081,2,0,B|356:240,2,90,0|0|4
256,320,74734,1,2
168,352,74951,2,2,B|104:272|160:184,1,180,2|8
208,112,75603,5,2
208,112,75712,1,8
208,112,75821,2,0,B|184:64|136:64,2,90,0|2|8
256,192,76473,1,0
312,264,76690,2,0,B|336:312|384:312,2,90,0|2|8
392,224,77342,5,2
392,224,77451,1,8
392,224,77560,2,0,B|392:120,2,90,0|0|4
312,264,78212,1,0
256,332,78429,2,2,B|152:332|192:372|80:372,1,180,2|8
48,288,79081,5,2
48,288,79190,1,8
48,288,79299,2,0,B|88:288|88:288|120:288|144:264,2,90,0|2|8
24,200,79951,1,0
48,112,80168,2,0,B|128:56|216:112,1,180,2|8
256,192,80821,5,2
256,192,80929,1,8
256,192,81038,2,0,B|256:288,2,90,0|2|4
296,112,81690,1,0
295,112,81908,2,0,B|375:55|463:111,1,180,2|8
504,192,82560,5,2
504,192,82668,1,8
504,192,82777,2,0,B|504:288,1,90,0|2
424,328,83212,1,8
344,284,83429,1,2
256,256,83647,1,0
168,284,83864,1,2
88,328,84081,2,0,B|56:288|64:240,1,90,8|2
68,216,84408,5,8
72,188,84516,1,8
165,63,84734,2,0,B|152:152,2,90,2|4|2
256,76,85386,6,0,B|256:260,1,180,4|8
312,328,86038,1,2
312,328,86147,1,2
312,328,86255,2,0,B|368:328|392:280,2,90,0|0|8
256,256,86908,1,2
208,328,87125,2,0,B|136:328|136:328|80:328|48:272,1,180,0|8
104,208,87777,5,2
104,208,87886,1,0
104,208,87994,2,0,B|168:120|104:40,1,180,0|12
16,72,88647,1,2
16,160,88864,2,2,B|16:344,1,180,2|8
104,368,89516,5,2
104,368,89625,1,0
104,368,89734,1,0
176,312,89951,1,0
212,232,90168,1,8
300,232,90386,1,2
336,312,90603,1,0
408,368,90821,1,2
408,368,91038,2,0,B|472:296|440:184,3,180,8|0|12|0
256,56,92777,5,8
212,136,92994,1,2
212,136,93103,1,0
212,136,93212,2,0,B|164:136|140:88,2,90,0|2|8
300,136,93864,1,2
300,136,94081,2,0,B|356:216|300:304,1,180,0|8
212,304,94734,1,0
212,304,94951,2,0,B|156:216|212:136,2,180,2|12|2
456,224,96255,5,8
368,224,96473,1,2
368,224,96581,1,0
368,224,96690,2,0,B|280:224,2,90,0|2|8
456,224,97342,1,2
472,136,97560,2,0,B|376:136|400:64|304:64,1,180,0|8
256,136,98212,1,2
200,64,98429,2,0,B|113:63|137:135|41:135,2,180,0|12|4
312,64,99516,5,2
392,136,99734,1,8
392,240,99951,1,2
312,312,100168,1,0
312,312,100277,1,0
312,312,100386,2,0,B|336:360|408:360,2,90,2|12|2
256,224,101038,1,0
256,224,101147,1,0
256,224,101255,1,0
208,128,101473,6,0,B|118:128,1,90,10|0
312,128,101908,2,0,B|400:128,1,90,2|0
156,224,102342,2,0,B|68:224,1,90,12|0
356,224,102777,2,0,B|444:224,1,90,2|0
408,328,103212,5,8
304,328,103429,1,2
256,224,103647,1,0
256,224,103755,1,0
256,224,103864,2,0,B|256:136,2,90,2|12|2
212,324,104516,5,2
104,256,104734,1,0
104,128,104951,1,10
212,60,105168,1,0
300,60,105386,5,2
408,128,105603,1,0
408,256,105821,1,12
300,324,106038,1,0
204,248,106255,5,4
204,248,106364,1,0
204,248,106473,2,0,B|168:216|168:168,2,90,2|8|2
312,248,107125,1,0
312,248,107234,1,0
312,248,107342,2,0,B|348:216|348:168,2,90,2|12|2
256,156,107994,5,0
256,156,108103,1,0
256,156,108212,2,0,B|256:52,2,90,2|8|2
204,248,108864,2,0,B|114:248,1,90,2|0
312,248,109299,2,0,B|400:248,1,90,12|0
424,152,109734,5,8
400,152,109842,1,8
380,144,109951,1,8
360,136,110060,1,8
340,128,110168,1,8
316,124,110277,1,8
292,124,110386,1,8
268,124,110494,1,8
244,124,110603,5,8
220,124,110712,1,8
196,124,110821,1,8
172,128,110929,1,8
152,136,111038,1,8
132,144,111147,1,8
112,152,111255,1,8
88,152,111364,1,8
256,192,111473,12,4,113212
304,336,113647,1,0
264,256,113864,1,0
184,208,114081,2,0,B|128:124|184:40,1,180,2|0
185,40,115386,5,2
272,24,115603,1,0
352,64,115821,2,0,B|384:104|376:168,2,90,0|2|0
256,328,117125,5,2
168,344,117342,1,0
96,296,117560,1,0
96,208,117777,1,0
96,208,117994,2,0,B|96:104,1,90,0|2
168,64,118647,5,0
256,80,118864,1,0
432,48,119299,1,2
392,224,119734,1,0
256,80,120168,5,2
80,48,120603,1,0
100,136,120821,1,0
120,224,121038,1,0
432,48,121908,5,2
412,136,122125,1,0
392,224,122342,2,0,B|368:320,2,90,0|2|0
212,40,124081,5,2
300,40,124299,1,0
256,120,124516,2,0,B|256:216,2,90,0|2|0
160,112,125603,1,0
212,40,125821,1,0
300,40,126038,1,0
352,112,126255,2,0,B|352:136,3,15,0|0|0|2
256,336,127125,5,2
