osu file format v9

[General]
AudioFilename: Sakurakagetsu.mp3
AudioLeadIn: 750
PreviewTime: 15788
Countdown: 0
SampleSet: Soft
StackLeniency: 0.7
Mode: 0
LetterboxInBreaks: 1
SkinPreference:Default

[Editor]
DistanceSpacing: 1.4
BeatDivisor: 4
GridSize: 8

[Metadata]
Title:Sakura Kagetsu
Artist:AKITO
Creator:MoonFragrance
Version:Hard
Source:
Tags:BMS Tari Eter DJMAX Online NatsumeRin KRZY

[Difficulty]
HPDrainRate:6
CircleSize:4
OverallDifficulty:6
ApproachRate:7
SliderMultiplier:1.4
SliderTickRate:1

[Events]
//Background and Video events
0,0,"Sakura.jpg"
Video,0,"sakura.avi"
//Break Periods
//Storyboard Layer 0 (Background)
//Storyboard Layer 1 (Fail)
//Storyboard Layer 2 (Pass)
//Storyboard Layer 3 (Foreground)
//Storyboard Sound Samples
//Background Colour Transformations
3,100,163,162,255

[TimingPoints]
1908,434.782608695652,4,2,1,25,1,0
1908,-133.333333333333,4,2,1,25,0,0
15821,-100,4,2,1,75,0,0
29734,-133.333333333333,4,2,2,60,0,0
31799,-133.333333333333,4,2,2,5,0,0
32451,-133.333333333333,4,2,2,60,0,0
33538,-133.333333333333,4,2,2,5,0,0
33755,-133.333333333333,4,2,2,60,0,0
36799,-100,4,1,1,60,0,0
43647,-100,4,2,1,60,0,0
50494,-100,4,2,2,60,0,0
50712,-100,4,2,1,60,0,0
52234,-100,4,2,2,60,0,0
52451,-100,4,2,1,60,0,0
53973,-100,4,2,2,60,0,0
54190,-100,4,2,1,60,0,0
55712,-100,4,2,2,60,0,0
55929,-100,4,2,1,60,0,0
57451,-100,4,2,2,60,0,0
57777,-100,4,2,1,60,0,0
59081,-100,4,2,2,60,0,0
59516,-100,4,2,1,60,0,0
60929,-100,4,2,2,60,0,0
64516,-133.333333333333,4,2,1,45,0,0
70386,-100,4,2,1,60,0,0
74516,-100,4,2,2,60,0,0
74625,-100,4,2,1,60,0,0
77886,-100,4,2,2,60,0,0
78103,-100,4,2,1,60,0,0
81364,-100,4,2,2,60,0,0
81581,-100,4,2,1,60,0,0
84951,-100,4,2,2,60,0,0
85168,-100,4,2,1,60,0,0
85603,-100,4,2,2,60,0,0
98755,-100,4,2,1,60,0,0
99299,-100,4,2,1,60,0,1
99407,-100,4,2,2,60,0,1
106038,-100,4,2,1,60,0,1
106473,-100,4,2,2,60,0,1
112777,-133.333333333333,4,2,1,25,0,1
113212,-133.333333333333,4,2,1,25,0,0

[Colours]
Combo1 : 255,128,64
Combo2 : 128,255,128
Combo3 : 128,128,255
Combo4 : 255,128,128

[HitObjects]
224,32,1908,1,2
224,32,2342,1,0
272,88,2560,1,0
256,160,2777,2,0,B|200:264|256:360,1,209.999993741512,2|0
320,200,4081,5,2
336,128,4299,1,0
272,88,4516,2,0,B|168:40,2,104.999996870756
256,312,5821,5,2
328,328,6038,1,0
400,312,6255,2,0,B|464:312,2,52.4999984353781,0|0|0
256,232,7125,5,2
184,216,7342,1,0
112,232,7560,2,0,B|8:232,2,104.999996870756,0|2|0
256,152,8864,5,2
256,152,9299,1,0
328,136,9516,1,0
400,152,9734,2,0,B|476:248|400:344,1,209.999993741512,0|2
328,328,10821,1,0
256,312,11038,2,0,B|208:312|200:344|152:344,2,104.999996870756,0|2|0
320,32,12777,5,2
256,64,12994,1,0
192,32,13212,2,0,B|168:88|192:136,1,104.999996870756,0|2
256,216,14081,1,0
256,192,14299,12,4,15821
256,88,16255,5,8
320,112,16473,1,2
384,136,16690,2,0,B|384:288,2,140,0|8|0
256,296,17994,5,8
192,272,18212,1,2
128,248,18429,2,0,B|128:96,2,140,0|8|0
256,152,19734,6,0,B|280:120|320:120,2,70,8|2|0
256,224,20386,1,0
256,296,20603,2,0,B|192:324|120:296,1,140,8|2
56,264,21255,5,0
56,192,21473,1,8
256,88,21907,1,2
456,192,22342,1,8
256,296,22777,5,4
220,160,23212,1,8
292,160,23429,1,2
364,160,23647,2,0,B|432:160|472:240,2,140,0|8|0
292,280,24951,5,8
220,280,25168,1,2
148,280,25386,2,0,B|80:280|40:200,2,140,0|8|0
192,144,26690,5,8
256,120,26907,1,0
320,144,27125,1,2
256,272,27560,1,8
256,192,27994,12,4,29734
184,64,31038,5,2
256,48,31255,1,0
328,64,31473,2,0,B|420:136|420:252|328:336,1,314.999990612269,0|2
256,352,32994,5,0
184,336,33212,2,0,B|184:176,1,157.499995306134,0|2
184,104,34081,1,0
184,104,34299,1,0
256,80,34516,1,2
256,80,34734,1,0
328,104,34951,6,0,B|384:104,2,52.4999984353781
272,152,35603,1,0
200,176,35821,2,0,B|144:224|144:304|208:360,1,209.999993741512,2|4
276,344,36907,5,2
344,360,37125,1,12
416,344,37342,2,0,B|416:184,1,140,2|2
416,136,37994,1,12
416,64,38212,1,2
348,88,38429,6,0,B|348:168,2,70,8|2|12
312,24,39081,2,0,B|256:68|256:68|200:24,1,140,2|2
164,88,39734,2,0,B|164:168,2,70,12|2|8
96,64,40386,5,2
56,120,40603,1,12
96,176,40821,2,0,B|96:328,1,140,2|2
160,344,41473,1,12
232,360,41690,1,2
304,344,41907,6,0,B|374:344,1,70,8|2
328,276,42342,2,0,B|400:276,1,70,12|2
344,208,42777,2,0,B|414:208,1,70,8|2
368,140,43212,2,0,B|440:140,2,70,12|2|0
312,96,43864,6,0,B|336:64|376:64,2,70,2|8|2
296,168,44516,2,0,B|296:320,1,140,2|8
200,96,45386,5,0
200,96,45603,2,0,B|176:64|136:64,2,70,2|8|2
216,168,46255,2,0,B|216:320,1,140,2|8
256,368,46907,1,2
296,308,47125,6,0,B|376:308,2,70,0|2|8
256,248,47777,1,2
216,188,47994,2,0,B|136:188,2,70,0|2|8
256,128,48647,1,2
304,80,48864,6,0,B|352:80|384:128|448:128,2,140,2|8|2
184,152,50168,5,8
136,208,50386,1,0
136,280,50603,1,4
328,232,51038,5,8
376,176,51255,1,0
376,104,51473,1,2
112,128,51907,5,8
64,184,52125,1,0
64,256,52342,1,4
400,256,52777,5,8
448,200,52994,1,0
448,128,53212,1,2
256,48,53647,5,8
256,120,53864,1,0
256,192,54081,2,0,B|256:336,1,140,4|8
192,360,54734,6,0,B|160:336|160:296,2,70,2|0|2
256,332,55386,1,8
320,360,55603,2,0,B|352:336|352:296,2,70,2|4|2
256,332,56255,2,0,B|256:192,1,140,8|2
168,80,57125,5,8
168,80,57342,2,0,B|104:104,1,70,2|4
344,80,57994,5,8
344,80,58212,2,0,B|408:104,1,70,2|0
144,192,58864,5,8
144,192,59081,2,0,B|80:216,1,70,2|4
368,192,59734,5,8
368,192,59951,2,0,B|433:216,1,70,2|0
256,304,60603,5,2
256,80,61038,1,4
256,192,61255,12,4,64516
328,96,65168,2,0,B|372:168|328:248,1,157.499995306134,2|0
256,244,66038,1,0
184,244,66255,2,0,B|164:268|164:292,2,52.4999984353781,2|0|0
216,176,66907,2,0,B|248:120|232:64,1,104.999996870756
168,48,67560,5,0
96,64,67777,1,0
96,136,67994,2,0,B|96:248,1,104.999996870756,2|0
96,241,68647,1,0
344,336,69299,5,0
416,320,69516,1,0
416,248,69734,2,0,B|416:136,1,104.999996870756,2|0
256,56,70603,5,0
184,56,70821,2,0,B|104:56,2,70,2|8|2
256,56,71473,2,2,B|288:120|256:192,1,140,4|8
192,312,72342,5,2
256,344,72560,1,0
320,312,72777,1,8
256,280,72994,1,2
256,280,73212,2,2,B|256:136,1,140,2|8
148,52,74081,6,0,B|108:68|108:116,2,70,0|2|4
220,52,74734,1,0
292,52,74951,2,2,B|444:52,1,140,2|8
464,192,75821,5,0
464,192,76038,1,2
432,256,76255,1,8
432,256,76473,1,2
400,192,76690,2,2,B|248:192,1,140,2|8
116,120,77560,5,0
56,156,77777,1,2
56,228,77994,1,4
116,264,78212,1,2
116,192,78429,2,2,B|256:192,1,140,2|8
396,120,79299,5,0
456,156,79516,1,2
456,228,79734,1,8
396,264,79951,1,2
396,192,80168,2,2,B|256:192,1,140,2|8
184,312,81038,5,0
220,372,81255,1,2
292,372,81473,1,4
328,312,81690,1,2
256,312,81908,2,2,B|256:168,1,140,0|8
220,112,82560,6,0,B|184:132|184:176,2,70,2|0|2
292,112,83212,2,0,B|328:132|328:176,2,70,8|2|0
256,172,83864,1,2
256,172,84081,2,2,B|256:324,2,140,8|0|4
120,128,85386,6,0,B|88:192|120:264,1,140,4|8
156,324,86038,1,2
192,264,86255,2,0,B|264:264,2,70,0|2|8
120,264,86908,1,2
152,200,87125,2,2,B|152:56,1,140,2|8
220,36,87777,5,2
288,56,87994,2,0,B|288:200,2,140,0|12|0
360,176,89299,1,8
360,244,89516,1,2
292,268,89734,1,0
224,244,89951,1,2
224,176,90168,2,0,B|160:144|88:176,1,140,8|2
88,244,90821,5,0
88,244,91038,2,0,B|159:275|223:243,3,140,8|2|12|0
304,120,92777,5,8
376,120,92994,2,0,B|456:120,2,70,2|0|2
344,184,93647,1,8
344,256,93864,1,2
344,256,94081,2,2,B|280:288|208:256,1,140,2|8
168,200,94734,5,0
104,168,94951,2,0,B|72:232|104:304,2,140,2|12|2
256,88,96255,1,8
408,168,96690,5,0
408,240,96908,1,2
344,272,97125,2,0,B|344:312|368:336,2,70,8|2|0
168,272,97994,2,0,B|168:312|144:336,2,70,8|2|0
256,160,98864,1,12
112,80,99299,6,0,B|80:104|80:144,2,70,4|2|8
184,40,99951,1,2
264,40,100168,2,0,B|352:40,2,70,0|2|12
256,128,100821,2,0,B|168:128,2,70,2|0|2
344,128,101473,5,2
256,320,101908,1,2
168,128,102342,1,2
168,128,102777,6,0,B|152:96|88:96,2,70,2|0|8
212,200,103429,1,2
300,200,103647,1,0
344,128,103864,2,0,B|360:96|424:96,2,70,2|12|2
392,200,104516,5,2
392,200,104734,1,0
348,272,104951,1,10
348,272,105168,1,0
260,272,105386,1,2
260,272,105603,1,0
212,200,105821,1,12
212,200,106038,1,0
212,116,106255,6,0,B|212:28,2,70,4|2|8
140,156,106908,1,0
140,240,107125,1,0
212,280,107342,2,0,B|212:368,2,70,2|12|2
288,240,107994,6,0,B|352:288|416:240,1,140,0|8
416,156,108647,1,0
416,72,108864,2,0,B|352:24|288:72,2,140,2|8|2
300,196,110168,5,8
212,196,110386,1,0
256,272,110603,2,0,B|256:344,2,70,0|2|8
168,272,111255,1,0
128,192,111473,2,0,B|128:104|184:48,1,140,2|8
256,88,112125,1,2
340,61,112342,2,2,B|384:104|384:192,2,140,2|8|4
200,192,113647,5,0
256,240,113864,1,0
312,192,114081,1,2
64,48,115386,5,2
64,120,115603,1,0
64,192,115821,2,0,B|64:304,1,104.999996870756,0|2
448,336,117125,5,0
448,264,117342,1,0
448,192,117560,2,0,B|448:128,2,52.4999984353781,2|0|0
256,80,118429,5,2
220,144,118647,1,0
296,144,118864,2,0,B|316:192|296:248,1,104.999996870756,0|2
148,248,119734,2,0,B|128:200|147:145,1,104.999996870756,0|2
336,72,120603,5,0
376,136,120821,1,0
380,208,121038,1,0
176,312,121908,5,2
136,248,122125,1,0
136,176,122342,2,0,B|136:72,2,104.999996870756,0|2|0
256,40,124081,5,2
256,112,124299,1,0
256,184,124516,2,0,B|256:312,2,104.999996870756,0|2|0
184,56,125821,5,0
256,40,126038,1,0
328,56,126255,2,0,B|352:64,3,17.4999994784594,0|0|0|2
256,280,127125,5,2
