osu file format v9

[General]
AudioFilename: Sakurakagetsu.mp3
AudioLeadIn: 750
PreviewTime: 15788
Countdown: 0
SampleSet: Soft
StackLeniency: 0.7
Mode: 0
LetterboxInBreaks: 1
SkinPreference:Default

[Editor]
DistanceSpacing: 1
BeatDivisor: 4
GridSize: 8

[Metadata]
Title:Sakura Kagetsu
Artist:AKITO
Creator:MoonFragrance
Version:Easy
Source:
Tags:BMS Tari Eter DJMAX Online NatsumeRin KRZY

[Difficulty]
HPDrainRate:2
CircleSize:3
OverallDifficulty:0
ApproachRate:2
SliderMultiplier:0.8
SliderTickRate:1

[Events]
//Background and Video events
0,0,"Sakura.jpg"
Video,0,"sakura.avi"
//Break Periods
2,29933,33826
2,64716,69043
//Storyboard Layer 0 (Background)
//Storyboard Layer 1 (Fail)
//Storyboard Layer 2 (Pass)
//Storyboard Layer 3 (Foreground)
//Storyboard Sound Samples
//Background Colour Transformations
3,100,163,162,255

[TimingPoints]
1908,434.782608695652,4,2,1,25,1,0
15386,-100,4,2,1,75,0,0
29734,-100,4,2,2,60,0,0
43647,-100,4,2,1,60,0,0
50386,-100,4,2,2,60,0,0
57777,-100,4,2,1,60,0,0
59081,-100,4,2,2,60,0,0
59516,-100,4,2,1,60,0,0
71690,-100,4,2,2,60,0,0
98864,-100,4,2,1,60,0,0
99081,-100,4,2,2,60,0,0
99299,-100,4,2,2,60,0,1
106038,-100,4,2,1,60,0,1
106473,-100,4,2,2,60,0,1
112777,-100,4,2,1,25,0,1
113212,-100,4,2,1,25,0,0

[Colours]
Combo1 : 255,128,64
Combo2 : 128,255,128
Combo3 : 128,128,255
Combo4 : 255,128,128

[HitObjects]
128,72,1908,1,0
160,144,2342,1,0
208,80,2777,1,2
384,72,3647,5,0
352,144,4081,1,0
304,80,4516,1,2
212,228,5386,5,0
256,160,5821,1,0
296,232,6255,1,2
176,336,7125,5,0
256,352,7560,1,0
336,336,7994,1,2
400,192,8864,6,0,B|424:152|424:112,2,80,0|0|2
256,120,10603,6,0,B|256:32,2,80,0|0|2
112,192,12342,6,0,B|88:152|88:112,2,80,0|0|2
160,256,13647,1,0
232,296,14081,1,2
256,72,15821,5,4
336,88,16255,1,2
416,104,16690,1,0
256,312,17994,5,2
176,296,18429,1,0
96,280,18864,1,2
96,104,19734,5,2
176,88,20168,1,0
256,72,20603,1,2
336,88,21038,1,2
416,104,21473,2,0,B|416:192,2,80,0|2|0
336,88,22777,5,4
256,72,23212,1,2
176,88,23647,1,0
336,296,24951,5,2
256,312,25386,1,0
176,296,25821,1,2
168,136,26690,5,2
216,72,27125,1,0
296,72,27560,1,2
344,136,27994,2,10,B|344:240|280:264|236:264|168:240|168:136,1,320,10|4
216,352,35386,5,0
296,336,35821,1,0
296,256,36255,1,2
216,232,36690,6,0,B|120:128|216:16,1,240,4|2
296,16,38429,2,0,B|392:128|296:232,1,240,0|2
360,280,40168,2,0,B|304:348|208:348|152:280,1,240,2|2
119,207,41907,2,0,B|188:112|324:112|392:208,1,320,2|4
336,264,44081,5,8
200,344,44951,1,8
120,208,45821,1,8
256,128,46690,1,8
392,208,47560,5,8
312,344,48429,1,8
176,264,49299,1,8
256,128,50168,1,8
312,72,50603,5,4
424,240,52342,5,4
256,336,54081,5,4
88,240,55821,5,4
200,72,57560,5,4
200,152,57994,2,0,B|184:200|136:200,2,80,8|2|8
272,112,59299,5,4
272,192,59734,2,0,B|288:240|336:240,2,80,8|2|8
256,192,61038,12,4,64516
184,56,70603,5,2
160,132,71038,1,0
136,208,71473,1,4
328,56,72342,5,2
352,132,72777,1,0
376,208,73212,1,2
176,328,74081,5,2
256,312,74516,1,4
336,328,74951,1,2
296,40,76255,5,0
216,40,76690,1,2
96,248,77560,5,2
168,280,77994,1,4
216,344,78429,1,0
416,248,79299,5,0
344,280,79734,1,2
296,344,80168,1,0
256,112,81038,5,2
256,192,81473,1,4
256,272,81908,1,0
104,312,82777,6,0,B|72:280|72:232,2,80,0|2|0
184,296,84081,1,2
256,336,84516,1,0
328,296,84951,1,0
408,312,85386,6,0,B|440:280|440:232,1,80,2|8
344,112,86690,1,8
184,112,87560,1,8
80,232,88429,1,12
208,336,89299,6,8,B|224:256|184:176,1,160
304,336,91038,2,8,B|288:256|328:176,1,160,8|12
368,112,92342,5,2
408,184,92777,2,8,B|445:259|429:339,1,160,8|8
256,352,94516,1,8
82,339,95386,2,8,B|66:259|104:184,1,160,12|8
256,64,97125,6,8,B|256:232,2,160,8|8|4
328,32,99299,5,2
408,40,99734,1,0
456,104,100168,1,0
376,328,101473,5,2
296,312,101908,1,2
216,312,102342,1,4
136,328,102777,1,2
120,40,104516,5,2
176,96,104951,1,0
256,120,105386,1,2
336,96,105821,1,4
392,40,106255,1,4
440,272,107560,5,4
368,312,107994,1,2
72,272,109299,5,4
144,312,109734,1,2
256,48,111038,5,0
256,128,111473,1,2
176,328,113212,5,4
256,344,113647,1,2
336,328,114081,1,0
336,56,115386,5,2
256,40,115821,1,0
176,56,116255,1,2
88,192,117125,5,2
120,264,117560,1,0
184,312,117994,1,0
256,280,118429,1,2
328,312,118864,1,0
392,264,119299,1,2
424,192,119734,1,0
424,112,120168,6,0,B|424:32,2,80,2|0|0
256,72,121908,5,2
256,152,122342,2,0,B|256:232,2,80,0|2|0
88,192,124081,5,2
88,112,124516,2,0,B|88:32,2,80,0|2|0
256,336,127125,5,2
