osu file format v5

[General]
AudioFilename: sakurak.mp3
AudioLeadIn: 0
PreviewTime: 13930
Countdown: 0
SampleSet: Normal
StackLeniency: 0.7
Mode: 0
LetterboxInBreaks: 1
EditorBookmarks: 13964,27877,41789,62659,68528,83528,97441,118311

[Metadata]
Title:Sakura Kagetsu
Artist:AKITO
Creator:Kharl
Version:Hard
Source:
Tags:

[Difficulty]
HPDrainRate:6
CircleSize:6
OverallDifficulty:6
SliderMultiplier:1.2
SliderTickRate:1

[Events]
//Background and Video events
0,0,"sakurabg.png"
1,7024,"sakurak.avi"
//Break Periods
2,111545,121014
//Storyboard Layer 0 (Background)
//Storyboard Layer 1 (Failing)
//Storyboard Layer 2 (Passing)
//Storyboard Layer 3 (Foreground)
//Storyboard Sound Samples
//Background Colour Transformations
3,100,255,0,255

[TimingPoints]
7007,434.782608695652,4,1,1,100,1,0
13964,-100,4,1,1,80,0,1
28311,-100,4,2,1,100,0,0
34833,-100,4,1,1,80,0,0
62659,-100,4,2,1,100,0,0
68311,-100,4,1,1,80,0,0
76137,-100,4,2,1,100,0,0
83528,-100,4,1,1,80,0,1
111355,-100,4,1,1,100,0,0
118311,-100,4,2,1,100,0,0

[Colours]
Combo1 : 255,0,128
Combo2 : 255,128,255
Combo3 : 255,0,255
Combo4 : 255,128,192

[HitObjects]
136,192,13964,1,0
256,192,14398,1,0
312,192,14616,1,0
368,192,14833,2,0,L|368:312,2,119
368,88,16137,5,0
312,88,16355,1,0
256,88,16572,1,0
152,88,17007,2,0,L|32:88,1,119
80,168,17877,5,0
96,216,18094,1,0
128,256,18311,1,0
168,288,18529,1,0
208,312,18746,1,0
208,208,19181,2,2,B|264:208|296:128,1,120
184,136,20050,2,2,B|240:136|272:216,1,120
388,191,20920,5,0
392,72,21355,1,0
336,72,21572,1,0
280,72,21790,2,0,B|160:72,2,120
280,184,23094,5,0
328,216,23311,1,0
376,248,23529,1,0
472,312,23963,2,0,B|344:312,1,120
248,312,24833,1,0
208,272,25050,1,0
168,232,25268,1,0
256,144,25703,1,0
256,192,26137,12,4,27877
352,80,29181,5,0
392,120,29398,1,0
416,168,29616,2,0,B|392:287|240:336,1,240
144,336,30920,5,0
104,296,31137,1,0
80,248,31355,2,0,B|64:176|112:64|224:16|344:32|432:112|432:224,1,480
416,256,33529,5,0
360,288,33746,1,0
360,227,33963,1,0
304,256,34181,1,2
248,288,34398,1,2
247,229,34616,1,2
248,168,34833,6,4,B|160:72,2,120
248,280,36137,1,0
248,280,36355,1,0
248,280,36572,2,4,B|152:360,2,120
368,280,37877,5,0
368,280,38094,1,0
368,280,38311,1,8
368,176,38746,1,0
368,176,38963,1,0
368,176,39181,1,8
256,128,39616,5,0
256,240,40050,1,8
160,176,40485,1,8
56,112,40920,2,8,B|58:247|176:336,1,240
400,48,42877,5,0
344,48,43094,1,0
288,48,43311,1,0
232,48,43529,1,4
56,192,44616,5,0
112,192,44833,1,0
168,192,45050,1,0
224,192,45268,1,4
200,320,45920,5,0
256,320,46137,1,0
352,232,46572,2,0,B|288:128,1,120
176,128,47442,1,0
144,176,47659,1,0
112,224,47877,1,0
232,224,48311,6,4,B|336:304,1,120
408,224,49181,2,8,B|408:96,1,120
312,48,50050,2,4,B|224:136,1,120
160,216,50920,2,8,B|160:344,1,120
272,336,51790,6,0,C|408:336|468:271|409:195|107:230|54:155|115:88|232:88,1,960
336,80,55703,6,8,B|408:80|440:144,2,120
176,80,57442,6,8,B|104:80|72:144,2,120
256,176,59181,5,4
288,72,59616,1,4
344,176,60050,1,4
392,256,60485,1,4
336,256,60920,5,4
304,200,61137,1,4
280,256,61355,1,4
248,200,61572,1,4
224,256,61790,1,4
168,256,62007,1,4
192,200,62224,1,4
136,200,62442,1,4
160,144,62659,6,2,B|176:88|240:40|304:40,2,180
160,240,64398,2,2,B|176:296|240:344|304:344,2,180
160,136,66137,6,2,B|88:184|128:320|336:320|464:128,1,480
256,192,68529,5,0
256,192,68637,1,0
256,192,68746,1,0
160,128,69181,1,4
72,216,69616,1,4
256,192,70268,5,0
256,192,70377,1,0
256,192,70485,1,0
360,256,70920,1,4
432,168,71355,1,4
256,192,72007,5,0
256,192,72116,1,0
256,192,72224,1,0
176,264,72659,1,4
256,336,73094,2,4,B|344:336|448:224|424:88|352:56,1,360
256,64,74833,1,4
256,176,75268,1,4
88,80,76572,5,2
88,312,77877,5,2
112,264,78094,1,2
144,312,78310,1,2
368,312,79616,5,2
424,312,79833,1,2
392,264,80050,1,2
368,48,81355,5,2
256,48,81790,2,2,B|168:81|168:160|352:206|352:288|256:336,1,360
352,256,83529,5,0
256,192,83963,1,0
200,192,84181,1,0
144,192,84398,2,8,L|144:312,2,119
144,88,85702,5,0
200,88,85920,1,0
256,88,86137,1,0
360,88,86572,2,8,L|480:88,1,119
432,168,87442,5,0
416,216,87659,1,0
384,256,87876,1,8
344,288,88094,1,0
304,312,88311,1,8
304,208,88746,2,10,B|240:208|208:152,3,120
124,191,90485,5,0
120,72,90920,1,0
176,72,91137,1,0
232,72,91355,2,8,B|352:72,2,120
232,184,92659,5,0
280,216,92876,1,0
328,248,93094,1,0
408,312,93529,2,8,B|280:312,1,120
144,280,94615,5,0
96,248,94833,1,8
72,200,95050,1,0
72,144,95268,1,8
96,96,95485,1,0
144,64,95703,1,8
248,64,96137,2,10,B|272:64,2,60
336,192,97442,6,4,B|360:192,2,60
280,192,98094,1,0
224,192,98311,2,12,B|161:133|224:88,2,120
128,192,99616,5,0
128,304,100050,2,12,B|64:304|40:232,2,120
248,304,101355,2,0,B|304:256,1,60
296,216,101790,2,0,B|248:176,1,60
232,232,102224,1,12
112,232,102659,5,2
112,176,102877,1,0
160,208,103094,1,12
160,152,103311,1,0
208,176,103529,1,2
256,152,103746,1,0
208,120,103963,1,12
256,96,104181,1,0
312,120,104398,6,0,B|432:120,1,120
432,176,105050,1,0
432,232,105268,2,12,B|432:344,2,120
328,296,106572,1,0
296,344,106790,1,0
272,296,107007,1,0
256,192,107442,1,4
256,192,107877,12,4,111355
176,40,122224,5,0
176,152,122659,1,0
176,264,123094,1,0
272,352,123529,5,0
240,304,123746,1,0
232,248,123963,1,0
256,200,124181,1,0
296,160,124398,1,0
384,256,125268,1,2
