osu file format v5

[General]
AudioFilename: sakurak.mp3
AudioLeadIn: 0
PreviewTime: 13930
Countdown: 0
SampleSet: Normal
StackLeniency: 0.7
Mode: 0
LetterboxInBreaks: 1

[Metadata]
Title:Sakura Kagetsu
Artist:AKITO
Creator:Kharl
Version:Easy
Source:
Tags:

[Difficulty]
HPDrainRate:2
CircleSize:4
OverallDifficulty:1
SliderMultiplier:1
SliderTickRate:2

[Events]
//Background and Video events
0,0,"sakurabg.png"
1,7024,"sakurak.avi"
//Break Periods
2,111545,121014
//Storyboard Layer 0 (Background)
//Storyboard Layer 1 (Failing)
//Storyboard Layer 2 (Passing)
//Storyboard Layer 3 (Foreground)
//Storyboard Sound Samples
//Background Colour Transformations
3,100,255,0,255

[TimingPoints]
7007,434.782608695652,4,1,1,100,1,0
13964,-100,4,1,1,80,0,1
28311,-100,4,2,1,100,0,0
34833,-100,4,1,1,80,0,0
62659,-100,4,2,1,100,0,0
68311,-100,4,1,1,80,0,0
76137,-100,4,2,1,100,0,0
83528,-100,4,1,1,80,0,1
111789,-100,4,1,1,100,0,0
118311,-100,4,2,1,100,0,0

[Colours]
Combo1 : 255,0,128
Combo2 : 255,128,255
Combo3 : 255,0,255
Combo4 : 255,128,192

[HitObjects]
184,192,13963,1,0
256,192,14398,1,0
328,192,14833,1,0
368,88,16137,5,0
296,88,16572,1,0
224,88,17006,1,0
80,168,17876,5,0
120,232,18311,1,0
248,320,19180,2,2,B|376:264|416:184,1,196
408,72,20920,5,0
336,72,21354,1,0
264,72,21789,1,0
96,192,23093,2,0,B|208:192|280:272,1,200
416,88,24833,5,0
344,88,25267,1,0
272,88,25702,1,0
200,88,26137,2,2,B|88:145|88:310|352:328,1,400
376,88,29615,5,2
104,56,31354,5,2
104,192,32224,1,2
104,328,33093,1,2
176,328,33528,2,2,B|288:288|384:104,1,300,2|6
240,72,36137,5,0
168,72,36572,1,0
88,288,37876,5,0
160,288,38311,1,8
296,288,39180,1,8
344,240,39615,1,0
384,184,40050,1,8
424,128,40485,1,8
456,64,40920,2,8,B|248:64,1,200
200,248,42876,6,0,B|143:216|143:148|200:128,1,150,0|4
368,136,44615,6,0,B|425:168|425:236|368:256,1,150,0|4
240,48,46137,5,0
176,72,46572,1,0
128,120,47006,1,0
88,176,47441,1,8
64,240,47876,1,8
120,296,48311,6,4,B|336:296,3,200,4|12|4|12
416,176,51789,6,0,B|416:88|320:16|128:40|48:152|48:256|168:336,1,600
392,256,55702,5,8
392,184,56137,1,8
392,112,56572,1,12
248,112,57441,5,8
248,184,57876,1,8
248,256,58311,1,12
256,192,59180,12,4,62659
128,192,64398,5,2
400,192,66137,5,2
400,64,67006,1,2
256,64,67876,1,6
120,112,68528,2,4,B|221:194|45:243|104:336,1,250
256,336,70267,6,4,B|155:254|331:205|272:112,1,250
408,112,72006,6,4,B|509:194|333:243|392:336,1,250
256,320,73963,5,0
288,256,74398,1,0
256,192,74833,1,4
296,136,75267,1,4
88,80,76572,5,2
88,312,77876,5,2
88,312,78093,1,2
88,312,78311,1,2
368,312,79615,5,2
368,312,79833,1,2
368,312,80050,1,2
368,48,81354,5,2
296,48,81789,2,2,B|204:48|102:97|64:120,1,200
184,192,83528,5,8
256,192,83963,1,0
328,192,84398,1,4
368,88,85702,5,0
296,88,86137,1,0
224,88,86572,1,4
80,168,87441,5,0
152,168,87876,1,8
304,168,88746,2,14,B|400:168|480:64,2,200
256,120,90920,5,0
208,72,91354,1,8
96,192,92659,2,12,B|208:192|280:272,1,200
120,232,94833,5,0
168,176,95267,1,0
216,120,95702,1,0
264,64,96137,2,6,B|368:64,1,100
400,192,97441,5,0
328,192,97876,1,0
256,192,98311,2,12,B|200:104,1,100
112,192,99615,5,0
184,192,100050,1,0
256,192,100485,2,12,B|328:104,1,100
88,296,102659,6,12,B|176:288|328:200|392:40,1,400
224,192,105702,5,8
224,192,105920,1,8
224,192,106137,1,12
296,192,106572,5,8
296,192,106789,1,8
296,192,107007,1,12
256,192,107876,12,4,111354
176,40,122224,5,0
168,240,123528,5,0
232,200,123963,1,0
296,160,124398,1,0
384,256,125267,1,2
