osu file format v14

[General]
AudioFilename: AKIRA - Aoki Tsuki Michite (TV Size).mp3
AudioLeadIn: 2000
PreviewTime: 46187
Countdown: 0
SampleSet: Soft
StackLeniency: 0.7
Mode: 0
LetterboxInBreaks: 0
WidescreenStoryboard: 0

[Editor]
Bookmarks: 50010
DistanceSpacing: 1.4
BeatDivisor: 4
GridSize: 4
TimelineZoom: 1

[Metadata]
Title:Aoki Tsuki Michite -TV Size Ver.-
TitleUnicode:蒼き月満ちて -TV Size Ver.-
Artist:AKIRA
ArtistUnicode:AKIRA
Creator:Rakuen
Version:Normal
Source:黒執事 Book of Circus
Tags:Kuroshitsuji III Black Butler season 3
BeatmapID:505353
BeatmapSetID:215137

[Difficulty]
HPDrainRate:3
CircleSize:3
OverallDifficulty:3
ApproachRate:4
SliderMultiplier:1.2
SliderTickRate:1

[Events]
//Background and Video events
Video,-40,"Kuroshitsuji - Book of Circus ED2.avi"
0,0,"imageedit_2_2532738815.jpg",0,0
//Break Periods
//Storyboard Layer 0 (Background)
//Storyboard Layer 1 (Fail)
//Storyboard Layer 2 (Pass)
//Storyboard Layer 3 (Foreground)
//Storyboard Sound Samples

[TimingPoints]
305,588.235294117647,4,2,1,30,1,0
9716,-100,4,2,1,30,0,0
28540,-100,4,2,1,40,0,0
45010,-100,4,2,1,70,0,0
46187,-100,4,2,1,50,0,0
47363,-100,4,2,1,60,0,1
65599,-100,4,2,1,60,0,0
66187,-100,4,2,1,60,0,1
80893,-100,4,2,2,60,0,1
81040,-100,4,2,1,60,0,1
85010,-100,4,2,1,60,0,0
87363,-100,4,2,1,5,0,0

[Colours]
Combo1 : 248,211,171
Combo2 : 171,252,203
Combo3 : 175,221,254
Combo4 : 249,254,186

[HitObjects]
48,208,305,6,0,P|99:179|158:165,1,120,2|2,0:0|0:0,0:0:0:0:
220,221,1187,2,0,P|270:252|328:268,1,120
412,257,2069,1,0,0:0:0:0:
484,104,2657,6,0,P|432:77|375:91,1,120,2|2,0:0|0:0,0:0:0:0:
304,140,3540,2,0,P|247:154|194:126,1,120
256,72,4422,1,0,0:0:0:0:
87,68,5010,6,0,P|76:126|85:185,1,120,2|2,0:0|0:0,0:0:0:0:
28,244,5893,2,0,P|86:234|145:246,1,120
208,304,6775,1,0,0:0:0:0:
368,352,7363,6,0,B|356:308|356:308|372:224,1,120,2|2,0:0|0:0,0:0:0:0:
388,152,8246,1,0,0:0:0:0:
364,72,8540,2,0,P|337:57|315:36,1,60,2|0,0:0|0:0,0:0:0:0:
248,88,9128,2,0,P|219:96|189:97,1,60,2|2,0:0|0:0,0:0:0:0:
104,88,9716,6,0,P|66:134|51:192,1,120,2|2,0:0|0:0,0:0:0:0:
88,268,10599,1,0,0:0:0:0:
252,227,11187,2,0,L|236:156,2,60
324,268,12069,6,0,P|279:305|212:300,1,120,2|2,0:0|0:0,0:0:0:0:
164,240,12952,1,0,0:0:0:0:
128,164,13246,2,0,L|44:168,1,60
88,84,13834,2,0,L|147:81,1,60
232,72,14422,6,0,P|287:50|347:46,1,120,2|2,0:0|0:0,0:0:0:0:
340,129,15305,2,0,P|394:152|440:191,1,120
375,245,16187,2,0,P|346:249|319:261,1,60
256,320,16775,5,2,0:0:0:0:
188,268,17069,1,0,0:0:0:0:
108,296,17363,1,2,0:0:0:0:
156,136,17952,2,0,P|179:115|194:90,1,60,2|0,0:0|0:0,0:0:0:0:
277,108,18540,2,0,P|278:78|271:49,1,60,2|0,0:0|0:0,0:0:0:0:
352,32,19128,6,0,P|408:64|480:88,1,120,2|2,0:0|0:0,0:0:0:0:
484,164,20010,1,0,0:0:0:0:
332,236,20599,2,0,L|304:160,2,60
283,304,21481,6,0,P|227:322|167:328,1,120,2|2,0:0|0:0,0:0:0:0:
88,300,22363,1,0,0:0:0:0:
48,228,22657,2,0,P|51:198|58:169,1,60
124,116,23246,2,0,P|108:90|89:66,1,60
164,28,23834,6,0,L|308:36,1,120,2|2,0:0|0:0,0:0:0:0:
356,76,24716,1,0,0:0:0:0:
400,148,25010,2,0,P|400:177|393:207,1,60,2|0,0:0|0:0,0:0:0:0:
320,252,25599,2,0,P|313:281|313:311,1,60,2|0,0:0|0:0,0:0:0:0:
240,352,26187,6,0,L|122:328,1,120,2|2,0:0|0:0,0:0:0:0:
76,260,27069,1,0,0:0:0:0:
112,184,27363,2,0,L|229:207,1,120,0|2,0:0|0:0,0:0:0:0:
304,164,28246,1,0,0:0:0:0:
352,95,28540,6,0,P|355:66|352:36,2,60,2|0|2,0:0|0:0|0:0,0:0:0:0:
192,144,29716,2,0,P|188:173|191:203,2,60,2|0|2,0:0|0:0|0:0,0:0:0:0:
356,176,30893,6,0,L|415:165,1,60,2|0,0:0|0:0,0:0:0:0:
444,244,31481,2,0,L|385:255,1,60,2|0,0:0|0:0,0:0:0:0:
368,336,32069,2,0,P|319:327|240:293,1,120,2|2,0:0|0:0,0:0:0:0:
212,228,32952,1,0,0:0:0:0:
188,148,33246,6,0,L|108:156,2,60,2|0|2,0:0|0:0|0:0,0:0:0:0:
316,40,34422,2,0,L|375:34,2,60,2|0|2,0:0|0:0|0:0,0:0:0:0:
188,148,35599,6,0,P|160:160|136:177,1,60,2|0,0:0|0:0,0:0:0:0:
184,248,36187,2,0,P|173:276|168:305,1,60,2|0,0:0|0:0,0:0:0:0:
244,344,36775,2,0,P|292:324|340:292,2,90,2|0|0,0:0|0:0|0:0,0:0:0:0:
224,264,37952,6,0,L|276:136,1,120,2|2,0:0|0:0,0:0:0:0:
276,68,38834,1,0,0:0:0:0:
196,44,39128,2,0,P|148:48|88:36,2,90,2|0|0,0:0|0:0|0:0,0:0:0:0:
204,128,40305,6,0,P|195:181|204:258,1,120,2|2,0:0|0:0,0:0:0:0:
244,320,41187,1,0,0:0:0:0:
320,352,41481,2,0,P|346:338|370:320,1,60,2|0,0:0|0:0,0:0:0:0:
348,240,42069,2,0,P|357:211|361:181,1,60,2|0,0:0|0:0,0:0:0:0:
376,100,42657,6,0,L|256:92,1,120,2|2,0:0|0:0,0:0:0:0:
204,160,43540,1,0,0:0:0:0:
156,228,43834,2,0,L|36:220,1,120,2|2,0:0|0:0,0:0:0:0:
20,136,44716,1,0,0:0:0:0:
68,68,45010,6,0,B|112:60|112:60|184:79,1,120,12|0,0:0|0:0,0:0:0:0:
256,124,45893,1,12,0:0:0:0:
327,79,46187,2,0,B|400:60|400:60|444:68,1,120,2|2,0:0|0:0,0:0:0:0:
480,232,47363,6,0,P|420:226|361:234,1,120,4|8,0:0|0:0,0:0:0:0:
308,168,48246,1,0,0:0:0:0:
260,100,48540,2,0,L|184:108,1,60
160,32,49128,2,0,L|84:40,1,60,8|0,0:0|0:0,0:0:0:0:
40,96,49716,6,0,B|24:172|24:172|44:228,1,120,0|8,0:0|0:0,0:0:0:0:
80,284,50599,1,0,0:0:0:0:
160,312,50893,2,0,P|187:299|215:290,1,60
256,220,51481,2,0,P|284:230|310:244,1,60,8|0,0:0|0:0,0:0:0:0:
384,284,52069,6,0,B|428:148,1,120,4|8,0:0|0:0,0:0:0:0:
416,84,52952,2,0,P|358:96|299:89,1,120
220,120,53834,2,0,P|203:95|193:66,1,60,8|0,0:0|0:0,0:0:0:0:
112,80,54422,6,0,P|95:137|93:196,1,120,0|8,0:0|0:0,0:0:0:0:
164,244,55304,1,0,0:0:0:0:
232,192,55599,2,0,P|291:195|348:213,1,120,0|8,0:0|0:0,0:0:0:0:
388,288,56481,1,0,0:0:0:0:
336,356,56775,6,0,P|276:353|219:335,1,120,4|8,0:0|0:0,0:0:0:0:
136,344,57657,1,0,0:0:0:0:
100,268,57952,2,0,B|176:228|176:228|192:184,1,120,0|8,0:0|0:0,0:0:0:0:
164,116,58834,1,0,0:0:0:0:
100,172,59128,5,0,0:0:0:0:
256,240,59716,1,8,0:0:0:0:
292,164,60010,1,0,0:0:0:0:
328,88,60305,2,0,L|386:75,1,60
432,144,60893,2,0,L|491:147,1,60,8|8,0:0|0:0,0:0:0:0:
496,232,61481,6,0,P|479:288|428:320,1,120,4|8,0:0|0:0,0:0:0:0:
411,237,62363,2,0,B|387:225|356:224|356:224|332:196|302:192,1,120
288,276,63246,2,0,P|312:308|320:336,1,60,8|0,0:0|0:0,0:0:0:0:
236,344,63834,6,0,L|112:340,1,120,4|12,0:0|0:0,0:0:0:0:
52,288,64716,1,0,0:0:0:0:
64,204,65010,2,0,L|183:207,1,120,0|8,0:0|0:0,0:0:0:0:
348,164,66187,6,0,P|360:105|347:47,1,120,4|8,0:0|0:0,0:0:0:0:
272,84,67069,2,0,P|213:96|155:84,1,120
84,132,67952,2,0,P|79:161|82:191,1,60,8|0,0:0|0:0,0:0:0:0:
140,252,68540,6,0,L|284:236,1,120,0|8,0:0|0:0,0:0:0:0:
412,168,69716,2,0,L|430:111,1,60
348,96,70305,2,0,L|366:39,1,60,8|0,0:0|0:0,0:0:0:0:
284,16,70893,6,0,P|253:66|230:122,1,120,4|8,0:0|0:0,0:0:0:0:
148,136,71775,2,0,P|161:194|184:249,1,120
268,260,72657,1,8,0:0:0:0:
328,200,72952,1,0,0:0:0:0:
412,212,73246,6,0,L|384:352,2,120,0|8|0,0:0|0:0|0:0,0:0:0:0:
244,196,75010,1,8,0:0:0:0:
172,244,75304,1,0,0:0:0:0:
92,216,75599,6,0,P|96:164|120:76,1,120,4|8,0:0|0:0,0:0:0:0:
184,52,76481,1,0,0:0:0:0:
251,100,76775,2,0,P|281:104|311:101,1,60
368,164,77363,2,0,P|391:145|411:123,1,60,8|0,0:0|0:0,0:0:0:0:
480,172,77952,6,0,L|472:304,2,120,0|8|0,0:0|0:0|0:0,0:0:0:0:
411,122,79422,1,0,0:0:0:0:
344,176,79716,2,0,L|340:235,1,60,8|0,0:0|0:0,0:0:0:0:
372,312,80305,6,0,P|289:301|264:200,1,180,4|0,0:0|0:0,0:0:0:0:
276,136,81481,2,0,P|290:110|296:81,1,60
212,85,82069,2,0,P|185:70|156:64,1,60,8|0,0:0|0:0,0:0:0:0:
156,149,82657,6,0,B|136:193|136:193|156:281,1,120,4|8,0:0|0:0,0:0:0:0:
204,328,83540,2,0,P|264:344|320:316,1,120,4|0,0:0|0:0,0:0:0:0:
256,260,84422,2,0,P|268:244|284:196,1,60,8|0,0:0|0:0,0:0:0:0:
256,128,85010,5,4,0:0:0:0:
256,192,85157,12,0,87363,0:0:0:0:
