osu file format v14

[General]
AudioFilename: AKIRA - Aoki Tsuki Michite (TV Size).mp3
AudioLeadIn: 2000
PreviewTime: 46187
Countdown: 0
SampleSet: Soft
StackLeniency: 0.7
Mode: 0
LetterboxInBreaks: 0
WidescreenStoryboard: 1

[Editor]
DistanceSpacing: 1.2
BeatDivisor: 4
GridSize: 4
TimelineZoom: 1.3

[Metadata]
Title:Aoki Tsuki Michite -TV Size Ver.-
TitleUnicode:蒼き月満ちて -TV Size Ver.-
Artist:AKIRA
ArtistUnicode:AKIRA
Creator:Rakuen
Version:Insane
Source:黒執事 Book of Circus
Tags:Kuroshitsuji III Black Butler season 3
BeatmapID:508267
BeatmapSetID:215137

[Difficulty]
HPDrainRate:6
CircleSize:4
OverallDifficulty:7
ApproachRate:8
SliderMultiplier:2
SliderTickRate:1

[Events]
//Background and Video events
Video,-40,"Kuroshitsuji - Book of Circus ED2.avi"
0,0,"imageedit_2_2532738815.jpg",0,0
//Break Periods
//Storyboard Layer 0 (Background)
//Storyboard Layer 1 (Fail)
//Storyboard Layer 2 (Pass)
//Storyboard Layer 3 (Foreground)
//Storyboard Sound Samples

[TimingPoints]
305,588.235294117647,4,2,1,30,1,0
305,-142.857142857143,4,2,1,30,0,0
9716,-125,4,2,1,30,0,0
27952,-83.3333333333333,4,2,1,30,0,0
28246,-100,4,2,1,30,0,0
28540,-111.111111111111,4,2,1,40,0,0
44422,-90.9090909090909,4,2,1,40,0,0
45010,-83.3333333333333,4,2,1,70,0,0
46187,-166.666666666667,4,2,1,50,0,0
46628,-166.666666666667,4,2,1,5,0,0
46775,-125,4,2,1,50,0,0
47216,-125,4,2,1,5,0,0
47363,-100,4,2,1,60,0,1
65599,-100,4,2,1,60,0,0
66187,-100,4,2,1,60,0,1
85010,-100,4,2,1,60,0,0
87363,-100,4,2,1,5,0,0

[Colours]
Combo1 : 248,211,171
Combo2 : 171,252,203
Combo3 : 175,221,254
Combo4 : 249,254,186

[HitObjects]
76,282,305,5,2,0:0:0:0:
156,172,599,1,0,0:0:0:0:
156,308,893,1,2,0:0:0:0:
76,198,1187,1,0,0:0:0:0:
203,239,1481,1,0,0:0:0:0:
292,328,1775,1,0,0:0:0:0:
292,328,1922,1,0,0:0:0:0:
292,328,2069,2,0,P|332:312|360:292,1,69.9999978637696,2|0,0:0|0:0,0:0:0:0:
436,102,2657,5,2,0:0:0:0:
356,212,2951,1,0,0:0:0:0:
356,76,3245,1,2,0:0:0:0:
436,186,3539,1,0,0:0:0:0:
309,145,3833,1,0,0:0:0:0:
220,56,4128,1,0,0:0:0:0:
220,56,4275,1,0,0:0:0:0:
220,56,4422,2,0,P|180:72|152:92,1,69.9999978637696,2|0,0:0|0:0,0:0:0:0:
136,284,5010,5,2,0:0:0:0:
84,140,5304,1,0,0:0:0:0:
196,228,5599,1,2,0:0:0:0:
72,244,5893,1,0,0:0:0:0:
256,316,6187,1,0,0:0:0:0:
376,284,6481,1,0,0:0:0:0:
376,284,6628,1,0,0:0:0:0:
376,284,6775,2,0,L|396:200,1,69.9999978637696,2|0,0:0|0:0,0:0:0:0:
196,228,7363,6,0,P|162:238|131:255,1,69.9999978637696,2|0,0:0|0:0,0:0:0:0:
32,208,7952,2,0,P|43:174|60:143,1,69.9999978637696,2|0,0:0|0:0,0:0:0:0:
160,96,8540,5,2,0:0:0:0:
256,192,8834,1,0,0:0:0:0:
352,96,9128,1,2,0:0:0:0:
256,224,9422,1,2,0:0:0:0:
256,208,9569,1,0,0:0:0:0:
256,192,9716,5,2,0:0:0:0:
160,192,10010,1,0,0:0:0:0:
160,96,10304,1,2,0:0:0:0:
75,143,10599,2,0,P|68:67|128:5,1,160
160,192,11481,2,0,P|128:224|76:244,1,80
160,96,12069,5,2,0:0:0:0:
256,228,12363,1,0,0:0:0:0:
324,80,12657,1,2,0:0:0:0:
248,136,12952,1,0,0:0:0:0:
372,165,13246,2,0,L|460:156,1,80
324,80,13834,1,0,0:0:0:0:
381,260,14128,1,0,0:0:0:0:
324,80,14422,6,0,P|278:142|293:218,1,160,2|2,0:0|0:0,0:0:0:0:
168,184,15304,2,0,P|156:107|92:64,1,160
76,160,16187,1,0,0:0:0:0:
104,252,16481,1,0,0:0:0:0:
232,324,16775,6,0,B|260:332|260:332|309:322,1,80,2|0,0:0|0:0,0:0:0:0:
368,244,17363,2,0,B|396:236|396:236|446:245,1,80,2|0,0:0|0:0,0:0:0:0:
355,147,17952,2,0,P|325:121|303:88,1,80,2|0,0:0|0:0,0:0:0:0:
208,88,18540,2,0,P|186:121|156:147,1,80,2|0,0:0|0:0,0:0:0:0:
172,244,19128,5,2,0:0:0:0:
256,288,19422,1,0,0:0:0:0:
340,244,19716,1,2,0:0:0:0:
368,152,20010,2,0,L|288:141,1,80
340,244,20599,2,0,L|436:232,2,80
256,288,21481,5,2,0:0:0:0:
144,352,21775,1,0,0:0:0:0:
204,184,22069,1,2,0:0:0:0:
340,244,22363,1,0,0:0:0:0:
260,104,22657,2,0,P|222:90|182:87,1,80
138,227,23246,2,0,P|174:210|204:184,1,80
304,248,23834,5,2,0:0:0:0:
368,320,24128,1,0,0:0:0:0:
144,320,24422,1,2,0:0:0:0:
208,248,24716,1,0,0:0:0:0:
304,248,25010,2,0,P|331:219|351:185,1,80,2|0,0:0|0:0,0:0:0:0:
212,140,25599,2,0,P|210:100|200:61,1,80,2|0,0:0|0:0,0:0:0:0:
68,124,26187,6,0,B|56:152|56:152|65:200,1,80,2|0,0:0|0:0,0:0:0:0:
157,340,26775,2,0,B|169:312|169:312|160:264,1,80,2|0,0:0|0:0,0:0:0:0:
200,156,27363,2,0,P|240:152|300:168,1,80
292,168,27804,1,0,0:0:0:0:
307,180,27952,6,0,P|303:204|364:160,1,179.999994506836,2|0,0:0|0:0,0:0:0:0:
432,80,28540,6,0,L|336:72,1,89.9999972534181,2|0,0:0|0:0,0:0:0:0:
292,168,29128,2,0,L|381:175,1,89.9999972534181,2|0,0:0|0:0,0:0:0:0:
229,36,29716,2,0,P|186:51|146:71,1,89.9999972534181,2|0,0:0|0:0,0:0:0:0:
128,159,30157,1,0,0:0:0:0:
209,202,30304,2,0,P|251:187|291:168,1,89.9999972534181,2|0,0:0|0:0,0:0:0:0:
360,40,30893,5,2,0:0:0:0:
384,144,31187,1,0,0:0:0:0:
488,176,31481,1,2,0:0:0:0:
464,72,31775,1,0,0:0:0:0:
256,120,32069,2,0,B|224:132|224:132|170:115,1,89.9999972534181,2|0,0:0|0:0,0:0:0:0:
124,192,32510,1,0,0:0:0:0:
170,268,32657,2,0,B|224:252|224:252|256:264,1,89.9999972534181,2|0,0:0|0:0,0:0:0:0:
432,160,33246,6,0,B|400:128|392:72|392:72|368:112,1,134.999995880127,2|0,0:0|0:0,0:0:0:0:
373,103,33834,1,2,0:0:0:0:
256,280,34128,2,0,P|276:240|284:184,1,89.9999972534181,0|2,0:0|0:0,0:0:0:0:
196,56,34716,1,0,0:0:0:0:
144,192,35010,1,2,0:0:0:0:
256,280,35304,1,0,0:0:0:0:
368,192,35599,6,0,P|375:147|368:103,1,89.9999972534181,2|0,0:0|0:0,0:0:0:0:
143,103,36187,2,0,P|136:147|144:192,1,89.9999972534181,2|0,0:0|0:0,0:0:0:0:
256,280,36775,2,0,L|356:280,1,89.9999972534181,2|0,0:0|0:0,0:0:0:0:
368,192,37216,2,0,L|316:192,1,44.999998626709,2|0,0:0|0:0,0:0:0:0:
256,104,37510,2,0,L|346:104,1,89.9999972534181,2|0,0:0|0:0,0:0:0:0:
176,148,37952,6,0,P|164:96|184:48,1,89.9999972534181,2|0,0:0|0:0,0:0:0:0:
336,236,38540,2,0,P|348:288|328:336,1,89.9999972534181,2|0,0:0|0:0,0:0:0:0:
196,280,39128,2,0,B|160:272|160:272|88:292,1,89.9999972534181,2|0,0:0|0:0,0:0:0:0:
175,192,39569,2,0,P|178:169|176:147,1,44.999998626709,2|0,0:0|0:0,0:0:0:0:
59,83,39863,2,0,P|66:127|87:167,1,89.9999972534181,2|0,0:0|0:0,0:0:0:0:
272,100,40304,6,0,P|219:47|291:27,1,179.999994506836,2|2,0:0|0:0,0:0:0:0:
64,200,41187,1,0,0:0:0:0:
316,172,41481,1,2,0:0:0:0:
180,264,41775,1,0,0:0:0:0:
48,320,42069,2,0,P|37:277|42:233,1,89.9999972534181,2|0,0:0|0:0,0:0:0:0:
52,216,42510,1,0,0:0:0:0:
64,200,42657,6,0,P|88:160|80:72,1,134.999995880127,2|0,0:0|0:0,0:0:0:0:
72,60,43246,2,0,L|180:52,1,89.9999972534181,2|0,0:0|0:0,0:0:0:0:
328,140,43834,1,2,0:0:0:0:
160,248,44128,1,0,0:0:0:0:
399,219,44422,6,0,P|435:147|411:71,1,165.000005035401,2|0,0:0|0:0,0:0:0:0:
256,192,45010,5,12,0:0:0:0:
260,304,45157,2,0,P|202:289|160:248,1,119.999996337891,8|8,0:0|0:0,0:0:0:0:
176,128,45599,2,0,P|180:98|178:68,1,59.9999981689454,8|4,0:3|0:3,0:0:0:0:
60,96,45893,2,0,P|55:125|57:155,1,59.9999981689454,12|8,0:0|0:0,0:0:0:0:
300,152,46187,6,0,P|340:128|376:88,1,89.9999972534181,2|0,0:0|0:0,0:0:0:0:
456,168,46775,6,0,B|448:208|448:208|472:260|472:260|440:248,1,120,2|0,0:0|0:0,0:0:0:0:
312,264,47363,6,0,P|260:276|200:308,1,100,4|0,0:0|0:0,0:0:0:0:
72,228,47952,1,8,0:0:0:0:
132,80,48246,1,0,0:0:0:0:
148,92,48393,1,8,0:0:0:0:
164,104,48540,2,0,L|264:112,1,100
368,236,49128,2,0,L|268:228,1,100,8|0,0:0|0:0,0:0:0:0:
248,228,49569,1,0,0:0:0:0:
227,227,49716,6,0,P|220:251|220:275,1,50
301,352,50010,2,0,P|308:328|308:304,1,50
368,236,50304,1,8,0:0:0:0:
168,180,50599,1,0,0:0:0:0:
156,164,50746,1,8,0:0:0:0:
144,148,50893,2,0,L|148:98,1,50,0|8,0:0|0:0,0:0:0:0:
368,236,51187,2,0,L|364:286,1,50
306,107,51481,2,0,P|321:86|332:64,1,50,8|0,0:0|0:0,0:0:0:0:
192,268,51775,2,0,P|196:292|204:316,1,50
256,192,52069,5,4,0:0:0:0:
380,293,52363,1,0,0:0:0:0:
504,192,52657,1,8,0:0:0:0:
356,60,52952,1,0,0:0:0:0:
368,76,53099,1,8,0:0:0:0:
380,91,53246,2,0,L|380:152,1,50,0|8,0:0|0:0,0:0:0:0:
256,242,53540,2,0,L|256:192,1,50
128,92,53834,2,0,P|180:84|236:56,1,100,8|0,0:0|0:0,0:0:0:0:
240,56,54275,1,8,0:0:0:0:
256,44,54422,6,0,L|316:48,1,50
422,140,54716,2,0,L|372:136,1,50
328,236,55010,1,8,0:0:0:0:
152,128,55304,1,0,0:0:0:0:
148,148,55452,1,8,0:0:0:0:
143,167,55599,2,0,P|143:192|148:217,1,50,0|8,0:0|0:0,0:0:0:0:
334,106,55893,2,0,P|312:94|288:85,1,50
290,302,56187,1,8,0:0:0:0:
290,302,56334,2,0,P|288:252|271:205,1,100
108,288,56775,6,0,P|180:316|140:232,1,200,4|8,0:0|0:0,0:0:0:0:
128,92,57657,1,0,0:0:0:0:
144,80,57804,1,8,0:0:0:0:
160,68,57952,2,0,L|220:68,1,50,0|8,0:0|0:0,0:0:0:0:
240,228,58246,1,0,0:0:0:0:
224,240,58393,2,0,L|172:240,1,50,0|8,0:0|0:0,0:0:0:0:
276,144,58687,2,0,P|328:132|376:108,1,100
442,167,59128,6,0,P|452:72|374:18,1,200,0|8,0:0|0:0,0:0:0:0:
369,111,59863,1,0,0:0:0:0:
356,200,60010,2,0,B|384:272,1,50,0|8,0:0|0:0,0:0:0:0:
275,144,60304,2,0,P|264:166|259:190,1,50,0|8,0:0|0:0,0:0:0:0:
442,167,60599,2,0,P|465:159|486:146,1,50
348,66,60893,2,0,P|355:89|369:111,1,50,8|0,0:0|0:0,0:0:0:0:
144,60,61187,1,8,0:0:0:0:
128,72,61334,1,8,0:0:0:0:
111,84,61481,6,0,P|91:129|86:178,1,100,4|0,0:0|0:0,0:0:0:0:
222,350,62069,2,0,P|242:305|248:256,1,100,8|0,0:0|0:0,0:0:0:0:
200,180,62510,1,0,0:0:0:0:
220,92,62657,2,0,L|280:80,2,50,0|8|0,0:0|0:0|0:0,0:0:0:0:
116,240,63246,1,8,0:0:0:0:
360,260,63540,1,8,0:0:0:0:
344,248,63687,1,8,0:0:0:0:
327,231,63834,6,0,P|335:207|336:182,1,50,4|0,0:0|0:0,0:0:0:0:
184,152,64128,2,0,P|176:176|175:201,1,50
420,152,64422,2,0,P|408:130|391:111,1,50,12|0,0:0|0:0,0:0:0:0:
92,232,64716,2,0,P|103:253|120:272,1,50,0|8,0:0|0:0,0:0:0:0:
425,231,65010,6,0,P|376:223|327:230,1,100
268,300,65452,1,0,0:0:0:0:
256,316,65599,2,0,P|231:320|206:317,1,50,8|0,0:0|0:0,0:0:0:0:
92,232,65893,2,0,P|116:227|141:230,1,50
152,100,66187,6,0,B|104:88|44:108|44:108|66:74,1,150,4|0,0:0|0:0,0:0:0:0:
226,47,66775,2,0,P|239:95|232:144,1,100,8|0,0:0|0:0,0:0:0:0:
80,248,67216,1,8,0:0:0:0:
91,232,67363,2,0,P|116:227|141:230,1,50,0|8,0:0|0:0,0:0:0:0:
236,304,67657,2,0,P|240:328|237:353,1,50
288,196,67952,2,0,L|312:80,1,100,8|0,0:0|0:0,0:0:0:0:
308,80,68393,1,0,0:0:0:0:
307,61,68540,6,0,P|283:60|258:57,1,50
155,138,68834,2,0,P|179:134|203:128,1,50
102,65,69128,1,8,0:0:0:0:
24,228,69422,1,0,0:0:0:0:
36,244,69569,1,8,0:0:0:0:
47,259,69716,2,0,P|72:263|97:262,1,50,0|8,0:0|0:0,0:0:0:0:
204,140,70010,2,0,P|179:137|155:138,1,50
236,280,70304,2,0,P|232:304|233:329,1,50,8|0,0:0|0:0,0:0:0:0:
340,98,70599,2,0,P|324:78|307:61,1,50
156,224,70893,6,0,B|100:244|44:228|44:228|84:208,1,150,4|0,0:0|0:0,0:0:0:0:
123,135,71481,2,0,P|111:88|123:40,1,100,8|0,0:0|0:0,0:0:0:0:
260,60,71922,1,8,0:0:0:0:
249,78,72069,2,0,L|200:88,1,50,0|8,0:0|0:0,0:0:0:0:
156,224,72363,2,0,L|205:234,1,50
123,135,72657,1,8,0:0:0:0:
72,304,72952,1,8,0:0:0:0:
88,316,73099,1,8,0:0:0:0:
104,328,73246,6,0,P|153:331|202:341,1,100
412,168,73834,2,0,P|362:170|313:183,1,100,8|0,0:0|0:0,0:0:0:0:
236,228,74275,1,8,0:0:0:0:
220,236,74422,2,0,P|197:224|177:209,1,50,0|8,0:0|0:0,0:0:0:0:
96,244,74716,1,0,0:0:0:0:
81,234,74863,2,0,P|79:209|82:184,1,50,0|8,0:0|0:0,0:0:0:0:
80,96,75157,2,0,B|144:108|144:108|184:96,1,100
257,144,75599,6,0,P|268:96|256:48,2,100,4|0|8,0:0|0:0|0:0,0:0:0:0:
180,192,76334,1,0,0:0:0:0:
95,220,76481,2,0,P|92:195|94:170,1,50,0|8,0:0|0:0,0:0:0:0:
160,108,76775,2,0,P|162:83|158:58,1,50,0|8,0:0|0:0,0:0:0:0:
244,32,77069,1,0,0:0:0:0:
256,48,77216,2,0,L|305:40,1,50,0|8,0:0|0:0,0:0:0:0:
388,124,77510,2,0,L|289:141,1,100
180,192,77952,6,0,P|132:188|80:192,2,100,0|0|8,0:0|0:0|0:0,0:0:0:0:
244,256,78687,1,0,0:0:0:0:
208,340,78834,1,0,0:0:0:0:
224,352,78981,1,8,0:0:0:0:
240,363,79128,2,0,P|262:352|282:337,1,50,0|8,0:0|0:0,0:0:0:0:
236,184,79422,1,0,0:0:0:0:
245,206,79569,2,0,P|247:231|244:256,1,50,0|8,0:0|0:0,0:0:0:0:
60,234,79863,2,0,B|160:228,1,100,0|8,0:0|0:0,0:0:0:0:
164,140,80304,6,0,B|156:108|156:108|176:40,2,100,4|0|8,0:0|0:0|0:0,0:0:0:0:
252,300,81187,2,0,P|266:276|288:248,1,50,0|8,0:0|0:0,0:0:0:0:
288,167,81481,2,0,P|263:172|239:179,1,50,0|8,0:0|0:0,0:0:0:0:
368,208,81775,2,0,P|375:159|360:111,1,100,0|8,0:0|0:0,0:0:0:0:
146,26,82363,2,0,P|171:29|195:35,1,50,8|8,0:0|0:0,0:0:0:0:
264,92,82657,6,0,B|224:117|200:124|200:124|164:104|96:104,1,150,4|8,0:0|0:0,0:0:0:0:
120,196,83246,2,0,P|152:204|184:228,1,50,8|0,0:0|0:0,0:0:0:0:
108,280,83540,2,0,P|52:248|44:160,1,150,4|0,0:0|0:0,0:0:0:0:
248,84,84128,1,0,0:0:0:0:
264,92,84275,2,0,P|281:111|292:133,1,50,8|8,0:0|0:0,0:0:0:0:
232,324,84569,2,0,P|234:300|242:276,1,50,8|0,0:0|0:0,0:0:0:0:
408,260,84863,1,0,0:0:0:0:
208,164,85010,5,4,0:0:0:0:
256,192,85157,12,0,87363,0:0:0:0:
