osu file format v14

[General]
AudioFilename: AKIRA - Aoki Tsuki Michite (TV Size).mp3
AudioLeadIn: 2000
PreviewTime: 46187
Countdown: 0
SampleSet: Soft
StackLeniency: 0.7
Mode: 0
LetterboxInBreaks: 0
WidescreenStoryboard: 0

[Editor]
DistanceSpacing: 1.2
BeatDivisor: 4
GridSize: 4
TimelineZoom: 1

[Metadata]
Title:Aoki Tsuki Michite -TV Size Ver.-
TitleUnicode:蒼き月満ちて -TV Size Ver.-
Artist:AKIRA
ArtistUnicode:AKIRA
Creator:Rakuen
Version:Easy
Source:黒執事 Book of Circus
Tags:Kuroshitsuji III Black Butler season 3
BeatmapID:506020
BeatmapSetID:215137

[Difficulty]
HPDrainRate:2
CircleSize:3
OverallDifficulty:2
ApproachRate:3
SliderMultiplier:0.8
SliderTickRate:1

[Events]
//Background and Video events
Video,-40,"Kuroshitsuji - Book of Circus ED2.avi"
0,0,"imageedit_2_2532738815.jpg",0,0
//Break Periods
//Storyboard Layer 0 (Background)
//Storyboard Layer 1 (Fail)
//Storyboard Layer 2 (Pass)
//Storyboard Layer 3 (Foreground)
//Storyboard Sound Samples

[TimingPoints]
305,588.235294117647,4,2,1,30,1,0
9716,-100,4,2,1,30,0,0
28540,-100,4,2,1,40,0,0
45010,-100,4,2,1,70,0,0
46187,-100,4,2,1,50,0,0
47363,-100,4,2,1,60,0,1
47952,-100,4,2,2,60,0,1
48099,-100,4,2,1,60,0,1
50304,-100,4,2,2,60,0,1
50452,-100,4,2,1,60,0,1
52657,-100,4,2,2,60,0,1
52804,-100,4,2,1,60,0,1
55010,-100,4,2,2,60,0,1
55157,-100,4,2,1,60,0,1
62069,-100,4,2,2,60,0,1
62216,-100,4,2,1,60,0,1
65599,-100,4,2,1,60,0,0
66187,-100,4,2,1,60,0,1
66775,-100,4,2,2,60,0,1
66922,-100,4,2,1,60,0,1
73834,-100,4,2,2,60,0,1
73981,-100,4,2,1,60,0,1
76187,-100,4,2,2,60,0,1
76334,-100,4,2,1,60,0,1
80893,-100,4,2,2,60,0,1
81040,-100,4,2,1,60,0,1
83246,-100,4,2,2,60,0,1
83393,-100,4,2,1,60,0,1
85010,-100,4,2,1,60,0,0
87363,-100,4,2,1,5,0,0

[Colours]
Combo1 : 248,211,171
Combo2 : 171,252,203
Combo3 : 175,221,254
Combo4 : 249,254,186

[HitObjects]
76,136,305,6,0,P|67:174|72:214,1,80,2|2,0:0|0:0,0:0:0:0:
162,248,1481,2,0,P|201:244|240:252,1,80
316,312,2657,2,0,L|408:300,2,80,2|2|0,0:0|0:0|0:0,0:0:0:0:
256,228,4422,1,0,0:0:0:0:
180,168,5010,6,0,L|100:157,1,80,2|2,0:0|0:0,0:0:0:0:
108,60,6187,1,0,0:0:0:0:
196,24,6775,1,0,0:0:0:0:
272,88,7363,2,0,P|320:104|368:104,1,80,2|2,0:0|0:0,0:0:0:0:
432,152,8540,2,0,P|457:182|473:219,1,80,2|2,0:0|0:0,0:0:0:0:
380,232,9716,5,2,0:0:0:0:
295,276,10304,2,0,P|219:296|140:272,1,160,2|0,0:0|0:0,0:0:0:0:
52,252,12069,2,0,P|71:217|101:191,1,80,2|2,0:0|0:0,0:0:0:0:
180,131,13246,2,0,P|210:106|229:71,1,80
139,44,14422,5,2,0:0:0:0:
85,122,15010,2,0,P|112:200|188:228,1,160,2|0,0:0|0:0,0:0:0:0:
180,132,16775,1,2,0:0:0:0:
139,44,17363,1,2,0:0:0:0:
84,124,17952,2,0,P|68:168|64:212,1,80,2|2,0:0|0:0,0:0:0:0:
108,284,19128,5,2,0:0:0:0:
192,240,19716,2,0,L|192:144,2,80,2|0|0,0:0|0:0|0:0,0:0:0:0:
220,332,21481,2,0,P|264:308|304:296,1,80,2|2,0:0|0:0,0:0:0:0:
328,208,22657,2,0,P|376:222|412:241,1,80,0|0,0:0|0:0,0:0:0:0:
464,160,23834,6,0,B|453:121|420:88|420:88|384:94|350:66,1,160,2|2,0:0|0:0,0:0:0:0:
256,40,25599,1,2,0:0:0:0:
161,66,26187,2,0,B|127:94|91:88|91:88|58:121|48:160,1,160,2|0,0:0|0:0,0:0:0:0:
84,248,27952,1,0,0:0:0:0:
172,280,28540,6,0,P|236:276|340:232,1,160,2|2,0:0|0:0,0:0:0:0:
368,156,30304,1,2,0:0:0:0:
324,72,30893,2,0,P|260:76|156:120,1,160,2|2,0:0|0:0,0:0:0:0:
132,196,32657,1,2,0:0:0:0:
112,292,33246,6,0,L|288:268,1,160,2|2,0:0|0:0,0:0:0:0:
354,225,35010,1,2,0:0:0:0:
409,301,35599,2,0,P|333:316|271:271,1,160,2|2,0:0|0:0,0:0:0:0:
252,176,37363,1,2,0:0:0:0:
172,228,37952,6,0,P|157:152|202:90,1,160,2|2,0:0|0:0,0:0:0:0:
300,80,39716,1,2,0:0:0:0:
384,124,40304,2,0,P|399:200|354:262,1,160,2|2,0:0|0:0,0:0:0:0:
268,308,42069,1,2,0:0:0:0:
172,316,42657,6,0,L|204:160,1,160,2|2,0:0|0:0,0:0:0:0:
124,104,44422,1,2,0:0:0:0:
56,172,45010,2,0,L|32:293,2,120,12|12|2,0:0|0:0|0:0,0:0:0:0:
144,212,47363,6,0,P|218:236|287:201,1,160,4|0,0:0|0:0,0:0:0:0:
212,144,49128,1,8,0:0:0:0:
136,88,49716,2,0,P|205:53|279:77,1,160
328,160,51481,1,8,0:0:0:0:
328,256,52069,6,0,B|288:280|252:276|252:276|232:320|188:336,1,160,4|0,0:0|0:0,0:0:0:0:
156,244,53834,1,8,0:0:0:0:
180,152,54422,2,0,B|276:132|276:132|336:152,1,160
416,204,56187,1,8,0:0:0:0:
504,164,56775,6,0,P|507:124|504:84,1,80,4|8,0:0|0:0,0:0:0:0:
420,40,57952,2,0,P|380:36|340:39,1,80,0|8,0:0|0:0,0:0:0:0:
264,100,59128,1,0,0:0:0:0:
312,184,59716,1,8,0:0:0:0:
276,272,60304,2,0,P|236:275|196:271,1,80,0|8,0:0|0:0,0:0:0:0:
140,196,61481,6,0,L|132:72,2,120,4|0|8,0:0|0:0|0:0,0:0:0:0:
224,243,63834,2,0,P|263:236|299:219,1,80,4|12,0:0|0:0,0:0:0:0:
388,252,65010,2,0,P|410:218|423:181,1,80,0|8,0:0|0:0,0:0:0:0:
400,88,66187,6,0,L|236:104,1,160,4|0,0:0|0:0,0:0:0:0:
156,148,67952,1,8,0:0:0:0:
64,120,68540,2,0,P|52:80|48:36,2,80,0|8|0,0:0|0:0|0:0,0:0:0:0:
140,180,70304,1,8,0:0:0:0:
212,116,70893,6,0,L|308:104,1,80,4|8,0:0|0:0,0:0:0:0:
316,200,72069,2,0,L|412:188,1,80,0|8,0:0|0:0,0:0:0:0:
424,284,73246,2,0,P|344:300|260:332,1,160
192,276,75010,1,8,0:0:0:0:
123,343,75599,6,0,P|95:271|129:201,1,160,4|0,0:0|0:0,0:0:0:0:
220,172,77363,1,8,0:0:0:0:
304,220,77952,2,0,L|384:213,1,80,0|8,0:0|0:0,0:0:0:0:
428,128,79128,2,0,L|348:121,1,80,0|8,0:0|0:0,0:0:0:0:
288,48,80304,6,0,P|210:36|131:48,1,160,4|0,0:0|0:0,0:0:0:0:
72,124,82069,1,8,0:0:0:0:
140,192,82657,2,0,B|156:240|156:240|140:312,2,120,4|4|8,0:0|0:0|0:0,0:0:0:0:
256,192,85010,12,0,87363,0:0:0:0:
