osu file format v13

[General]
AudioFilename: Extra Magic Hours.mp3
AudioLeadIn: 0
PreviewTime: 53055
Countdown: 0
SampleSet: Soft
StackLeniency: 0.7
Mode: 0
LetterboxInBreaks: 0
WidescreenStoryboard: 0

[Editor]
DistanceSpacing: 1.1
BeatDivisor: 6
GridSize: 4
TimelineZoom: 1.5

[Metadata]
Title:Extra*Magic*Hours
TitleUnicode:エクストラ・マジック・アワー
Artist:AKINO with bless4
ArtistUnicode:AKINO with bless4
Creator:taka1235
Version:Insane
Source:Amagi Brilliant Park
Tags:甘城ブリリアントパーク opening
BeatmapID:516749
BeatmapSetID:220812

[Difficulty]
HPDrainRate:7
CircleSize:4
OverallDifficulty:8
ApproachRate:9
SliderMultiplier:1.92
SliderTickRate:1

[Events]
//Background and Video events
0,0,"amaburi1.jpg",0,0
Video,-181,"amagi.avi"
//Break Periods
//Storyboard Layer 0 (Background)
//Storyboard Layer 1 (Fail)
//Storyboard Layer 2 (Pass)
//Storyboard Layer 3 (Foreground)
//Storyboard Sound Samples
//Background Colour Transformations
3,100,163,162,255

[TimingPoints]
472,333.333333333333,4,2,0,70,1,0
472,-120.481927710843,4,2,0,70,0,0
7305,-66.6666666666667,4,2,0,100,0,1
9805,-100,4,1,0,50,0,0
21805,-133.333333333333,4,2,1,65,0,0
32138,-133.333333333333,4,1,0,60,0,0
32471,-100,4,1,0,50,0,0
43138,-200,4,1,0,60,0,0
48805,-100,4,1,0,60,0,0
53138,-200,4,2,0,50,0,0
53471,-133.333333333333,4,2,0,50,0,0
53805,-100,4,1,0,70,0,0
54138,-66.6666666666667,4,1,0,80,0,1
54471,-83.3333333333333,4,1,0,80,0,1
58805,-83.3333333333333,4,1,1,80,0,1
61805,-83.3333333333333,4,1,1,65,0,1
63805,-83.3333333333333,4,1,1,70,0,1
77971,-100,4,2,0,78,0,1

[Colours]
Combo1 : 255,255,166
Combo2 : 255,0,0
Combo3 : 68,162,255
Combo4 : 128,255,128
Combo5 : 255,255,255

[HitObjects]
416,80,472,6,0,L|328:72,1,79.6800011550293,2|0,0:0|0:0,0:0:0:0:
272,24,805,1,2,0:0:0:0:
232,88,971,1,0,0:0:0:0:
168,48,1138,1,0,0:0:0:0:
120,112,1305,1,0,0:0:0:0:
8,216,1471,6,0,L|112:208,1,79.6800011550293,2|0,0:0|0:0,0:0:0:0:
168,176,1805,1,2,0:0:0:0:
208,256,1971,1,0,0:0:0:0:
280,208,2138,1,2,0:0:0:0:
320,288,2305,1,0,0:0:0:0:
488,328,2471,6,0,L|376:336,1,79.6800011550293,2|0,0:0|0:0,0:0:0:0:
320,360,2805,1,2,0:0:0:0:
360,232,2971,1,0,0:0:0:0:
440,344,3138,1,2,0:0:0:0:
296,280,3305,1,0,0:0:0:0:
436,256,3471,6,0,P|464:184|436:96,2,159.360002310059,0|2|2,0:0|0:0|0:0,0:0:0:0:
296,280,4305,1,0,0:0:0:0:
360,124,4471,6,0,L|288:108,2,53.1200007700195,0|0|0,0:0|0:0|0:0,0:0:0:0:
240,196,4805,2,0,L|308:192,2,53.1200007700195,0|0|0,0:0|0:0|0:0,0:0:0:0:
224,288,5138,2,0,L|244:356,2,53.1200007700195,0|0|0,0:0|0:0|0:0,0:0:0:0:
168,240,5471,5,2,0:0:0:0:
152,224,5555,1,0,0:0:0:0:
144,200,5638,1,0,0:0:0:0:
144,176,5721,1,0,0:0:0:0:
152,152,5805,5,2,0:0:0:0:
168,136,5888,1,0,0:0:0:0:
152,152,5971,1,0,0:0:0:0:
128,160,6055,1,0,0:0:0:0:
104,160,6138,5,2,0:0:0:0:
80,152,6221,1,0,0:0:0:0:
56,136,6305,1,0,0:0:0:0:
40,112,6388,1,0,0:0:0:0:
56,136,6471,5,2,0:0:0:0:
56,160,6555,1,0,0:0:0:0:
48,184,6638,1,0,0:0:0:0:
32,200,6721,1,0,0:0:0:0:
40,224,6805,2,0,L|48:248|56:272,2,39.8400005775147,0|0|0,0:0|0:0|0:0,0:0:0:0:
40,224,7305,6,0,L|120:220,1,72.0000027465821,4|0,0:0|0:0,0:0:0:0:
208,128,7471,2,0,L|256:212,1,72.0000027465821,4|0,0:0|0:0,0:0:0:0:
188,340,7638,2,0,L|200:256,1,72.0000027465821,4|0,0:0|0:0,0:0:0:0:
296,208,7805,6,0,B|192:304|192:304|360:272,1,288.000010986329,4|2,0:0|0:0,0:0:0:0:
224,56,8305,6,0,B|120:152|120:152|288:104,1,288.000010986329,4|2,0:0|0:0,0:0:0:0:
440,24,8805,5,4,0:0:0:0:
256,192,8971,12,0,9638,0:0:0:0:
440,24,9805,5,0,0:0:0:0:
408,48,9888,1,0,0:0:0:0:
368,56,9971,1,0,0:0:0:0:
328,56,10055,1,0,0:0:0:0:
288,40,10138,1,0,0:0:0:0:
264,64,10221,1,0,0:0:0:0:
256,104,10305,1,0,0:0:0:0:
264,144,10388,1,0,0:0:0:0:
288,176,10471,1,0,0:0:0:0:
328,192,10555,2,0,L|320:248,1,48,0|0,0:0|0:0,0:0:0:0:
392,240,10721,2,0,L|384:304,1,48,0|0,0:0|0:0,0:0:0:0:
456,296,10888,2,0,L|448:352,2,48,0|0|0,0:0|0:0|0:0,0:0:0:0:
488,216,11138,5,4,0:0:0:0:
392,128,11305,2,0,L|384:16,1,96,2|14,0:0|2:0,0:0:0:0:
328,192,11638,1,0,0:0:0:0:
224,104,11805,2,0,P|264:80|320:80,1,96,2|2,0:0|0:0,0:0:0:0:
352,288,12138,2,0,P|312:312|256:312,1,96,8|2,0:0|0:0,0:0:0:0:
176,352,12471,5,2,0:0:0:0:
96,240,12638,1,0,0:0:0:0:
80,376,12805,1,10,0:0:0:0:
184,272,12971,1,0,0:0:0:0:
32,304,13138,1,2,0:0:0:0:
8,272,13221,1,0,0:0:0:0:
0,232,13305,1,2,0:0:0:0:
0,192,13388,1,0,0:0:0:0:
16,152,13471,1,10,0:0:0:0:
32,120,13555,1,0,0:0:0:0:
56,96,13638,1,2,0:0:0:0:
96,88,13721,1,0,0:0:0:0:
136,88,13805,5,4,0:0:0:0:
256,144,13971,2,0,L|376:128,1,96,2|10,0:0|0:0,0:0:0:0:
192,208,14305,1,0,0:0:0:0:
80,264,14471,2,0,P|64:216|80:160,1,96,2|0,0:0|0:0,0:0:0:0:
288,272,14805,2,0,P|304:320|288:376,1,96,8|2,0:0|0:0,0:0:0:0:
264,376,15055,1,0,0:0:0:0:
232,360,15138,5,0,0:0:0:0:
208,248,15305,1,2,0:0:0:0:
328,216,15471,1,10,0:0:0:0:
352,328,15638,1,0,0:0:0:0:
248,328,15805,5,0,0:0:0:0:
224,200,15972,1,2,0:0:0:0:
368,168,16138,1,8,0:0:0:0:
392,296,16305,1,2,0:0:0:0:
280,104,16471,5,4,0:0:0:0:
376,40,16638,2,0,L|480:32,1,96,2|10,0:0|0:0,0:0:0:0:
240,128,16971,1,0,0:0:0:0:
144,48,17138,2,0,P|104:72|88:128,1,96,2|2,0:0|0:0,0:0:0:0:
8,240,17471,2,0,L|120:256,1,96,8|2,0:0|0:0,0:0:0:0:
200,352,17805,5,2,0:0:0:0:
240,256,17971,1,0,0:0:0:0:
336,360,18138,1,10,0:0:0:0:
360,216,18305,1,0,0:0:0:0:
496,352,18471,1,2,0:0:0:0:
512,312,18555,1,0,0:0:0:0:
512,272,18638,1,0,0:0:0:0:
504,232,18721,1,0,0:0:0:0:
488,200,18805,1,10,0:0:0:0:
464,168,18888,1,0,0:0:0:0:
432,144,18971,1,0,0:0:0:0:
392,136,19055,1,0,0:0:0:0:
352,136,19138,5,6,0:0:0:0:
288,104,19638,1,6,0:0:0:0:
296,24,20138,1,6,0:0:0:0:
384,8,20471,5,6,0:0:0:0:
488,208,20638,1,6,0:0:0:0:
488,208,20971,5,0,0:0:0:0:
464,312,21138,1,0,0:0:0:0:
464,312,21221,1,0,0:0:0:0:
464,312,21305,1,0,0:0:0:0:
360,352,21471,1,0,0:0:0:0:
360,352,21555,1,0,0:0:0:0:
360,352,21638,1,0,0:0:0:0:
360,352,21721,1,0,0:0:0:0:
360,352,21805,5,2,3:0:0:0:
264,296,21971,1,0,0:0:0:0:
304,192,22138,2,0,L|308:92,1,72.0000027465821,0|0,3:0|0:0,0:0:0:0:
172,248,22471,2,0,L|176:156,1,72.0000027465821,0|0,3:0|0:0,0:0:0:0:
36,88,22805,2,0,P|88:52|176:52,1,144.000005493164,0|0,3:0|3:0,0:0:0:0:
172,248,23305,1,0,0:0:0:0:
304,192,23471,6,0,L|392:196,1,72.0000027465821,0|0,3:0|0:0,0:0:0:0:
256,344,23805,2,0,L|160:352,1,72.0000027465821,0|0,3:0|0:0,0:0:0:0:
468,296,24138,2,0,L|436:396,1,72.0000027465821,0|0,3:0|0:0,0:0:0:0:
312,148,24471,6,0,P|368:128|420:192,1,144.000005493164,0|0,3:0|3:0,0:0:0:0:
272,320,24971,1,0,0:0:0:0:
272,320,25138,2,0,L|264:216,1,72.0000027465821,0|0,3:0|0:0,0:0:0:0:
396,80,25471,2,0,L|488:68,1,72.0000027465821,0|0,3:0|0:0,0:0:0:0:
396,208,25805,5,0,3:0:0:0:
368,36,25971,2,0,L|360:136,1,72.0000027465821,2|0,0:0|3:0,0:0:0:0:
436,296,26305,1,2,0:0:0:0:
268,352,26471,1,0,3:0:0:0:
268,352,26555,1,0,0:0:0:0:
268,352,26638,1,2,0:0:0:0:
172,232,26805,2,0,L|84:224,1,72.0000027465821,0|2,3:0|0:0,0:0:0:0:
24,124,27138,5,0,3:0:0:0:
36,264,27305,1,0,0:0:0:0:
188,344,27471,2,0,L|180:256,1,72.0000027465821,0|0,3:0|0:0,0:0:0:0:
380,228,27805,2,0,L|304:236,1,72.0000027465821,0|0,3:0|0:0,0:0:0:0:
128,120,28138,2,0,P|180:88|268:104,1,144.000005493164,0|0,3:0|3:0,0:0:0:0:
328,280,28638,1,0,0:0:0:0:
328,280,28805,6,0,L|428:276,1,72.0000027465821,0|0,3:0|0:0,0:0:0:0:
392,68,29138,2,0,L|312:44,1,72.0000027465821,0|0,3:0|0:0,0:0:0:0:
184,184,29471,2,0,L|204:280,1,72.0000027465821,0|0,3:0|0:0,0:0:0:0:
316,152,29805,6,0,L|320:64,1,72.0000027465821,0|2,3:0|0:0,0:0:0:0:
112,68,30138,1,0,0:0:0:0:
228,44,30305,1,2,0:0:0:0:
316,152,30471,1,0,0:0:0:0:
316,152,30555,1,0,0:0:0:0:
316,152,30638,1,2,0:0:0:0:
436,276,30805,2,0,L|336:268,1,72.0000027465821,0|2,0:0|0:0,0:0:0:0:
476,72,31138,5,4,0:0:0:0:
432,248,31305,1,0,1:0:0:0:
432,248,31388,1,0,1:0:0:0:
432,248,31471,1,0,1:0:0:0:
288,328,31638,5,4,0:0:0:0:
120,16,31971,1,4,0:0:0:0:
120,16,32138,2,0,L|112:72,1,36.0000013732911,0|0,0:0|0:0,1:0:0:0:
40,72,32305,2,0,L|48:8,1,36.0000013732911,0|0,0:0|0:0,1:0:0:0:
96,144,32471,6,0,L|200:136,1,96,4|0,0:0|0:0,0:0:0:0:
296,72,32805,1,8,0:0:0:0:
368,160,32971,1,0,0:0:0:0:
448,336,33138,6,0,L|456:224,1,96
292,268,33471,1,8,0:0:0:0:
296,300,33555,1,0,0:0:0:0:
300,332,33638,1,0,0:0:0:0:
144,304,33805,6,0,L|48:296,1,96
16,152,34138,1,8,0:0:0:0:
144,56,34305,1,0,0:0:0:0:
224,184,34471,1,0,0:0:0:0:
224,184,34555,1,0,0:0:0:0:
224,184,34638,1,0,0:0:0:0:
408,232,34805,2,0,L|416:128,1,96,8|0,0:0|0:0,0:0:0:0:
472,56,35138,6,0,P|424:40|352:64,1,96
264,160,35471,2,0,L|320:152,1,48,8|0,0:0|0:0,0:0:0:0:
336,152,35638,1,0,0:0:0:0:
472,296,35805,1,0,0:0:0:0:
440,288,35888,1,0,0:0:0:0:
408,280,35971,1,0,0:0:0:0:
376,272,36055,1,0,0:0:0:0:
344,264,36138,1,8,0:0:0:0:
152,216,36305,6,0,L|160:320,1,96
280,224,36638,1,0,0:0:0:0:
80,144,36805,2,0,L|24:152,2,48,8|0|0,0:0|0:0|0:0,0:0:0:0:
200,32,37138,5,0,0:0:0:0:
192,64,37221,1,0,0:0:0:0:
184,96,37305,1,0,0:0:0:0:
304,144,37471,2,0,L|400:120,1,96,8|0,0:0|0:0,0:0:0:0:
384,320,37805,6,0,P|360:272|368:208,1,96
456,40,38138,2,0,P|480:88|472:152,1,96,8|0,0:0|0:0,0:0:0:0:
304,144,38471,2,0,L|240:168,1,48
240,168,38638,1,0,0:0:0:0:
88,128,38805,6,0,L|96:24,1,96,8|0,0:0|0:0,0:0:0:0:
24,232,39138,1,0,0:0:0:0:
56,224,39221,1,0,0:0:0:0:
88,216,39305,1,0,0:0:0:0:
144,328,39471,2,0,L|208:336,1,48,8|0,0:0|0:0,0:0:0:0:
224,336,39638,1,0,0:0:0:0:
256,340,39721,1,0,0:0:0:0:
288,344,39805,1,0,0:0:0:0:
416,272,39971,5,0,0:0:0:0:
304,144,40138,2,0,L|288:264,1,96,8|0,0:0|0:0,0:0:0:0:
448,72,40471,2,0,L|512:64,2,48,0|0|0,0:0|0:0|0:0,0:0:0:0:
272,24,40805,6,0,P|224:32|184:80,1,96,8|0,0:0|0:0,0:0:0:0:
64,112,41138,1,0,0:0:0:0:
72,144,41221,1,0,0:0:0:0:
80,176,41305,1,0,0:0:0:0:
24,296,41471,1,8,0:0:0:0:
180,352,41638,5,0,0:0:0:0:
248,224,41805,1,0,0:0:0:0:
80,176,41971,2,0,L|20:180,2,48,0|0|8,0:0|0:0|0:0,0:0:0:0:
184,68,42305,5,0,0:0:0:0:
336,224,42471,2,0,L|444:212,1,96
431,213,42721,1,0,0:0:0:0:
431,213,42805,1,8,0:0:0:0:
328,72,42971,1,0,0:0:0:0:
196,164,43138,6,0,P|160:212|192:340,1,192,4|0,0:0|0:0,0:0:0:0:
272,352,43971,2,0,L|320:360,2,48,0|0|0,0:0|0:0|0:0,0:0:0:0:
240,272,44471,5,2,0:0:0:0:
336,240,44805,1,0,0:0:0:0:
368,336,45138,1,2,0:0:0:0:
264,360,45471,1,0,0:0:0:0:
264,256,45805,6,0,P|264:200|288:144,1,96,2|0,0:0|0:0,0:0:0:0:
336,112,46305,2,0,L|392:104,2,48,0|0|0,0:0|0:0|0:0,0:0:0:0:
264,72,46805,2,0,L|168:64,1,96
160,64,47471,1,0,0:0:0:0:
160,64,47805,6,0,P|136:96|136:136,1,72,2|0,0:0|0:0,0:0:0:0:
128,152,48138,2,0,L|136:264,1,96,2|0,0:0|0:0,0:0:0:0:
160,272,48805,5,6,0:0:0:0:
256,192,48971,12,0,49805,0:0:0:0:
472,320,49971,5,2,0:0:0:0:
416,216,50138,1,2,0:0:0:0:
304,160,50305,1,0,0:0:0:0:
208,240,50471,1,2,0:0:0:0:
216,96,50638,1,2,0:0:0:0:
304,208,50805,1,0,0:0:0:0:
152,168,50971,1,2,0:0:0:0:
304,120,51138,5,6,0:0:0:0:
264,240,51638,1,6,0:0:0:0:
88,344,52138,1,2,0:0:0:0:
88,344,52221,1,0,0:0:0:0:
88,344,52305,1,0,0:0:0:0:
88,344,52388,1,0,0:0:0:0:
88,344,52471,6,0,L|80:232,1,96,6|6,0:0|0:0,0:0:0:0:
52,176,53138,6,0,L|144:184,1,72,2|0,2:0|0:0,0:0:0:0:
228,136,53471,6,0,B|248:104|248:104|280:172,1,108.000004119873,2|0,2:0|0:0,0:0:0:0:
376,244,53805,6,0,L|224:252,1,144,4|0,2:0|0:0,0:0:0:0:
192,220,54138,6,0,P|280:128|396:208,1,288.000010986329,14|0,2:0|0:0,0:0:0:0:
464,316,54638,1,0,0:0:0:0:
424,312,54721,1,0,0:0:0:0:
384,308,54805,1,8,0:0:0:0:
232,352,54971,1,0,0:0:0:0:
192,220,55138,1,0,0:0:0:0:
232,352,55305,1,0,0:0:0:0:
36,312,55471,2,0,L|156:300,1,115.199996484375,8|0,0:0|0:0,0:0:0:0:
84,32,55805,5,0,0:0:0:0:
12,152,55971,2,0,L|72:156,1,57.5999982421876
88,144,56138,1,8,0:0:0:0:
240,72,56305,1,0,0:0:0:0:
304,200,56471,1,0,0:0:0:0:
340,24,56638,1,0,0:0:0:0:
304,200,56805,2,0,B|328:224|328:224|316:316,1,115.199996484375,8|0,0:0|0:0,0:0:0:0:
188,352,57138,5,0,0:0:0:0:
352,316,57305,1,0,0:0:0:0:
380,320,57388,1,0,0:0:0:0:
408,324,57471,1,8,0:0:0:0:
496,164,57638,2,0,L|372:172,1,115.199996484375,0|0,0:0|0:0,0:0:0:0:
160,248,57971,1,0,0:0:0:0:
64,160,58138,6,0,L|72:44,1,115.199996484375,8|0,0:0|0:0,0:0:0:0:
216,104,58471,1,0,3:0:0:0:
200,316,58637,1,2,0:0:0:0:
200,316,58721,1,0,0:0:0:0:
200,316,58804,1,8,0:0:0:0:
216,104,58971,1,2,0:0:0:0:
440,180,59138,6,0,L|304:188,1,115.199996484375,6|0,0:0|0:0,0:0:0:0:
200,316,59471,1,10,0:0:0:0:
240,324,59555,1,0,0:0:0:0:
280,332,59638,1,0,0:0:0:0:
64,360,59805,6,0,L|60:240,1,115.199996484375,2|2,0:0|0:0,0:0:0:0:
244,136,60138,1,10,0:0:0:0:
228,100,60221,1,0,0:0:0:0:
212,64,60305,2,0,B|188:136|188:136|220:192|220:192|192:280,1,230.39999296875,2|0,0:0|0:0,0:0:0:0:
192,277,60721,1,0,0:0:0:0:
192,277,60805,2,0,L|311:279,1,115.199996484375,10|0,0:0|0:0,0:0:0:0:
464,136,61138,5,2,0:0:0:0:
452,176,61221,1,0,0:0:0:0:
440,216,61305,1,2,0:0:0:0:
336,28,61471,1,8,0:0:0:0:
248,168,61638,1,2,0:0:0:0:
420,300,61805,5,6,1:0:0:0:
272,368,61971,1,0,0:0:0:0:
272,368,62055,1,0,0:0:0:0:
272,368,62138,1,0,0:0:0:0:
120,268,62305,2,0,L|112:188,1,57.5999982421876
108,176,62471,1,0,0:0:0:0:
76,188,62555,1,0,0:0:0:0:
56,216,62638,1,0,0:0:0:0:
48,248,62721,1,0,0:0:0:0:
56,280,62805,1,0,0:0:0:0:
192,352,62971,5,0,0:0:0:0:
236,336,63055,1,0,0:0:0:0:
280,324,63138,1,0,0:0:0:0:
232,172,63305,1,0,0:0:0:0:
360,68,63471,1,0,0:0:0:0:
368,248,63638,1,0,0:0:0:0:
484,56,63805,6,0,L|476:136,1,57.5999982421876,2|0,0:0|0:0,0:0:0:0:
476,136,63971,1,0,0:0:0:0:
292,228,64138,1,2,0:0:0:0:
292,228,64221,1,0,0:0:0:0:
292,228,64305,1,0,0:0:0:0:
56,108,64471,6,0,B|104:96|128:28|128:28|156:84|220:72,1,172.799994726563,6|0,0:0|0:0,0:0:0:0:
148,144,64805,2,0,P|132:180|132:264,1,115.199996484375,14|0,2:0|0:0,0:0:0:0:
288,340,65138,1,2,0:0:0:0:
248,332,65221,1,0,0:0:0:0:
208,324,65305,1,0,0:0:0:0:
148,144,65471,1,10,0:0:0:0:
208,324,65638,1,2,0:0:0:0:
372,260,65805,5,2,0:0:0:0:
372,260,65888,1,0,0:0:0:0:
372,260,65971,1,0,0:0:0:0:
208,324,66138,1,10,0:0:0:0:
304,116,66305,1,0,0:0:0:0:
484,164,66471,2,0,L|480:44,1,115.199996484375,2|0,0:0|0:0,0:0:0:0:
268,68,66805,5,10,0:0:0:0:
464,136,66971,1,0,0:0:0:0:
204,184,67138,1,2,0:0:0:0:
176,192,67221,1,0,0:0:0:0:
148,200,67305,1,0,0:0:0:0:
268,68,67471,1,10,0:0:0:0:
296,292,67638,1,0,0:0:0:0:
24,280,67805,5,2,0:0:0:0:
52,288,67888,1,0,0:0:0:0:
80,296,67971,1,0,0:0:0:0:
108,304,68055,1,0,0:0:0:0:
136,312,68138,1,10,0:0:0:0:
248,224,68305,1,0,0:0:0:0:
296,368,68471,5,2,0:0:0:0:
380,344,68638,1,0,0:0:0:0:
296,148,68805,5,10,0:0:0:0:
248,224,68971,1,0,0:0:0:0:
412,96,69138,5,2,0:0:0:0:
296,148,69305,1,0,0:0:0:0:
348,264,69471,1,10,0:0:0:0:
468,208,69638,1,0,0:0:0:0:
312,44,69805,5,6,0:0:0:0:
256,192,69971,12,0,72138,0:0:0:0:
76,60,72471,5,2,0:0:0:0:
112,248,72638,1,2,0:0:0:0:
168,104,72805,1,10,0:0:0:0:
352,152,72971,2,0,L|432:148,2,57.5999982421876,2|0|0,0:0|0:0|0:0,0:0:0:0:
300,240,73305,1,0,0:0:0:0:
388,336,73471,5,8,0:0:0:0:
464,200,73638,2,0,P|360:156|284:240,1,230.39999296875,2|0,0:0|0:0,0:0:0:0:
196,332,74138,1,10,0:0:0:0:
224,180,74305,5,2,0:0:0:0:
216,140,74388,1,0,0:0:0:0:
208,100,74471,1,0,0:0:0:0:
292,32,74638,1,2,0:0:0:0:
224,180,74805,1,8,0:0:0:0:
376,128,74971,1,2,0:0:0:0:
156,260,75138,5,4,0:0:0:0:
256,192,75305,12,0,77138,0:0:0:0:
76,320,77471,5,0,0:0:0:0:
76,320,77555,1,0,0:0:0:0:
76,320,77638,1,0,0:0:0:0:
76,320,77721,1,0,0:0:0:0:
76,320,77805,1,0,0:0:0:0:
136,152,77971,5,2,0:0:0:0:
196,316,78138,1,2,0:0:0:0:
260,188,78305,1,2,0:0:0:0:
440,48,78471,5,2,0:0:0:0:
380,212,78638,1,2,0:0:0:0:
316,84,78805,1,2,0:0:0:0:
96,32,78971,6,0,L|252:40,1,144,4|0,0:0|0:0,0:0:0:0:
208,56,79305,1,4,0:0:0:0:
256,192,79471,12,6,84471,1:0:0:0:
200,192,84805,5,0,0:0:0:0:
304,224,84971,1,6,1:0:0:0:
