osu file format v13

[General]
AudioFilename: Extra Magic Hours.mp3
AudioLeadIn: 1500
PreviewTime: 53055
Countdown: 0
SampleSet: Soft
StackLeniency: 0.7
Mode: 0
LetterboxInBreaks: 0
WidescreenStoryboard: 0

[Editor]
DistanceSpacing: 1
BeatDivisor: 2
GridSize: 8
TimelineZoom: 1.5

[Metadata]
Title:EXTRA MAGIC HOUR
TitleUnicode:エクストラ・マジック・アワー
Artist:AKINO with bless4
ArtistUnicode:AKINO with bless4
Creator:wcx19911123
Version:Easy
Source:Amagi Brilliant Park
Tags:甘城ブリリアントパーク TV Size opening Fycho xxdeathx
BeatmapID:517420
BeatmapSetID:218098

[Difficulty]
HPDrainRate:2
CircleSize:3
OverallDifficulty:2
ApproachRate:3
SliderMultiplier:0.8
SliderTickRate:1

[Events]
//Background and Video events
Video,-130,"video.avi"
0,0,"bg.jpg",0,0
//Break Periods
//Storyboard Layer 0 (Background)
//Storyboard Layer 1 (Fail)
//Storyboard Layer 2 (Pass)
//Storyboard Layer 3 (Foreground)
//Storyboard Sound Samples
//Background Colour Transformations
3,100,163,162,255

[TimingPoints]
472,333.333333333333,4,2,2,80,1,0
472,-125,4,2,2,80,0,0
7138,-100,4,2,1,75,0,0
13471,-100,4,2,3,75,0,0
13638,-100,4,2,1,75,0,0
16138,-100,4,2,3,75,0,0
16305,-100,4,2,1,75,0,0
18805,-100,4,2,3,75,0,0
19138,-100,4,1,1,65,0,0
21805,-100,4,2,1,70,0,0
22138,-100,4,1,3,70,0,0
22305,-100,4,2,1,70,0,0
22471,-100,4,1,3,70,0,0
22805,-100,4,2,1,70,0,0
23471,-100,4,1,3,70,0,0
23805,-100,4,2,1,70,0,0
24805,-100,4,1,3,70,0,0
25138,-100,4,2,1,70,0,0
26138,-100,4,1,3,70,0,0
26471,-100,4,2,1,70,0,0
27471,-100,4,1,3,70,0,0
27638,-100,4,2,1,70,0,0
27805,-100,4,1,3,70,0,0
28138,-100,4,2,1,70,0,0
28805,-100,4,1,3,70,0,0
29138,-100,4,2,1,70,0,0
30138,-100,4,1,3,70,0,0
30471,-100,4,2,1,70,0,0
31471,-100,4,2,3,70,0,0
31638,-100,4,2,1,70,0,0
32305,-100,4,2,3,70,0,0
32471,-100,4,2,1,70,0,0
36138,-100,4,2,3,70,0,0
36305,-100,4,2,1,70,0,0
37805,-100,4,2,1,75,0,0
38138,-100,4,2,3,75,0,0
38305,-100,4,2,1,75,0,0
41471,-100,4,2,3,75,0,0
41638,-100,4,2,1,75,0,0
42805,-100,4,2,3,60,0,0
43138,-100,4,2,1,70,0,0
46471,-100,4,2,3,70,0,0
46805,-100,4,2,1,70,0,0
48471,-100,4,2,1,75,0,0
53805,-100,4,2,2,70,0,1
54138,-100,4,2,1,80,0,1
54805,-100,4,2,3,80,0,1
54971,-100,4,2,1,80,0,1
56138,-100,4,2,3,80,0,1
56305,-100,4,2,1,80,0,1
57471,-100,4,2,3,80,0,1
57638,-100,4,2,1,80,0,1
60138,-100,4,2,3,80,0,1
60305,-100,4,2,1,80,0,1
61471,-100,4,2,3,80,0,1
61638,-100,4,2,1,80,0,1
62805,-100,4,2,3,80,0,1
62971,-100,4,2,1,80,0,1
64388,-100,4,2,1,80,0,0
64471,-100,4,2,2,80,0,1
64805,-100,4,2,1,80,0,1
65471,-100,4,2,3,80,0,1
65638,-100,4,2,1,80,0,1
66805,-100,4,2,3,80,0,1
66971,-100,4,2,1,80,0,1
67805,-100,4,2,1,60,0,1
68138,-100,4,2,1,80,0,1
70138,-100,4,2,3,80,0,1
70471,-100,4,2,1,80,0,1
71471,-100,4,2,3,80,0,1
71638,-100,4,2,1,80,0,1
72805,-100,4,2,3,80,0,1
72971,-100,4,2,1,80,0,1
77471,-100,4,2,1,60,0,1
77805,-100,4,2,1,80,0,0
79138,-100,4,2,2,70,0,0
79471,-100,4,2,1,75,0,0
81471,-100,4,2,3,50,0,0
81805,-100,4,2,1,75,0,0
84971,344.827586206897,4,2,2,75,1,0
85143,-100,4,2,1,30,0,0
88419,-100,4,2,1,75,0,0

[Colours]
Combo1 : 244,251,0
Combo2 : 0,242,12
Combo3 : 0,88,251
Combo4 : 255,6,6

[HitObjects]
248,96,472,6,0,P|184:104|88:192,1,192,2|2,0:0|0:0,0:0:0:0:
200,344,2471,6,0,P|264:336|360:248,1,192,2|2,0:0|0:0,0:0:0:0:
248,96,4471,6,0,P|184:104|88:192,1,192,2|2,0:0|0:0,0:0:0:0:
200,344,7138,6,0,L|296:344,1,80,8|4,0:0|0:3,0:0:0:0:
360,336,7805,2,0,P|408:296|424:216,2,120,12|12|12,0:0|0:0|0:0,0:0:0:0:
144,232,9805,2,0,L|120:112,2,120,8|8|4,0:0|0:0|0:3,0:0:0:0:
160,312,11138,5,4,0:2:0:0:
224,264,11471,2,0,P|304:248|392:272,1,160,2|8,1:3|0:0,0:0:0:0:
448,120,12805,1,8,0:0:0:0:
392,64,13138,2,0,L|256:96,1,120,4|4,1:3|0:0,0:0:0:0:
160,120,14138,6,0,P|176:184|152:280,1,160,8|8,0:0|0:0,0:0:0:0:
16,352,15471,1,8,0:0:0:0:
96,352,15805,2,0,L|216:352,1,120,4|4,1:3|0:0,0:0:0:0:
312,280,16805,6,0,P|352:224|360:128,1,160,8|8,0:0|0:0,0:0:0:0:
496,40,18138,1,8,0:0:0:0:
480,120,18471,2,0,B|456:232|456:232|480:272,1,160,4|2,1:3|0:0,0:0:0:0:
392,352,19638,6,0,B|412:316|412:316|368:240,1,120,2|2,0:0|0:0,0:0:0:0:
299,281,20471,2,0,L|323:321,1,40,2|2,0:0|0:0,0:0:0:0:
256,112,21805,6,0,P|304:72|368:80,2,120,4|2|0,1:0|0:0|1:0,0:0:0:0:
328,152,23138,2,0,P|368:216|368:304,1,160,0|0,1:0|1:0,0:0:0:0:
320,360,24138,1,0,1:0:0:0:
256,312,24471,6,0,L|96:288,1,160,2|0,1:2|1:0,0:0:0:0:
216,176,25805,2,0,L|56:152,1,160,0|0,1:0|1:0,0:0:0:0:
208,96,27138,6,0,P|280:128|296:176,2,120,4|2|0,1:0|0:0|1:0,0:0:0:0:
144,144,28471,2,0,P|144:224|192:288,1,160,0|0,1:0|1:0,0:0:0:0:
264,320,29471,1,0,1:0:0:0:
344,312,29805,6,0,L|328:152,1,160,2|0,1:2|1:0,0:0:0:0:
456,56,31138,2,0,L|440:176,1,120,6|2,1:0|1:0,0:0:0:0:
392,240,31971,2,0,P|336:256|272:240,1,120,8|4,0:3|0:0,0:0:0:0:
232,176,32805,6,0,P|208:136|96:88,1,160,8|8,0:0|0:0,0:0:0:0:
8,208,34138,2,0,B|120:240|120:240|136:280,1,160,8|8,0:0|0:0,0:0:0:0:
192,336,35138,6,0,P|232:344|288:328,1,80,2|8,0:0|0:0,0:0:0:0:
328,280,35805,2,0,P|368:256|448:264,2,120,0|2|8,0:0|0:0|0:0,0:0:0:0:
192,200,37471,1,8,0:0:0:0:
272,200,37805,6,0,P|336:176|368:120,2,120,4|2|8,0:0|0:0|0:0,0:0:0:0:
248,168,38971,2,0,L|120:152,1,120,4|8,0:0|0:0,0:0:0:0:
24,32,40138,1,8,0:0:0:0:
104,40,40471,6,0,P|144:56|176:88,1,80,4|8,0:0|0:0,0:0:0:0:
184,160,41138,2,0,L|200:304,2,120,0|2|8,0:0|0:0|0:0,0:0:0:0:
216,88,42471,2,0,P|256:48|376:40,1,160,8|4,0:0|0:0,0:0:0:0:
488,120,43805,5,8,0:0:0:0:
416,264,44471,2,0,L|240:240,1,160,2|8,0:0|0:0,0:0:0:0:
96,216,45805,6,0,P|80:256|96:344,2,120,0|2|0,0:0|0:0|0:0,0:0:0:0:
160,168,47138,2,0,L|216:160,1,40,0|8,0:0|0:0,0:0:0:0:
312,208,47805,2,0,P|408:200|464:152,1,160,8|4,0:0|0:0,0:0:0:0:
456,80,48805,6,0,P|416:40|312:24,1,160,8|8,0:0|0:0,0:0:0:0:
248,64,49805,1,2,0:0:0:0:
316,104,50138,2,0,P|344:168|332:256,1,160,8|8,0:0|0:0,0:0:0:0:
256,280,51138,6,0,P|200:312|176:376,2,120,8|8|8,0:0|0:0|0:0,0:0:0:0:
336,272,52471,2,0,L|384:272,1,40,12|8,0:0|0:0,0:0:0:0:
120,288,53805,6,0,P|88:256|72:216,1,80,4|2,1:0|0:3,0:0:0:0:
64,144,54471,2,0,P|64:136|120:40,2,120,2|4|8,0:0|0:0|0:0,0:0:0:0:
136,176,55805,2,0,L|272:152,1,120,2|0,0:0|0:0,0:0:0:0:
376,136,56805,5,8,0:0:0:0:
456,120,57138,2,0,P|448:176|392:216,2,120,2|2|8,0:0|0:0|0:0,0:0:0:0:
328,24,58805,1,8,0:0:0:0:
264,72,59138,6,0,P|240:112|232:160,1,80,4|8,0:0|0:0,0:0:0:0:
280,208,59805,2,0,P|312:264|312:336,2,120,2|4|8,0:0|0:0|0:0,0:0:0:0:
208,240,61138,2,0,P|136:240|88:216,1,120,2|2,0:0|0:0,0:0:0:0:
24,128,62138,5,8,0:0:0:0:
96,96,62471,2,0,L|232:128,2,120,2|2|8,0:0|0:0|0:0,0:0:0:0:
112,180,63805,2,0,P|112:228|96:268,1,80,4|8,0:3|0:0,0:0:0:0:
52,320,64471,5,4,1:0:0:0:
132,332,64805,1,2,0:3:0:0:
208,312,65138,2,0,P|264:272|288:216,1,120,2|4,0:0|0:0,0:0:0:0:
296,104,66138,1,8,0:0:0:0:
368,64,66471,6,0,L|488:80,2,120,2|2|8,0:0|0:0|0:0,0:0:0:0:
296,104,67805,2,0,P|248:120|216:112,1,80,8|8,0:0|0:0,0:0:0:0:
160,64,68471,2,0,P|128:48|64:64,2,80,4|8|4,0:0|0:0|0:0,0:0:0:0:
112,128,69471,1,8,0:0:0:0:
120,208,69805,6,0,B|176:328|240:232|296:352,1,240,4|8,0:0|0:0,0:0:0:0:
372,376,71138,2,0,P|416:352|436:280,2,120,4|4|8,1:0|1:0|0:0,0:0:0:0:
356,296,72471,6,0,L|336:176,1,120,4|2,0:0|0:0,0:0:0:0:
304,104,73305,2,0,P|272:80|224:64,1,80,0|2,0:0|0:0,0:0:0:0:
156,72,73971,2,0,P|108:96|84:128,1,80,0|2,0:0|0:0,0:0:0:0:
56,232,74805,1,8,0:0:0:0:
96,304,75138,6,0,P|144:336|256:336,1,160,4|8,1:0|0:0,0:0:0:0:
208,184,76471,2,0,P|216:136|296:56,1,160,12|8,0:0|0:0,0:0:0:0:
372,56,77471,2,0,L|452:72,1,80,8|0,0:0|0:0,0:0:0:0:
480,312,78805,5,8,0:0:0:0:
424,256,79138,2,0,P|384:240|344:240,1,80,4|8,1:0|0:0,0:0:0:0:
280,280,79805,2,0,P|240:304|168:312,1,120,8|4,0:0|0:0,0:0:0:0:
72,136,81138,2,0,P|96:96|208:48,1,160,8|4,0:0|0:0,0:0:0:0:
276,52,82138,6,0,L|404:68,1,120,8|8,0:0|0:0,0:0:0:0:
464,168,83138,2,0,L|456:224,1,40,4|8,0:0|0:0,0:0:0:0:
384,304,83805,2,0,P|304:312|224:264,1,160,8|4,0:0|0:0,0:0:0:0:
184,168,84971,1,4,1:0:0:0:
256,192,85143,12,4,88419,0:3:0:0:
