osu file format v13

[General]
AudioFilename: Extra Magic Hours.mp3
AudioLeadIn: 1500
PreviewTime: 53055
Countdown: 0
SampleSet: Soft
StackLeniency: 0.7
Mode: 0
LetterboxInBreaks: 0
WidescreenStoryboard: 0

[Editor]
DistanceSpacing: 1
BeatDivisor: 4
GridSize: 8
TimelineZoom: 1.5

[Metadata]
Title:EXTRA MAGIC HOUR
TitleUnicode:エクストラ・マジック・アワー
Artist:AKINO with bless4
ArtistUnicode:AKINO with bless4
Creator:wcx19911123
Version:EXTRA MAGIC
Source:Amagi Brilliant Park
Tags:甘城ブリリアントパーク TV Size opening Fycho xxdeathx
BeatmapID:511382
BeatmapSetID:218098

[Difficulty]
HPDrainRate:6.4
CircleSize:4
OverallDifficulty:8.2
ApproachRate:9.2
SliderMultiplier:1.92
SliderTickRate:1

[Events]
//Background and Video events
Video,-130,"video.avi"
0,0,"bg.jpg",0,0
//Break Periods
//Storyboard Layer 0 (Background)
//Storyboard Layer 1 (Fail)
//Storyboard Layer 2 (Pass)
//Storyboard Layer 3 (Foreground)
//Storyboard Sound Samples
//Background Colour Transformations
3,100,163,162,255

[TimingPoints]
472,333.333333333333,4,2,2,80,1,0
472,-120.481927710843,4,2,2,80,0,0
4763,-120.481927710843,4,2,1,60,0,0
5805,-120.481927710843,4,2,1,50,0,0
6471,-120.481927710843,4,2,1,40,0,0
7138,-100,4,2,1,75,0,0
7971,-100,4,2,1,55,0,0
8055,-100,4,2,1,75,0,0
8138,-100,4,2,1,55,0,0
8221,-100,4,2,1,75,0,0
9971,-100,4,2,1,40,0,0
10138,-100,4,2,1,50,0,0
10305,-100,4,2,1,75,0,0
10471,-100,4,2,1,40,0,0
10805,-100,4,2,1,50,0,0
10971,-100,4,2,1,75,0,0
11138,-100,4,1,1,75,0,0
19138,-100,4,1,1,65,0,0
19221,-100,4,1,1,45,0,0
19638,-100,4,1,1,65,0,0
19721,-100,4,1,1,45,0,0
20138,-100,4,1,1,65,0,0
20221,-100,4,1,1,45,0,0
20471,-100,4,1,1,65,0,0
21138,-100,4,2,1,60,0,0
21805,-120.481927710843,4,2,1,70,0,0
31638,-120.481927710843,4,1,1,70,0,0
31971,-120.481927710843,4,2,1,70,0,0
37555,-120.481927710843,4,2,1,40,0,0
37805,-100,4,2,1,75,0,0
42471,-100,4,2,1,40,0,0
42971,-100,4,2,1,50,0,0
43138,-172.413793103448,4,2,1,70,0,0
45471,-172.413793103448,4,2,1,60,0,0
46138,-172.413793103448,4,2,1,70,0,0
47805,-120.481927710843,4,2,1,70,0,0
48471,-120.481927710843,4,2,1,75,0,0
52221,-120.481927710843,4,2,1,50,0,0
52471,-120.481927710843,4,2,1,75,0,0
53138,-172.413793103448,4,2,1,70,0,0
53805,-100,4,2,2,70,0,1
53971,-100,4,2,1,80,0,1
57138,-100,4,2,1,60,0,1
57471,-100,4,2,1,80,0,1
61638,-100,4,2,1,60,0,1
61805,-100,4,2,1,80,0,1
63805,-100,4,2,1,50,0,1
64138,-100,4,2,1,60,0,1
64388,-100,4,2,1,60,0,0
64471,-100,4,2,2,80,0,1
64638,-100,4,2,1,80,0,1
66471,-100,4,2,1,60,0,1
66638,-100,4,2,1,80,0,1
67888,-100,4,2,1,60,0,1
68055,-100,4,2,1,80,0,1
70221,-100,4,2,1,60,0,1
70305,-100,4,2,1,80,0,1
70471,-100,4,2,1,60,0,1
70721,-100,4,2,1,80,0,1
73305,-100,4,2,1,60,0,1
73388,-100,4,2,1,80,0,1
74888,-100,4,2,1,50,0,1
75138,-100,4,2,1,80,0,1
77471,-100,4,2,1,50,0,1
77805,-100,4,2,1,80,0,0
78471,-172.413793103448,4,2,1,80,0,0
79138,-100,4,2,2,70,0,0
79305,-100,4,2,1,75,0,0
81138,-100,4,2,1,45,0,0
81583,-100,4,2,1,75,0,0
84138,-100,4,2,1,45,0,0
84471,-100,4,2,1,75,0,0
84971,344.827586206897,4,2,2,75,1,0
85315,-100,4,2,1,75,0,0
85919,-100,4,2,1,30,0,0
88074,-100,4,2,1,75,0,0

[Colours]
Combo1 : 244,251,0
Combo2 : 0,242,12
Combo3 : 0,88,251
Combo4 : 255,6,6

[HitObjects]
256,128,472,6,0,L|208:63,1,79.6800011550293,2|0,0:0|0:0,0:0:0:0:
48,224,805,1,0,0:0:0:0:
120,256,971,1,0,0:0:0:0:
192,288,1138,1,0,0:0:0:0:
264,320,1305,1,0,0:0:0:0:
256,128,1471,6,0,L|216:58,1,79.6800011550293,2|0,0:0|0:0,0:0:0:0:
128,336,1805,1,0,0:0:0:0:
192,288,1971,1,0,0:0:0:0:
256,240,2138,1,0,0:0:0:0:
328,272,2305,1,0,0:0:0:0:
256,128,2471,6,0,L|224:55,1,79.6800011550293,2|0,0:0|0:0,0:0:0:0:
400,304,3055,1,0,0:0:0:0:
256,128,3471,6,0,L|231:51,1,79.6800011550293,2|0,0:0|0:0,0:0:0:0:
184,208,3805,1,0,0:0:0:0:
256,128,4471,6,0,L|239:49,1,79.6800011550293,2|0,0:0|0:0,0:0:0:0:
160,144,4763,2,0,L|112:104,1,59.760000866272
192,168,4992,2,0,L|128:184,2,59.760000866272,0|0|0,0:0|0:0|0:0,0:0:0:0:
232,159,5388,1,0,0:0:0:0:
256,128,5471,5,0,0:0:0:0:
271,164,5555,1,0,0:0:0:0:
298,192,5638,1,0,0:0:0:0:
333,210,5721,1,0,0:0:0:0:
372,218,5805,1,0,0:0:0:0:
411,221,5888,1,0,0:0:0:0:
447,205,5971,1,0,0:0:0:0:
470,172,6055,1,0,0:0:0:0:
474,132,6138,1,0,0:0:0:0:
457,95,6221,1,0,0:0:0:0:
423,72,6305,1,0,0:0:0:0:
383,67,6388,1,0,0:0:0:0:
347,85,6471,1,0,0:0:0:0:
324,117,6554,1,0,0:0:0:0:
321,156,6637,1,0,0:0:0:0:
325,195,6721,1,0,0:0:0:0:
339,231,6804,1,0,0:0:0:0:
366,259,6887,1,0,0:0:0:0:
400,278,6971,1,0,0:0:0:0:
438,287,7054,1,0,0:0:0:0:
478,288,7138,1,8,0:0:0:0:
397,146,7305,5,8,1:3:0:0:
397,146,7388,1,0,0:0:0:0:
397,146,7471,2,0,P|376:88|376:40,1,96,4|8,1:3|0:0,0:0:0:0:
224,184,7805,2,0,P|232:136|248:112,1,48,12|0,0:0|0:0,0:0:0:0:
136,144,7971,2,0,P|160:104|184:80,1,48,8|0,0:3|0:0,0:0:0:0:
72,72,8138,2,0,P|112:40|136:32,1,48,4|0,0:3|0:0,0:0:0:0:
324,132,8305,6,0,B|280:152|232:136|232:136|220:160|224:184,1,144,12|0,0:0|0:0,0:0:0:0:
328,264,8638,2,0,P|336:224|336:208,1,48,8|0,0:0|0:0,0:0:0:0:
272,40,8805,1,12,0:0:0:0:
256,192,8888,12,8,9805,0:0:0:0:
184,144,9971,5,8,0:0:0:0:
168,192,10055,1,8,0:0:0:0:
152,240,10138,1,4,0:3:0:0:
136,288,10221,1,4,0:3:0:0:
120,336,10305,1,8,0:0:0:0:
168,96,10471,5,8,0:0:0:0:
152,144,10555,1,8,0:0:0:0:
136,192,10638,1,8,0:0:0:0:
120,240,10721,1,8,0:0:0:0:
104,288,10805,1,4,0:3:0:0:
80,248,10888,1,4,0:3:0:0:
56,208,10971,1,8,0:0:0:0:
296,320,11138,6,0,L|408:336,1,96,4|2,0:2|0:0,0:0:0:0:
288,240,11388,1,0,0:0:0:0:
288,240,11471,2,0,L|400:256,1,96,2|0,0:3|0:0,0:0:0:0:
168,72,11805,1,2,0:0:0:0:
136,80,11888,1,0,0:0:0:0:
104,88,11971,1,0,0:0:0:0:
352,96,12138,1,0,0:0:0:0:
192,176,12305,5,2,0:0:0:0:
176,208,12388,1,0,0:0:0:0:
160,240,12471,2,0,L|176:336,1,96,0|0,0:0|0:0,0:0:0:0:
80,224,12721,1,0,0:0:0:0:
80,224,12805,2,0,L|96:320,1,96,2|0,0:0|0:0,0:0:0:0:
288,368,13138,5,8,0:3:0:0:
288,368,13221,1,0,0:0:0:0:
288,368,13305,2,0,L|296:312,1,48,0|0,0:0|0:0,0:0:0:0:
416,256,13471,1,4,0:3:0:0:
416,256,13555,1,0,0:0:0:0:
416,256,13638,2,0,L|392:208,1,48,0|0,0:0|0:0,0:0:0:0:
272,56,13805,6,0,L|176:72,1,96,4|2,0:0|0:0,0:0:0:0:
296,128,14055,1,0,0:0:0:0:
296,128,14138,2,0,L|200:144,1,96
24,168,14471,1,2,0:0:0:0:
176,336,14638,1,0,0:0:0:0:
168,304,14721,1,0,0:0:0:0:
160,272,14805,1,0,0:0:0:0:
256,88,14971,5,2,0:0:0:0:
248,120,15055,1,0,0:0:0:0:
240,152,15138,2,0,L|248:208,1,48
304,272,15305,2,0,L|312:328,1,48
336,144,15471,2,0,L|344:200,1,48,2|0,0:0|0:0,0:0:0:0:
400,256,15638,2,0,L|408:312,1,48
316,352,15805,5,0,0:0:0:0:
408,176,15971,1,8,0:3:0:0:
176,96,16138,1,4,0:3:0:0:
216,288,16305,1,0,0:0:0:0:
64,200,16471,6,0,L|160:256,1,96,4|2,0:0|0:0,0:0:0:0:
48,280,16721,1,0,0:0:0:0:
48,280,16805,2,0,L|144:336,1,96
352,336,17138,1,2,0:0:0:0:
344,304,17221,1,0,0:0:0:0:
336,272,17305,1,0,0:0:0:0:
376,88,17471,5,0,0:0:0:0:
120,40,17638,1,2,0:0:0:0:
152,48,17721,1,0,0:0:0:0:
184,56,17805,2,0,L|240:144,1,96
144,128,18055,1,0,0:0:0:0:
144,128,18138,2,0,L|200:216,1,96,2|0,0:0|0:0,0:0:0:0:
248,352,18471,5,0,0:0:0:0:
248,352,18555,1,0,0:0:0:0:
248,352,18638,2,0,L|200:336,1,48
288,192,18805,1,4,0:3:0:0:
288,192,18888,1,0,0:0:0:0:
288,192,18971,2,0,L|336:208,1,48
496,256,19138,6,0,L|440:240,4,48,6|0|0|0|0,0:0|0:0|0:0|0:0|0:0,0:0:0:0:
160,256,19638,2,0,L|208:232,4,48,2|0|0|0|0,0:0|0:0|0:0|0:0|0:0,0:0:0:0:
328,16,20138,2,0,L|352:72,3,48,2|0|0|0,0:0|0:0|0:0|0:0,0:0:0:0:
376,128,20471,5,2,0:0:0:0:
88,192,20638,2,0,P|152:192|224:224,1,144,2|0,0:0|0:0,0:0:0:0:
264,288,20971,1,8,0:3:0:0:
424,208,21138,1,8,0:0:0:0:
388,192,21221,1,8,0:0:0:0:
348,188,21305,1,8,0:0:0:0:
198,363,21471,1,8,0:0:0:0:
224,341,21555,1,8,0:0:0:0:
248,318,21638,1,8,0:0:0:0:
264,288,21721,1,8,0:0:0:0:
273,255,21805,6,0,P|276:220|268:172,1,79.6800011550293,4|0,1:2|0:0,0:0:0:0:
104,40,22138,1,0,1:0:0:0:
176,72,22305,2,0,P|240:88|272:88,1,79.6800011550293,2|0,0:0|1:0,0:0:0:0:
336,80,22638,1,2,0:0:0:0:
472,208,22805,2,0,P|432:216|392:240,1,79.6800011550293,0|0,1:0|0:0,0:0:0:0:
336,288,23138,5,0,1:0:0:0:
296,360,23305,1,0,0:0:0:0:
88,288,23471,2,0,P|144:304|192:304,1,79.6800011550293,2|0,1:2|0:0,0:0:0:0:
296,184,23805,2,0,L|200:200,1,79.6800011550293,0|0,1:0|0:0,0:0:0:0:
400,32,24138,2,0,P|384:80|384:128,1,79.6800011550293,0|0,1:0|0:0,0:0:0:0:
200,272,24471,6,0,B|324:252|324:252|312:288,1,159.360002310059,2|0,1:2|1:0,0:0:0:0:
280,360,24971,1,0,0:0:0:0:
168,240,25138,2,0,P|192:192|200:160,1,79.6800011550293,0|0,1:0|0:0,0:0:0:0:
208,88,25471,1,0,1:0:0:0:
200,8,25638,1,0,0:0:0:0:
304,136,25805,6,0,L|392:120,1,79.6800011550293,2|0,1:2|0:0,0:0:0:0:
460,108,26138,1,0,1:0:0:0:
416,256,26305,2,0,L|424:296,1,39.8400005775147,0|2,0:0|0:0,0:0:0:0:
392,248,26471,2,0,P|376:296|344:344,1,79.6800011550293,0|0,1:0|0:0,0:0:0:0:
296,368,26805,1,0,1:0:0:0:
216,376,26971,1,0,0:0:0:0:
8,240,27138,6,0,P|48:256|96:264,1,79.6800011550293,4|0,1:0|0:0,0:0:0:0:
164,260,27471,1,0,1:0:0:0:
232,96,27638,2,0,L|208:176,1,79.6800011550293,2|0,0:0|1:0,0:0:0:0:
184,248,27971,1,2,0:0:0:0:
240,64,28138,2,0,P|264:112|288:136,1,79.6800011550293,0|0,1:0|0:0,0:0:0:0:
368,296,28471,6,0,P|360:248|368:200,1,79.6800011550293,0|2,1:0|0:0,0:0:0:0:
392,144,28805,1,0,1:0:0:0:
456,96,28971,1,2,0:0:0:0:
304,256,29138,2,0,L|216:272,1,79.6800011550293,0|0,1:0|0:0,0:0:0:0:
148,284,29471,1,0,1:0:0:0:
68,296,29638,1,0,0:0:0:0:
104,96,29805,6,0,B|168:120|168:192|168:192|152:176|136:176,1,159.360002310059,2|0,1:2|1:0,1:0:0:0:
64,208,30305,1,0,0:0:0:0:
184,88,30471,2,0,P|224:64|256:56,1,79.6800011550293,0|2,1:0|0:0,0:0:0:0:
296,264,30805,2,0,L|272:184,1,79.6800011550293,0|2,1:0|0:0,0:0:0:0:
464,48,31138,5,6,1:0:0:0:
344,152,31305,1,8,0:0:0:0:
384,144,31388,1,8,0:0:0:0:
424,136,31471,1,8,0:0:0:0:
255,56,31638,2,2,B|208:64|184:88|184:88|144:104|104:88,1,159.360002310059,2|8,0:0|0:3,0:0:0:0:
16,48,32138,1,0,0:0:0:0:
0,144,32305,1,8,0:0:0:0:
72,336,32471,6,0,L|88:240,1,79.6800011550293,4|0,0:0|0:0,0:0:0:0:
100,164,32805,1,8,0:0:0:0:
248,24,32971,2,0,P|240:64|248:112,1,79.6800011550293,2|0,0:0|0:0,0:0:0:0:
296,184,33305,1,0,0:0:0:0:
432,328,33471,2,0,L|336:312,1,79.6800011550293,10|0,0:0|0:0,0:0:0:0:
344,152,33805,5,2,0:0:0:0:
304,240,33971,1,0,0:0:0:0:
224,296,34138,2,0,P|184:304|128:296,1,79.6800011550293,8|0,0:0|0:0,0:0:0:0:
8,128,34471,1,2,0:0:0:0:
88,184,34638,1,0,0:0:0:0:
152,112,34805,2,0,L|272:96,1,119.520001732544,8|0,0:0|0:0,0:0:0:0:
416,128,35138,6,0,L|328:140,1,79.6800011550293,2|0,0:0|0:0,0:0:0:0:
268,176,35388,1,2,0:0:0:0:
268,176,35471,2,0,P|252:224|260:272,1,79.6800011550293,8|0,0:0|0:0,0:0:0:0:
312,328,35805,1,0,0:0:0:0:
440,296,35971,1,0,0:0:0:0:
272,312,36138,1,8,0:0:0:0:
312,112,36305,6,0,B|344:144|344:144|352:224,1,119.520001732544,2|0,0:0|0:0,0:0:0:0:
356,292,36638,1,0,0:0:0:0:
240,192,36805,2,0,P|192:176|144:176,1,79.6800011550293,8|0,0:0|0:0,0:0:0:0:
32,352,37138,1,2,0:0:0:0:
104,288,37305,1,0,0:0:0:0:
72,128,37471,1,8,0:0:0:0:
64,88,37555,1,8,0:0:0:0:
104,96,37638,1,8,0:0:0:0:
144,104,37721,1,8,0:0:0:0:
184,112,37805,6,0,L|312:144,1,96,4|0,0:0|0:0,0:0:0:0:
368,160,38138,1,8,0:0:0:0:
224,320,38305,2,0,B|248:352|248:352|272:240,1,144,2|0,0:0|0:0,0:0:0:0:
240,184,38638,1,0,0:0:0:0:
248,148,38721,1,0,0:0:0:0:
256,112,38805,1,8,0:0:0:0:
328,344,38971,6,0,L|360:192,1,144,4|0,0:0|0:0,0:0:0:0:
408,152,39305,1,2,0:0:0:0:
248,16,39471,2,0,P|200:40|168:80,1,96,8|0,0:0|0:0,0:0:0:0:
48,240,39805,2,0,L|144:216,1,96,0|2,0:0|0:0,0:0:0:0:
328,256,40138,1,8,0:0:0:0:
256,320,40305,1,0,0:0:0:0:
88,192,40471,6,0,P|72:152|72:96,1,96,4|0,0:0|0:0,0:0:0:0:
232,280,40805,1,8,0:0:0:0:
264,192,40971,1,0,0:0:0:0:
400,32,41138,2,0,L|423:125,1,96,2|0,0:0|0:0,0:0:0:0:
448,216,41471,1,8,0:0:0:0:
240,80,41638,6,0,B|336:104|336:104|352:168,1,144,4|0,0:0|0:0,0:0:0:0:
368,224,41971,1,0,0:0:0:0:
160,344,42138,2,0,P|136:288|136:248,1,96,8|0,0:0|0:0,0:0:0:0:
168,40,42471,2,0,L|128:72,1,48,8|8,0:0|0:0,0:0:0:0:
184,120,42638,2,0,L|160:176,1,48,8|8,0:0|0:0,0:0:0:0:
248,224,42805,1,8,0:0:0:0:
248,224,42888,1,8,0:0:0:0:
248,224,42971,2,0,L|240:168,1,48,4|0,0:3|0:0,0:0:0:0:
304,288,43138,6,0,B|336:260|333:215|333:215|384:232|384:280,1,167.040005097656,4|0,0:0|0:0,0:0:0:0:
352,360,43805,1,8,0:0:0:0:
208,304,43971,2,0,L|144:296,1,55.6800016992188,4|0,0:3|0:0,0:0:0:0:
64,320,44305,1,0,0:0:0:0:
120,88,44471,6,0,B|144:80|160:64|160:64|148:100|164:128,1,111.360003398438,2|0,0:0|0:0,0:0:0:0:
392,192,44971,1,0,0:0:0:0:
392,192,45055,1,0,0:0:0:0:
392,192,45138,2,0,L|336:184,1,55.6800016992188,8|0,0:0|0:0,0:0:0:0:
232,92,45471,2,0,L|288:100,1,55.6800016992188,4|0,0:3|0:0,0:0:0:0:
464,296,45805,6,0,P|432:336|376:360,1,111.360003398438,4|0,0:3|0:0,0:0:0:0:
288,336,46305,1,0,0:0:0:0:
288,336,46388,1,0,0:0:0:0:
288,336,46471,1,8,0:0:0:0:
96,232,46638,1,0,0:0:0:0:
184,248,46805,2,0,L|320:232,1,111.360003398438,4|0,0:3|0:0,0:0:0:0:
464,296,47305,1,8,0:0:0:0:
464,296,47805,6,0,P|416:288|384:272,1,79.6800011550293,8|0,0:0|0:0,0:0:0:0:
304,224,48138,1,8,0:3:0:0:
232,288,48305,1,4,0:3:0:0:
88,176,48471,6,0,L|176:152,1,79.6800011550293,4|0,0:0|0:0,0:0:0:0:
352,32,48805,2,0,P|328:80|328:128,1,79.6800011550293,8|0,0:0|0:0,0:0:0:0:
344,200,49138,1,2,0:0:0:0:
416,264,49305,1,0,0:0:0:0:
208,360,49471,1,8,0:0:0:0:
248,272,49638,6,0,P|248:208|232:168,1,79.6800011550293,0|2,0:0|0:0,0:0:0:0:
64,32,49971,1,0,0:0:0:0:
184,128,50138,2,0,L|104:104,1,79.6800011550293,8|0,0:0|0:0,0:0:0:0:
24,208,50471,1,2,0:0:0:0:
128,312,50638,1,0,0:0:0:0:
224,128,50805,1,8,0:0:0:0:
368,208,50971,2,0,L|424:224,1,39.8400005775147,0|0,0:0|0:0,0:0:0:0:
464,288,51138,6,0,P|416:288|360:312,2,79.6800011550293,8|0|0,0:0|0:0|0:0,0:0:0:0:
136,184,51638,2,0,P|200:200|224:216,2,79.6800011550293,8|0|0,0:0|0:0|0:0,0:0:0:0:
368,32,52138,1,8,0:0:0:0:
360,72,52221,1,8,0:0:0:0:
352,112,52305,1,8,0:0:0:0:
344,152,52388,1,8,0:0:0:0:
336,192,52471,1,12,0:0:0:0:
112,320,52638,1,8,0:0:0:0:
128,312,53138,6,0,P|160:280|168:248,1,74.2400022656251
56,180,53471,2,0,L|100:260,1,74.2400022656251
304,48,53805,6,0,L|288:152,1,96,4|0,1:0|0:0,0:0:0:0:
328,304,54055,1,0,0:0:0:0:
328,304,54138,2,0,P|368:264|384:216,1,96,2|0,1:3|0:0,0:0:0:0:
248,104,54471,1,2,0:0:0:0:
456,48,54638,1,4,0:3:0:0:
304,224,54805,1,8,0:0:0:0:
176,48,54971,6,0,P|88:40|32:64,1,144,4|0,0:0|0:0,0:0:0:0:
0,136,55305,1,0,0:0:0:0:
120,352,55471,2,0,L|136:256,1,96,10|0,0:0|0:0,0:0:0:0:
360,112,55805,1,4,0:3:0:0:
312,288,55971,1,2,0:0:0:0:
288,248,56055,1,0,0:0:0:0:
264,208,56138,1,8,0:0:0:0:
432,32,56305,6,0,P|464:80|464:144,1,96
424,240,56638,1,2,0:0:0:0:
240,120,56805,2,0,L|144:136,1,96,8|0,0:0|0:0,0:0:0:0:
0,160,57138,1,4,0:3:0:0:
160,288,57305,1,4,0:3:0:0:
256,72,57471,1,8,0:0:0:0:
296,288,57638,6,0,B|312:184|312:184|352:144,1,144,2|0,0:0|0:0,0:0:0:0:
400,104,57971,1,0,0:0:0:0:
224,56,58138,2,0,P|168:56|128:72,1,96,10|0,0:0|0:0,0:0:0:0:
48,136,58471,1,4,0:3:0:0:
168,256,58638,1,0,0:0:0:0:
120,264,58721,1,0,0:0:0:0:
72,272,58805,1,8,0:0:0:0:
192,160,58971,1,2,0:0:0:0:
256,328,59138,6,0,P|312:352|368:344,1,96,4|0,0:0|0:0,0:0:0:0:
512,112,59471,2,0,L|408:120,1,96,8|0,0:0|0:0,0:0:0:0:
216,136,59805,1,2,0:0:0:0:
368,200,59971,1,0,0:0:0:0:
416,216,60055,1,0,0:0:0:0:
464,232,60138,1,8,0:0:0:0:
280,24,60305,6,0,P|192:16|128:48,1,144,4|0,0:0|0:0,0:0:0:0:
96,96,60638,1,4,0:3:0:0:
48,304,60805,2,0,L|144:280,1,96,10|0,0:0|0:0,0:0:0:0:
272,160,61138,1,0,0:0:0:0:
336,304,61305,1,2,0:0:0:0:
288,288,61388,1,0,0:0:0:0:
248,272,61471,1,8,0:0:0:0:
376,112,61638,6,0,P|424:136|456:176,1,96,4|0,0:3|0:0,0:0:0:0:
408,344,61971,2,0,L|400:296,1,48
376,168,62138,1,8,0:0:0:0:
288,208,62305,1,8,0:0:0:0:
120,48,62471,1,2,0:0:0:0:
96,240,62638,2,0,L|112:192,1,48,4|0,0:3|0:0,0:0:0:0:
152,88,62805,1,8,0:0:0:0:
216,224,62971,6,0,P|208:280|144:352,1,144,2|0,0:0|0:0,0:0:0:0:
202,345,63305,1,0,0:0:0:0:
249,338,63388,1,0,0:0:0:0:
289,312,63471,1,8,0:0:0:0:
327,282,63555,1,0,0:0:0:0:
372,268,63638,1,0,0:0:0:0:
419,269,63721,1,0,0:0:0:0:
463,287,63805,6,0,L|502:328,1,48,4|4,0:3|0:3,0:0:0:0:
352,360,63971,2,0,L|360:312,1,48,8|8,0:3|0:3,0:0:0:0:
432,192,64138,2,0,L|376:184,1,48,8|8,0:0|0:0,0:0:0:0:
248,120,64305,2,0,L|240:176,1,48,8|8,0:0|0:0,0:0:0:0:
191,322,64471,6,0,P|144:352|80:352,1,96,4|0,1:0|0:0,0:0:0:0:
24,192,64721,1,0,0:0:0:0:
24,192,64805,2,0,L|128:208,1,96,2|0,1:3|0:0,0:0:0:0:
296,224,65138,1,2,0:0:0:0:
152,112,65305,1,4,0:3:0:0:
80,288,65471,1,8,0:0:0:0:
328,352,65638,6,0,P|384:320|432:240,1,144,4|0,0:0|0:0,0:0:0:0:
440,168,65971,1,0,0:0:0:0:
248,32,66138,2,0,L|272:128,1,96,10|0,0:0|0:0,0:0:0:0:
160,336,66471,1,4,0:3:0:0:
240,240,66638,1,2,0:0:0:0:
288,232,66721,1,0,0:0:0:0:
336,224,66805,1,8,0:0:0:0:
160,120,66971,6,0,P|120:120|56:152,1,96,2|0,0:0|0:0,0:0:0:0:
8,240,67305,1,0,0:0:0:0:
216,352,67471,2,0,P|216:304|232:256,1,96,8|0,0:0|0:0,0:0:0:0:
464,168,67805,1,2,0:0:0:0:
416,160,67888,1,4,0:3:0:0:
368,152,67971,1,4,0:3:0:0:
320,144,68055,1,0,0:0:0:0:
272,136,68138,2,0,P|224:112|192:72,1,96,8|0,0:0|0:0,0:0:0:0:
8,288,68471,6,0,L|112:272,1,96,4|0,0:0|0:0,0:0:0:0:
296,240,68805,1,8,0:0:0:0:
200,256,68971,1,2,0:0:0:0:
472,352,69138,2,0,P|424:360|376:344,1,96,4|4,0:0|0:3,0:0:0:0:
256,208,69471,1,8,0:0:0:0:
296,296,69638,1,2,0:0:0:0:
432,24,69805,6,0,P|456:80|432:184,1,144,4|0,0:0|0:0,0:0:0:0:
392,224,70138,1,8,0:0:0:0:
344,232,70221,1,8,0:3:0:0:
296,240,70305,1,0,0:0:0:0:
248,248,70388,1,0,0:0:0:0:
200,256,70471,2,0,P|160:280|128:328,1,96,4|4,0:3|0:3,0:0:0:0:
152,120,70805,1,8,0:0:0:0:
200,128,70888,1,0,0:0:0:0:
248,136,70971,1,0,0:0:0:0:
408,248,71138,5,4,1:0:0:0:
376,120,71305,1,4,0:3:0:0:
192,280,71471,1,8,0:0:0:0:
256,40,71638,1,4,1:0:0:0:
256,40,71971,1,0,0:0:0:0:
192,280,72138,2,0,B|160:336|96:336|96:336|80:304,1,144,8|0,0:0|0:0,0:0:0:0:
32,128,72471,6,0,L|16:240,1,96,4|0,0:0|0:0,0:0:0:0:
72,320,72805,1,8,0:0:0:0:
176,80,72971,2,0,L|192:232,1,144,2|0,0:0|0:0,0:0:0:0:
144,280,73305,1,4,0:3:0:0:
149,327,73388,1,0,0:0:0:0:
154,374,73471,1,8,0:0:0:0:
360,368,73638,6,0,P|384:312|384:224,1,144,2|0,0:0|0:0,0:0:0:0:
344,160,73971,1,4,0:3:0:0:
472,40,74138,1,8,0:0:0:0:
368,208,74305,2,0,P|320:240|224:248,1,144,2|0,0:0|0:0,0:0:0:0:
160,216,74638,1,0,0:0:0:0:
252,72,74805,1,8,0:0:0:0:
252,120,74888,1,8,0:0:0:0:
236,164,74971,1,8,0:0:0:0:
204,200,75055,1,8,0:0:0:0:
160,216,75138,5,4,1:0:0:0:
408,168,75805,1,8,0:0:0:0:
120,96,76471,1,12,0:0:0:0:
360,16,77138,1,8,0:0:0:0:
256,208,77471,5,8,0:0:0:0:
256,256,77555,1,8,0:0:0:0:
256,296,77638,1,8,0:0:0:0:
256,324,77721,1,8,0:0:0:0:
256,344,77805,1,0,0:0:0:0:
256,352,78471,2,0,L|256:232,1,111.360003398438,0|4,0:0|0:3,0:0:0:0:
128,56,79138,6,0,P|104:104|104:152,1,96,4|0,1:0|0:0,0:0:0:0:
216,280,79471,1,8,0:0:0:0:
200,128,79638,1,0,0:0:0:0:
400,80,79805,1,2,0:0:0:0:
312,216,79971,1,8,0:0:0:0:
320,264,80055,1,0,0:0:0:0:
328,312,80138,1,0,0:0:0:0:
104,328,80305,6,0,B|168:245|168:245|160:200,1,144,12|0,0:0|0:0,0:0:0:0:
248,224,80638,2,0,B|238:179|238:179|304:88,1,144,4|0,0:3|0:0,0:0:0:0:
352,40,80971,1,8,0:0:0:0:
472,216,81138,1,8,0:0:0:0:
472,216,81249,2,0,P|464:256|448:288,1,64,8|8,0:0|0:0,0:0:0:0:
320,352,81471,1,8,0:0:0:0:
320,352,81583,2,0,P|288:312|280:280,1,64,8|0,0:0|0:0,0:0:0:0:
72,112,81805,6,0,L|176:128,1,96,4|0,0:0|0:0,0:0:0:0:
296,144,82138,1,8,0:3:0:0:
192,48,82305,1,8,0:0:0:0:
224,240,82471,1,2,0:0:0:0:
368,304,82638,1,8,0:0:0:0:
348,271,82721,1,0,0:0:0:0:
336,234,82805,1,4,0:3:0:0:
336,195,82888,1,0,0:0:0:0:
349,159,82971,1,0,0:0:0:0:
448,80,83138,6,0,P|472:128|472:184,1,96,4|8,0:0|0:0,0:0:0:0:
360,320,83471,2,0,L|264:336,1,96,4|0,0:3|0:0,0:0:0:0:
64,304,83805,1,8,0:0:0:0:
64,304,83916,2,0,P|120:280|136:256,1,64,0|8,0:0|0:0,0:0:0:0:
280,240,84138,1,8,0:0:0:0:
280,240,84249,2,0,P|272:184|280:152,1,64,8|8,0:0|0:0,0:0:0:0:
336,24,84471,5,4,0:0:0:0:
72,192,84805,1,8,0:0:0:0:
192,304,84971,2,0,B|272:328|328:272|328:272|360:304|360:304|368:240|416:216|416:216|424:168|400:136,1,384,4|0,1:0|0:0,0:0:0:0:
376,107,85746,1,0,0:0:0:0:
341,88,85833,1,2,0:0:0:0:
256,192,85919,12,8,88074,0:0:0:0:
256,192,88419,5,4,0:3:0:0:
