osu file format v14

[General]
AudioFilename: full.mp3
AudioLeadIn: 1500
PreviewTime: 120963
Countdown: 0
SampleSet: Soft
StackLeniency: 0.7
Mode: 0
LetterboxInBreaks: 0
WidescreenStoryboard: 0

[Editor]
Bookmarks: 42766,125301,144140,159467,160134,160473
DistanceSpacing: 1.8
BeatDivisor: 3
GridSize: 4
TimelineZoom: 4.299999

[Metadata]
Title:EXTRA MAGIC HOUR
TitleUnicode:エクストラ・マジック・アワー
Artist:AKINO with bless4
ArtistUnicode:AKINO with bless4
Creator:koreapenguin
Version:Extra
Source:Amagi Brilliant Park
Tags:甘城ブリリアントパーク full opening Nozhomi Kibbleru captin1 Underflow
BeatmapID:523661
BeatmapSetID:224335

[Difficulty]
HPDrainRate:7
CircleSize:4
OverallDifficulty:8.5
ApproachRate:9.3
SliderMultiplier:2
SliderTickRate:1

[Events]
//Background and Video events
0,0,"2332398ylmff.jpg",0,0
//Break Periods
//Storyboard Layer 0 (Background)
//Storyboard Layer 1 (Fail)
//Storyboard Layer 2 (Pass)
//Storyboard Layer 3 (Foreground)
//Storyboard Sound Samples

[TimingPoints]
464,333.333333333333,4,2,3,40,1,0
464,-133.333333333333,4,2,3,40,0,0
7130,-100,4,1,10,60,0,0
11130,-100,4,1,10,60,0,0
11463,-100,4,2,100,75,0,0
11630,-100,4,1,10,60,0,0
21797,-117.647058823529,4,1,10,60,0,0
32463,-100,4,1,10,60,0,0
43130,-133.333333333333,4,1,10,50,0,0
48463,-100,4,1,10,60,0,0
51130,-83.3333333333333,4,1,10,60,0,0
52130,-66.6666666666667,4,1,10,60,0,0
53130,-117.647058823529,4,2,3,60,0,0
53797,-66.6666666666667,4,1,10,70,0,1
54130,-83.3333333333333,4,2,100,90,0,1
54297,-83.3333333333333,4,1,10,70,0,1
64463,-66.6666666666667,4,1,10,70,0,1
64797,-83.3333333333333,4,2,100,90,0,1
64963,-83.3333333333333,4,1,10,70,0,1
69463,-100,4,1,10,70,0,1
69797,-83.3333333333333,4,1,10,70,0,1
77797,-133.333333333333,4,1,10,60,0,0
80463,-133.333333333333,4,2,3,60,0,0
81463,-133.333333333333,4,1,10,60,0,0
81797,-83.3333333333333,4,1,10,60,0,0
82130,-100,4,2,100,75,0,0
82297,-100,4,1,10,60,0,0
89797,-117.647058823529,4,1,10,60,0,0
100463,-100,4,1,10,60,0,0
111130,-133.333333333333,4,1,10,60,0,0
111463,-133.333333333333,4,2,10,60,0,0
111797,-133.333333333333,4,1,10,60,0,0
111880,-133.333333333333,4,2,10,60,0,0
112130,-133.333333333333,4,1,10,60,0,0
112213,-133.333333333333,4,2,10,60,0,0
115130,-133.333333333333,4,1,10,60,0,0
116463,-100,4,1,10,60,0,0
119130,-83.3333333333333,4,1,10,60,0,0
120130,-66.6666666666667,4,1,10,60,0,0
121130,-117.647058823529,4,2,10,60,0,0
121797,-66.6666666666667,4,1,10,70,0,1
122130,-83.3333333333333,4,2,100,90,0,1
122297,-83.3333333333333,4,1,10,70,0,1
132463,-66.6666666666667,4,1,10,70,0,1
132797,-83.3333333333333,4,2,100,90,0,1
132963,-83.3333333333333,4,1,10,70,0,1
145797,-133.333333333333,4,1,10,60,0,0
148130,-100,4,1,10,60,0,0
148463,-100,4,2,3,60,0,0
149463,-133.333333333333,4,1,10,60,0,0
149797,-83.3333333333333,4,1,10,60,0,0
150130,-100,4,1,10,60,0,0
155130,-83.3333333333333,4,1,10,60,0,0
155963,-100,4,1,10,60,0,0
157797,-83.3333333333333,4,1,10,60,0,0
158630,-100,4,1,10,60,0,0
160463,-76.9230769230769,4,1,10,60,0,0
160797,-100,4,1,10,60,0,0
165797,-76.9230769230769,4,1,10,60,0,0
166130,-100,4,1,10,60,0,0
173797,-76.9230769230769,4,1,10,60,0,0
174130,-100,4,1,10,60,0,0
184380,-100,4,1,10,5,0,0
184463,-100,4,1,10,60,0,0
186463,-166.666666666667,4,2,3,50,0,0
187130,-133.333333333333,4,2,3,50,0,0
197797,-117.647058823529,4,2,3,50,0,0
201797,-100,4,1,10,60,0,0
213797,-166.666666666667,4,1,10,60,0,0
214130,-66.6666666666667,4,2,100,90,0,1
214380,-66.6666666666667,4,1,10,70,0,1
214463,-83.3333333333333,4,1,10,70,0,1
224463,-133.333333333333,4,1,10,70,0,1
224797,-66.6666666666667,4,2,100,90,0,1
225047,-66.6666666666667,4,1,10,70,0,1
225130,-83.3333333333333,4,1,10,70,0,1
235130,-133.333333333333,4,1,10,60,0,0
237463,-100,4,1,10,60,0,0
237797,-100,4,2,3,60,0,0
238797,-100,4,1,10,60,0,0
244963,345.821325648415,4,1,10,60,1,8
244963,-133.333333333333,4,1,10,60,0,0
245135,345.821325648415,4,1,10,60,1,8
245653,-100,4,2,3,60,0,8
245826,345.821325648415,4,2,3,60,1,0
249284,-100,4,1,10,60,0,0

[Colours]
Combo1 : 204,131,32
Combo2 : 255,149,149
Combo3 : 255,210,77
Combo4 : 219,219,219

[HitObjects]
476,332,464,6,0,B|484:304|484:304|436:344|364:320,1,150.000005722046,8|2,0:0|0:0,0:0:0:0:
304,240,963,1,0,0:0:0:0:
340,140,1130,2,0,P|338:104|314:57,1,75.0000028610231,2|0,0:0|0:0,0:0:0:0:
216,184,1463,2,0,P|202:219|199:256,1,75.0000028610231,2|0,0:0|0:0,0:0:0:0:
372,328,1797,6,0,P|412:266|405:193,1,150.000005722046,8|2,0:0|0:0,0:0:0:0:
316,136,2297,1,0,0:0:0:0:
408,88,2463,1,2,0:0:0:0:
304,240,2630,1,0,0:0:0:0:
216,184,2797,6,0,B|221:129|221:129|240:98|240:98|245:40,1,150.000005722046,2|0,0:0|0:0,0:0:0:0:
148,68,3297,1,0,0:0:0:0:
332,68,3463,2,0,B|328:124|328:124|309:155|309:155|304:213,2,150.000005722046,8|0|0,0:0|0:0|0:0,0:0:0:0:
332,68,4463,5,2,0:0:0:0:
432,36,4630,1,0,0:0:0:0:
496,92,4769,2,0,L|512:40,2,50.0000019073487,2|0|8,0:0|0:0|0:0,0:0:0:0:
456,184,5102,2,0,L|464:248,2,62.5000023841859,2|8|0,0:0|0:0|0:0,0:0:0:0:
432,156,5463,5,2,0:0:0:0:
399,141,5546,1,0,0:0:0:0:
362,143,5629,1,0,0:0:0:0:
330,162,5712,1,0,0:0:0:0:
310,193,5797,5,2,0:0:0:0:
330,225,5880,1,0,0:0:0:0:
332,262,5963,1,0,0:0:0:0:
315,294,6046,1,0,0:0:0:0:
284,314,6130,5,2,0:0:0:0:
263,284,6213,1,0,0:0:0:0:
228,276,6296,1,0,0:0:0:0:
197,295,6379,1,0,0:0:0:0:
188,331,6463,5,2,0:0:0:0:
152,323,6546,1,0,0:0:0:0:
114,320,6629,1,0,0:0:0:0:
77,322,6712,1,0,0:0:0:0:
40,330,6797,5,2,0:0:0:0:
62,300,6880,1,0,0:0:0:0:
68,264,6963,1,0,0:0:0:0:
60,228,7046,1,0,0:0:0:0:
32,184,7130,6,0,L|96:188,1,50,6|0,0:0|0:0,0:0:0:0:
184,140,7297,1,0,0:0:0:0:
68,264,7463,1,8,0:3:0:0:
96,52,7630,1,0,0:0:0:0:
96,52,7713,1,0,0:0:0:0:
97,52,7797,2,0,P|188:16|277:56,1,200,2|2,0:0|0:0,0:0:0:0:
272,228,8297,2,0,P|182:265|93:225,1,200,6|8,0:0|0:0,0:0:0:0:
93,225,8797,1,2,0:0:0:0:
93,225,9797,6,0,L|84:300,1,50,8|0,0:0|0:0,0:0:0:0:
164,136,9963,1,8,0:3:0:0:
256,376,10130,1,4,0:3:0:0:
84,212,10297,1,8,0:0:0:0:
208,80,10463,2,0,L|204:12,1,50,8|0,0:3|0:0,0:0:0:0:
268,156,10630,1,4,0:3:0:0:
384,60,10797,1,0,0:0:0:0:
384,60,10880,1,0,0:0:0:0:
384,60,10963,1,8,0:0:0:0:
404,352,11130,6,0,L|502:367,1,100,6|0,0:0|0:0,0:0:0:0:
404,236,11463,1,12,0:0:0:0:
296,376,11630,1,0,0:0:0:0:
493,276,11797,2,0,P|502:228|485:181,1,100,2|0,0:0|0:0,0:0:0:0:
308,144,12130,1,8,0:0:0:0:
492,80,12297,1,0,0:0:0:0:
228,8,12463,6,0,B|216:36|216:36|220:128,1,100,2|0,0:0|0:0,0:0:0:0:
296,172,12713,1,0,0:0:0:0:
308,144,12797,2,0,L|304:28,1,100,8|0,0:0|0:0,0:0:0:0:
192,244,13130,1,2,0:0:0:0:
380,328,13297,1,0,0:0:0:0:
384,304,13380,1,0,0:0:0:0:
388,280,13463,2,0,L|336:288,1,50,8|0,0:0|0:0,0:0:0:0:
192,244,13630,2,0,L|140:252,1,50
16,153,13797,6,0,P|17:103|38:58,1,100,2|0,0:0|0:0,0:0:0:0:
144,252,14130,1,8,0:0:0:0:
0,336,14297,1,0,0:0:0:0:
136,128,14463,2,0,B|168:120|168:120|236:128,1,100,2|0,0:0|0:0,0:0:0:0:
252,344,14797,2,0,B|220:352|220:352|152:344,1,100,8|0,0:0|0:0,0:0:0:0:
93,277,15047,1,0,0:0:0:0:
109,257,15130,6,0,L|105:155,1,100,2|0,0:0|0:0,0:0:0:0:
28,352,15463,1,8,0:0:0:0:
232,312,15630,1,0,0:0:0:0:
96,112,15797,1,2,0:0:0:0:
140,247,15963,2,0,L|137:174,1,50
74,105,16130,1,8,0:0:0:0:
18,327,16297,1,0,0:0:0:0:
231,278,16463,5,2,0:0:0:0:
172,35,16630,1,0,0:0:0:0:
14,208,16797,1,8,0:0:0:0:
296,168,16963,1,0,0:0:0:0:
45,83,17130,2,0,L|41:206,1,100,2|0,0:0|0:0,0:0:0:0:
177,287,17463,1,8,0:0:0:0:
290,146,17630,6,0,P|242:139|194:153,1,100,0|2,0:0|0:0,0:0:0:0:
206,320,17963,2,0,P|255:328|303:314,1,100,0|8,0:0|0:0,0:0:0:0:
107,215,18297,1,0,0:0:0:0:
65,372,18463,1,2,0:0:0:0:
223,306,18630,1,0,0:0:0:0:
215,283,18713,1,0,0:0:0:0:
206,260,18797,2,0,L|191:322,1,50,8|0,0:0|0:0,0:0:0:0:
290,146,18963,1,0,0:0:0:0:
282,123,19046,1,0,0:0:0:0:
273,100,19130,5,6,0:0:0:0:
273,100,19463,1,0,0:0:0:0:
104,252,19630,1,6,0:0:0:0:
94,267,20130,1,6,0:0:0:0:
94,267,20463,5,12,0:0:0:0:
160,16,20630,1,6,0:0:0:0:
168,32,20963,1,8,0:0:0:0:
64,140,21130,2,0,L|116:132,1,50,8|0,0:0|0:0,0:0:0:0:
264,224,21297,2,0,L|212:216,1,50,4|0,0:3|0:0,0:0:0:0:
329,324,21463,1,8,0:0:0:0:
363,289,21546,1,0,3:0:0:0:
380,242,21629,1,0,3:0:0:0:
378,193,21712,1,0,3:0:0:0:
355,148,21797,6,0,L|360:48,1,85.0000016212464,6|0,0:0|0:0,0:0:0:0:
448,216,22130,1,2,0:0:0:0:
252,192,22297,2,0,L|260:22,1,170.000003242493
260,23,22797,1,2,0:0:0:0:
260,23,23130,6,0,L|255:129,1,85.0000016212464,2|0,0:0|0:0,0:0:0:0:
360,229,23463,2,0,P|368:188|355:148,1,85.0000016212464,2|0,0:0|0:0,0:0:0:0:
254,301,23797,2,0,P|319:354|403:352,1,170.000003242493,2|2,0:0|0:0,0:0:0:0:
495,263,24297,1,0,0:0:0:0:
370,66,24463,6,0,B|349:100|349:100|361:251,1,170.000003242493,2|2,0:0|0:0,0:0:0:0:
486,125,24963,1,0,0:0:0:0:
370,66,25130,1,2,0:0:0:0:
247,101,25297,1,0,0:0:0:0:
104,37,25463,1,2,0:0:0:0:
227,72,25630,1,0,0:0:0:0:
235,201,25797,6,0,P|182:264|99:270,1,170.000003242493,2|2,0:0|0:0,0:0:0:0:
5,184,26297,1,0,0:0:0:0:
105,38,26463,2,0,P|112:79|103:121,1,85.0000016212464,2|0,0:0|0:0,0:0:0:0:
6,267,26797,2,0,P|-2:226|5:184,1,85.0000016212464,2|0,0:0|0:0,0:0:0:0:
147,96,27130,5,6,0:0:0:0:
227,271,27297,1,0,0:0:0:0:
90,224,27463,1,2,0:0:0:0:
305,194,27630,2,0,P|335:265|301:351,1,170.000003242493
132,311,28130,2,0,P|125:267|136:228,1,85.0000016212464,2|0,0:0|0:0,0:0:0:0:
305,194,28463,5,2,0:0:0:0:
158,345,28630,1,0,0:0:0:0:
19,187,28797,2,0,B|30:151|30:151|23:12,2,170.000003242493,2|2|2,0:0|0:0|0:0,0:0:0:0:
104,312,29630,1,0,0:0:0:0:
272,188,29797,2,0,B|258:159|258:159|192:127|128:171,1,170.000003242493,6|2,0:0|0:0,0:0:0:0:
327,350,30297,1,0,0:0:0:0:
476,242,30463,2,0,P|484:200|475:158,1,85.0000016212464,2|0,0:0|0:0,0:0:0:0:
272,105,30797,2,0,P|264:147|272:188,1,85.0000016212464,2|0,0:0|0:0,0:0:0:0:
449,136,31130,5,6,0:0:0:0:
449,136,31213,1,0,0:0:0:0:
449,136,31297,2,0,L|396:138,1,42.5000008106232
303,77,31463,1,8,0:0:0:0:
476,242,31630,1,6,0:0:0:0:
476,242,31963,1,6,0:0:0:0:
469,263,32047,1,0,0:0:0:0:
461,283,32130,2,0,L|449:219,1,42.5000008106232,8|4,0:3|0:3,0:0:0:0:
314,119,32297,2,0,L|307:161,1,42.5000008106232,8|0,0:0|0:0,0:0:0:0:
152,356,32463,6,0,L|136:258,1,100,6|0,0:0|0:0,0:0:0:0:
124,156,32713,1,0,0:0:0:0:
108,136,32797,2,0,P|92:188|104:236,1,100,8|0,0:0|0:0,0:0:0:0:
224,88,33130,1,2,0:0:0:0:
16,44,33297,1,2,0:0:0:0:
100,232,33463,1,8,0:0:0:0:
120,16,33630,1,0,0:0:0:0:
0,192,33797,5,6,0:0:0:0:
228,138,33963,2,0,L|223:75,1,50,2|0,0:0|0:0,0:0:0:0:
168,219,34130,2,0,P|161:268|174:316,1,100,8|0,0:0|0:0,0:0:0:0:
350,179,34463,2,0,P|358:131|345:83,1,100,0|2,0:0|0:0,0:0:0:0:
272,256,34797,1,8,0:0:0:0:
464,276,34963,1,0,0:0:0:0:
416,64,35130,6,0,B|365:69|365:69|331:96|331:96|276:101,1,150,2|0,0:0|0:0,0:0:0:0:
228,80,35463,1,8,0:0:0:0:
404,160,35630,1,0,0:0:0:0:
288,8,35797,1,2,0:0:0:0:
268,224,35963,1,0,0:0:0:0:
392,28,36130,1,8,0:0:0:0:
196,112,36297,6,0,B|186:127|169:132|169:132|172:112|168:91|168:91|96:116|27:58,1,200,2|2,0:0|0:0,0:0:0:0:
293,61,36797,2,0,P|305:109|294:157,1,100,8|0,0:0|0:0,0:0:0:0:
164,276,37130,1,2,0:0:0:0:
196,112,37297,1,2,0:0:0:0:
292,304,37463,1,8,0:0:0:0:
96,172,37630,1,0,0:0:0:0:
328,220,37797,5,6,0:0:0:0:
176,312,37963,1,0,0:0:0:0:
184,96,38130,1,8,0:0:0:0:
401,109,38297,2,0,P|452:192|435:288,1,200,2|2,0:0|0:0,0:0:0:0:
268,232,38797,2,0,L|316:220,1,50,8|0,0:0|0:0,0:0:0:0:
180,344,38963,6,0,P|129:261|146:165,1,200,6|2,0:0|0:0,0:0:0:0:
388,140,39463,1,8,0:0:0:0:
268,232,39630,1,2,0:0:0:0:
292,16,39797,1,0,0:0:0:0:
292,16,39880,1,0,0:0:0:0:
292,16,39963,1,2,0:0:0:0:
488,92,40130,2,0,P|501:140|487:188,1,100,8|0,0:0|0:0,0:0:0:0:
284,204,40463,6,0,B|376:169|376:169|436:169|472:229,1,200,6|8,0:0|0:0,0:0:0:0:
336,368,40963,1,0,0:0:0:0:
168,260,41130,2,0,P|156:212|167:164,1,100,2|0,0:0|0:0,0:0:0:0:
252,315,41463,1,8,0:0:0:0:
62,301,41630,6,0,P|45:204|69:107,1,200,6|2,0:0|0:0,0:0:0:0:
236,40,42130,1,8,0:0:0:0:
400,144,42297,1,0,0:0:0:0:
400,144,42380,1,0,0:0:0:0:
400,144,42463,2,0,L|344:152,1,50,8|0,0:0|0:0,0:0:0:0:
228,200,42630,2,0,L|284:208,1,50,8|0,0:3|0:0,0:0:0:0:
456,256,42797,2,0,L|400:264,1,50,4|0,0:3|0:0,0:0:0:0:
212,328,42963,2,0,L|268:336,1,50,8|0,0:3|0:0,0:0:0:0:
406,263,43130,6,0,P|418:190|382:120,2,150.000005722046,6|0|8,0:0|0:0|0:0,0:0:0:0:
214,282,43963,1,0,0:0:0:0:
307,207,44130,1,0,0:0:0:0:
225,314,44297,1,0,0:0:0:0:
91,302,44463,6,0,P|59:236|71:163,1,150.000005722046,2|0,0:0|0:0,0:0:0:0:
308,192,44963,1,0,0:0:0:0:
308,192,45047,1,0,0:0:0:0:
308,192,45130,2,0,P|245:228|171:219,1,150.000005722046,8|2,0:0|0:0,0:0:0:0:
328,52,45630,1,0,0:0:0:0:
484,116,45797,6,0,B|496:152|496:152|476:276,1,150.000005722046,2|0,0:0|0:0,0:0:0:0:
332,360,46297,1,2,0:0:0:0:
308,192,46463,2,0,P|346:189|381:200,1,75.0000028610231,8|0,0:0|0:0,0:0:0:0:
200,284,46797,2,0,P|168:217|179:144,1,150.000005722046,2|2,0:0|0:0,0:0:0:0:
280,48,47297,5,8,0:0:0:0:
179,143,47463,2,0,L|105:137,1,75.0000028610231,2|0,0:0|0:0,0:0:0:0:
271,195,47797,1,8,0:0:0:0:
308,192,47880,1,8,0:3:0:0:
346,189,47963,1,4,0:3:0:0:
196,322,48130,2,0,L|200:284,1,37.5000014305115,0|8,0:0|0:3,0:0:0:0:
107,271,48297,2,0,L|112:234,1,37.5000014305115,4|0,0:3|0:0,0:0:0:0:
19,223,48463,6,0,L|35:119,1,100,6|0,0:0|0:0,0:0:0:0:
60,37,48713,1,0,0:0:0:0:
84,28,48797,2,0,B|126:24|157:49|157:49|204:28|204:28|231:52|270:46,1,200,8|2,0:0|0:0,0:0:0:0:
416,8,49297,1,0,0:0:0:0:
352,240,49463,1,8,0:0:0:0:
268,48,49630,1,2,0:0:0:0:
476,136,49797,5,0,0:0:0:0:
224,164,49963,1,2,0:0:0:0:
400,96,50130,1,8,0:0:0:0:
500,264,50297,1,2,0:0:0:0:
324,196,50464,1,0,0:0:0:0:
196,368,50630,1,2,0:0:0:0:
372,300,50797,1,8,0:0:0:0:
328,116,50963,1,0,0:0:0:0:
328,116,51047,1,0,0:0:0:0:
328,116,51130,6,0,B|306:98|306:98|266:114|266:170|266:170|206:130|246:42,1,239.999992675781,6|2,0:0|0:0,0:0:0:0:
368,248,51630,2,0,P|264:300|159:251,1,239.999992675781,6|0,0:0|0:0,0:0:0:0:
336,40,52130,6,0,L|328:124,1,75.0000028610231,8|0,0:0|0:0,0:0:0:0:
159,250,52297,2,0,L|152:176,1,75.0000028610231,8|0,0:0|0:0,0:0:0:0:
76,80,52463,5,6,0:0:0:0:
424,40,52630,1,6,0:0:0:0:
440,26,53130,6,0,L|444:140,1,113.333335494995
444,140,53463,5,0,0:0:0:0:
396,216,53575,1,0,0:0:0:0:
484,220,53686,1,0,0:0:0:0:
444,139,53797,6,0,P|337:122|252:192,1,225.000008583069,6|0,0:0|0:0,0:0:0:0:
252,192,54130,1,12,0:0:0:0:
428,372,54297,1,0,0:0:0:0:
484,152,54463,1,2,0:0:0:0:
292,344,54630,1,2,0:0:0:0:
500,172,54797,1,8,0:0:0:0:
276,56,54963,6,0,B|256:68|235:62|235:62|232:88|232:88|200:76|100:88|116:204,1,239.999992675781,2|2,0:0|0:0,0:0:0:0:
184,384,55463,2,0,P|209:330|205:271,1,119.999996337891,8|0,0:0|0:0,0:0:0:0:
64,128,55797,1,2,0:0:0:0:
0,344,55963,1,2,0:0:0:0:
205,272,56130,1,8,0:0:0:0:
84,108,56297,6,0,B|22:216|107:307|107:307|65:294,1,239.999992675781
204,104,56797,1,8,0:0:0:0:
4,64,56963,1,0,0:0:0:0:
4,64,57047,1,0,0:0:0:0:
4,64,57130,1,2,0:0:0:0:
107,307,57297,1,2,0:0:0:0:
116,152,57463,1,8,0:0:0:0:
2,340,57630,6,0,B|46:357|82:337|82:337|138:373|138:373|168:336|224:344,1,239.999992675781,2|2,0:0|0:0,0:0:0:0:
424,352,58130,1,8,0:0:0:0:
256,156,58297,1,0,0:0:0:0:
220,344,58463,2,0,P|278:352|334:333,1,119.999996337891,2|2,0:0|0:0,0:0:0:0:
372,244,58713,1,0,0:0:0:0:
352,224,58797,2,0,P|344:282|363:338,1,119.999996337891,8|2,0:0|0:0,0:0:0:0:
456,152,59130,6,0,P|386:98|298:107,1,179.999994506836,6|0,0:0|0:0,0:0:0:0:
252,176,59463,1,8,0:0:0:0:
416,336,59630,1,0,0:0:0:0:
456,152,59797,1,2,0:0:0:0:
252,312,59963,1,2,0:0:0:0:
372,192,60130,1,8,0:0:0:0:
260,64,60297,6,0,B|216:56|216:56|108:104|136:232,1,239.999992675781,2|2,0:0|0:0,0:0:0:0:
272,324,60797,1,8,0:0:0:0:
392,172,60963,1,0,0:0:0:0:
252,176,61130,2,0,L|376:184,1,119.999996337891,2|2,0:0|0:0,0:0:0:0:
200,56,61463,1,8,0:0:0:0:
16,144,61630,6,0,B|-21:219|39:274|39:274|81:246|146:257,1,239.999992675781
288,360,62130,1,8,0:0:0:0:
424,320,62297,1,2,0:0:0:0:
282,324,62463,5,2,0:0:0:0:
132,279,62630,1,2,0:0:0:0:
276,289,62797,5,8,0:0:0:0:
456,235,62964,1,2,0:0:0:0:
270,253,63130,5,0,0:0:0:0:
39,183,63297,1,2,0:0:0:0:
264,219,63463,5,8,0:0:0:0:
272,190,63546,1,0,0:0:0:0:
272,160,63629,1,0,0:0:0:0:
266,130,63713,1,0,0:0:0:0:
254,104,63797,2,0,L|193:96,1,59.9999981689454,8|0,0:3|0:0,0:0:0:0:
60,160,63963,2,0,L|120:153,1,59.9999981689454,2|0,0:0|0:0,0:0:0:0:
272,232,64130,2,0,L|198:222,1,59.9999981689454,2|0,0:0|0:0,0:0:0:0:
60,296,64296,2,0,L|131:286,1,59.9999981689454,2|0,0:0|0:0,0:0:0:0:
328,335,64463,6,0,P|389:245|367:137,1,225.000008583069,6|0,0:0|0:0,0:0:0:0:
280,108,64797,1,12,0:0:0:0:
184,336,64963,1,0,0:0:0:0:
184,336,65047,1,0,0:0:0:0:
184,336,65130,1,2,0:0:0:0:
456,308,65297,1,2,0:0:0:0:
224,176,65463,1,8,0:0:0:0:
428,76,65630,6,0,B|420:159|420:159|379:212|379:212|372:302,1,239.999992675781,2|0,0:0|0:0,0:0:0:0:
304,108,66130,1,8,0:0:0:0:
504,256,66297,1,0,0:0:0:0:
257,334,66463,2,0,L|269:199,1,119.999996337891,2|2,0:0|0:0,0:0:0:0:
360,376,66797,1,8,0:0:0:0:
131,335,66963,6,0,B|149:146|149:146|192:114,1,239.999992675781
257,334,67463,1,8,0:0:0:0:
40,156,67630,1,0,0:0:0:0:
250,7,67797,1,2,0:0:0:0:
291,50,67880,1,0,0:0:0:0:
306,108,67963,1,0,0:0:0:0:
294,166,68046,1,0,0:0:0:0:
256,212,68130,2,0,L|125:203,1,119.999996337891,8|0,0:0|0:0,0:0:0:0:
341,142,68463,6,0,P|364:230|308:308,1,179.999994506836,6|0,0:0|0:0,0:0:0:0:
193,301,68797,2,0,P|147:226|171:141,1,179.999994506836,8|0,0:0|0:0,0:0:0:0:
256,100,69130,1,2,0:0:0:0:
193,301,69297,1,2,0:0:0:0:
25,151,69463,2,0,B|55:133|55:133|176:143,1,150,8|0,0:0|0:0,0:0:0:0:
193,301,69797,6,0,B|161:321|161:321|18:308,1,179.999994506836,6|0,0:0|0:0,0:0:0:0:
19,308,70130,1,8,0:0:0:0:
264,188,70297,1,2,0:0:0:0:
248,376,70463,1,2,0:0:0:0:
128,124,70630,1,0,0:0:0:0:
352,300,70797,1,8,0:0:0:0:
160,300,70963,1,2,0:0:0:0:
384,124,71130,5,6,0:0:0:0:
296,372,71297,1,2,0:0:0:0:
240,116,71463,1,8,0:0:0:0:
484,19,71630,2,0,P|517:131|465:236,1,239.999992675781,6|2,0:0|0:0,0:0:0:0:
292,140,72047,1,0,0:0:0:0:
271,119,72130,2,0,P|328:104|384:124,1,119.999996337891,8|0,0:0|0:0,0:0:0:0:
192,288,72463,5,6,0:0:0:0:
136,40,72630,1,0,0:0:0:0:
384,124,72797,1,8,0:0:0:0:
184,304,72963,2,0,B|137:247|162:181|162:181|181:125|142:67,1,239.999992675781,2|2,0:0|0:0,0:0:0:0:
0,172,73463,1,8,0:0:0:0:
164,324,73630,6,0,B|205:344|255:315|255:315|310:343|310:343|413:334,1,239.999992675781,2|2,0:0|0:0,0:0:0:0:
476,188,74130,1,8,0:0:0:0:
320,128,74297,2,0,P|312:192|336:248,1,119.999996337891
496,200,74630,1,2,0:0:0:0:
404,88,74797,1,8,0:0:0:0:
348,256,74963,1,2,0:0:0:0:
288,24,75130,5,6,0:0:0:0:
464,188,75297,1,0,0:0:0:0:
236,260,75463,1,8,0:0:0:0:
52,104,75630,2,0,P|163:64|271:109,1,239.999992675781,2|2,0:0|0:0,0:0:0:0:
256,300,76130,1,8,0:0:0:0:
60,312,76297,6,0,P|40:196|103:97,1,239.999992675781,2|2,0:0|0:0,0:0:0:0:
264,240,76797,1,8,0:0:0:0:
132,216,76963,1,2,0:0:0:0:
356,196,77130,2,0,P|364:254|339:308,1,119.999996337891,0|2,0:0|0:0,0:0:0:0:
204,244,77463,2,0,L|264:240,1,59.9999981689454,8|0,0:0|0:0,0:0:0:0:
422,343,77630,1,2,0:0:0:0:
452,341,77713,1,0,0:0:0:0:
481,339,77797,6,0,B|519:267|479:199|479:199|424:111|475:28,3,300.000011444092,6|8|6|8,0:0|0:3|0:0|0:0,0:0:0:0:
463,54,80130,5,8,0:0:0:0:
428,39,80213,1,0,0:0:0:0:
391,37,80296,1,0,0:0:0:0:
355,47,80379,1,0,0:0:0:0:
325,68,80463,5,8,0:0:0:0:
344,192,80630,1,0,0:0:0:0:
172,100,80797,1,2,0:0:0:0:
153,224,80964,1,0,0:0:0:0:
356,152,81130,1,2,0:0:0:0:
375,276,81297,1,0,0:0:0:0:
136,208,81463,2,0,P|117:263|123:321,1,112.500004291535,8|0,0:0|0:0,0:0:0:0:
122,317,81797,6,0,P|92:249|111:137,1,179.999994506836,6|0,0:0|0:0,0:0:0:0:
141,111,82130,1,4,0:0:0:0:
288,244,82297,1,0,0:0:0:0:
112,336,82463,2,0,L|8:328,1,100,2|2,0:0|0:0,0:0:0:0:
41,119,82797,2,0,L|145:111,1,100,8|4,0:0|0:3,0:0:0:0:
288,244,83130,6,0,P|340:159|334:50,2,200,2|2|2,0:0|0:0|0:0,0:0:0:0:
109,246,83963,1,2,0:0:0:0:
66,71,84130,1,2,0:0:0:0:
223,128,84297,1,2,0:0:0:0:
84,336,84463,6,0,L|93:211,1,100,6|0,0:0|0:0,0:0:0:0:
223,128,84797,1,8,0:0:0:0:
384,252,84963,2,0,B|316:246|316:246|265:278|265:278|193:271,1,200,6|2,0:0|0:0,0:0:0:0:
342,361,85463,1,8,0:0:0:0:
239,163,85630,1,2,0:0:0:0:
492,213,85797,6,0,P|495:263|480:310,1,100,6|0,0:0|0:0,0:0:0:0:
308,364,86130,1,8,0:0:0:0:
320,160,86297,2,0,B|343:138|343:138|435:114|492:192,1,200,6|2,0:0|0:0,0:0:0:0:
248,268,86797,1,8,0:0:0:0:
264,48,86963,1,2,0:0:0:0:
384,252,87130,5,8,0:0:0:0:
374,275,87213,1,0,0:0:0:0:
369,300,87296,1,2,0:0:0:0:
369,325,87379,1,0,0:0:0:0:
372,348,87463,5,0,0:0:0:0:
324,336,87546,1,0,0:0:0:0:
274,332,87629,1,0,0:0:0:0:
225,337,87712,1,0,0:0:0:0:
177,350,87797,1,2,0:0:0:0:
185,302,87880,1,0,0:0:0:0:
168,255,87963,2,0,P|96:232|68:352,1,200,2|2,0:0|0:0,0:0:0:0:
50,328,88630,5,2,0:0:0:0:
280,313,88797,2,0,P|296:240|268:172,1,150,8|0,0:0|0:0,0:0:0:0:
223,152,89130,1,8,0:0:0:0:
160,360,89297,1,2,0:0:0:0:
376,340,89463,1,8,0:0:0:0:
393,293,89546,1,0,0:0:0:0:
397,244,89629,1,0,0:0:0:0:
388,195,89712,1,0,0:0:0:0:
368,149,89797,6,0,P|442:112|519:140,1,170.000003242493,6|2,0:0|0:0,0:0:0:0:
448,228,90297,1,0,0:0:0:0:
352,164,90463,2,0,L|358:80,1,85.0000016212464,2|0,0:0|0:0,0:0:0:0:
448,228,90797,2,0,L|454:313,1,85.0000016212464,2|0,0:0|0:0,0:0:0:0:
260,296,91130,2,0,B|265:233|265:233|248:195|248:195|252:130,2,170.000003242493,2|2|2,0:0|0:0|0:0,0:0:0:0:
156,368,91963,1,0,0:0:0:0:
81,263,92130,2,0,P|39:257|-2:268,1,85.0000016212464,2|0,0:0|0:0,0:0:0:0:
172,352,92463,6,0,B|236:347|236:347|270:320|270:320|333:314,1,170.000003242493,2|2,0:0|0:0,0:0:0:0:
448,364,92963,1,0,0:0:0:0:
368,196,93130,2,0,B|237:209|237:209|204:227,1,170.000003242493,2|2,0:0|0:0,0:0:0:0:
444,280,93630,1,0,0:0:0:0:
512,140,93797,6,0,L|504:44,1,85.0000016212464,2|0,0:0|0:0,0:0:0:0:
352,172,94130,1,2,0:0:0:0:
336,316,94297,1,0,0:0:0:0:
196,120,94463,2,0,L|204:24,1,85.0000016212464,2|0,0:0|0:0,0:0:0:0:
356,152,94796,1,2,0:0:0:0:
372,296,94963,1,0,0:0:0:0:
180,140,95130,5,2,0:0:0:0:
380,124,95297,1,0,0:0:0:0:
252,272,95463,1,2,0:0:0:0:
67,210,95630,2,0,P|51:134|91:45,1,170.000003242493
228,256,96130,1,2,0:0:0:0:
228,256,96463,6,0,P|156:216|74:232,1,170.000003242493,2|2,0:0|0:0,0:0:0:0:
136,344,96963,1,0,0:0:0:0:
252,236,97130,2,0,L|248:140,1,85.0000016212464,2|0,0:0|0:0,0:0:0:0:
160,320,97463,1,2,0:0:0:0:
364,352,97630,1,0,0:0:0:0:
408,116,97797,6,0,B|345:122|345:122|311:149|311:149|248:155,1,170.000003242493,6|2,0:0|0:0,0:0:0:0:
388,228,98297,1,0,0:0:0:0:
368,24,98463,2,0,B|305:30|305:30|271:57|271:57|208:63,1,170.000003242493,2|2,0:0|0:0,0:0:0:0:
40,12,98963,1,0,0:0:0:0:
40,192,99130,6,0,L|108:184,1,42.5000008106232,6|0,0:0|0:0,0:0:0:0:
200,76,99297,2,0,L|132:68,1,42.5000008106232,2|0,0:0|0:0,0:0:0:0:
260,228,99463,1,8,0:0:0:0:
356,8,99630,1,6,0:0:0:0:
368,24,99963,1,6,0:0:0:0:
468,152,100130,1,2,0:0:0:0:
434,177,100213,1,0,0:0:0:0:
394,190,100296,1,8,0:0:0:0:
351,190,100379,1,0,0:0:0:0:
311,178,100463,6,0,P|248:156|196:168,1,100,6|0,0:0|0:0,0:0:0:0:
336,300,100797,1,8,0:0:0:0:
380,88,100963,2,0,P|291:47|192:54,1,200,0|2,0:0|0:0,0:0:0:0:
104,176,101463,1,8,0:0:0:0:
16,16,101630,1,0,0:0:0:0:
213,72,101797,2,0,P|228:121|221:170,1,100,2|0,0:0|0:0,0:0:0:0:
79,294,102130,2,0,P|73:245|87:198,1,100,8|2,0:0|0:0,0:0:0:0:
360,244,102463,2,0,B|286:238|286:238|247:263|247:263|168:256,1,200,0|8,0:0|0:0,0:0:0:0:
84,84,102963,1,0,0:0:0:0:
180,240,103130,5,2,0:0:0:0:
0,244,103297,1,0,0:0:0:0:
252,128,103463,1,8,0:0:0:0:
172,348,103630,1,0,0:0:0:0:
404,264,103797,2,0,B|423:233|423:233|413:120,1,150,2|0,0:0|0:0,0:0:0:0:
376,84,104130,1,8,0:0:0:0:
304,336,104297,6,0,P|391:379|485:355,1,200,2|2,0:0|0:0,0:0:0:0:
280,208,104797,1,8,0:0:0:0:
124,272,104963,1,0,0:0:0:0:
124,272,105047,1,0,0:0:0:0:
124,272,105130,2,0,L|120:392,1,100,2|2,0:0|0:0,0:0:0:0:
260,224,105463,1,8,0:0:0:0:
40,156,105630,1,0,0:0:0:0:
120,372,105797,5,6,0:0:0:0:
176,124,105963,1,0,0:0:0:0:
24,284,106130,1,8,0:0:0:0:
260,224,106297,2,0,P|304:124|252:16,1,200,2|2,0:0|0:0,0:0:0:0:
104,144,106797,1,8,0:0:0:0:
184,328,106963,6,0,B|220:352|220:352|377:338,1,200,6|2,0:0|0:0,0:0:0:0:
476,192,107463,1,8,0:0:0:0:
344,36,107630,2,0,P|332:85|343:133,1,100,2|0,0:0|0:0,0:0:0:0:
464,180,107963,1,2,0:0:0:0:
356,12,108130,2,0,L|240:24,1,100,8|0,0:0|0:0,0:0:0:0:
184,76,108380,1,0,0:0:0:0:
172,92,108463,6,0,B|179:164|179:164|210:202|210:202|217:281,1,200,6|8,0:0|0:0,0:0:0:0:
104,248,108963,1,0,0:0:0:0:
288,120,109130,2,0,P|336:113|384:127,1,100,2|2,0:0|0:0,0:0:0:0:
412,168,109380,1,0,0:0:0:0:
412,168,109463,1,8,0:0:0:0:
264,344,109630,6,0,B|244:308|244:308|252:132,1,200,6|2,0:0|0:0,0:0:0:0:
400,304,110130,1,8,0:0:0:0:
264,368,110297,1,0,0:0:0:0:
388,187,110463,1,2,0:0:0:0:
512,272,110630,1,2,0:0:0:0:
292,256,110797,1,8,0:0:0:0:
303,107,110964,1,0,0:0:0:0:
303,107,111047,1,0,0:0:0:0:
302,108,111130,6,0,P|368:73|441:83,1,150.000005722046,6|2,0:0|0:0,0:0:0:0:
472,104,111547,1,0,0:0:0:0:
488,136,111630,2,0,L|485:174,1,37.5000014305115,2|0,0:0|0:0,0:0:0:0:
397,278,111797,2,0,L|400:240,1,37.5000014305115,8|0,0:0|0:0,0:0:0:0:
303,108,111963,2,0,L|298:162,1,37.5000014305115,2|0,0:0|0:0,0:0:0:0:
171,314,112130,2,0,L|175:261,1,37.5000014305115,2|0,0:0|0:0,0:0:0:0:
108,76,112297,1,2,0:0:0:0:
108,76,112380,1,0,0:0:0:0:
108,76,112463,6,0,P|96:112|100:152,1,75.0000028610231,2|0,1:0|0:0,0:0:0:0:
294,181,112797,2,0,P|305:146|302:105,1,75.0000028610231,2|0,1:0|0:0,0:0:0:0:
198,270,113130,2,0,P|257:313|331:307,1,150.000005722046,8|2,1:0|1:0,0:0:0:0:
424,208,113630,1,2,0:0:0:0:
424,208,113713,1,0,0:0:0:0:
424,208,113797,6,0,L|416:152,1,37.5000014305115,2|0,1:0|0:0,0:0:0:0:
284,116,113963,2,0,L|276:60,1,37.5000014305115,2|0,0:0|0:0,0:0:0:0:
196,232,114130,2,0,L|204:288,1,37.5000014305115,2|0,0:0|0:0,0:0:0:0:
336,324,114296,2,0,L|344:380,1,37.5000014305115,2|0,1:0|0:0,0:0:0:0:
419,281,114463,2,0,P|428:245|423:208,1,75.0000028610231,8|0,1:0|0:0,0:0:0:0:
203,214,114797,2,0,P|194:250|199:287,1,75.0000028610231,2|0,0:0|0:0,0:0:0:0:
344,368,115130,5,6,0:0:0:0:
336,256,115297,1,8,0:0:0:0:
287,93,115463,2,0,L|283:168,1,75.0000028610231,2|0,0:0|0:0,0:0:0:0:
188,312,115797,1,8,0:0:0:0:
158,335,115880,1,0,0:0:0:0:
122,342,115963,1,0,0:0:0:0:
86,332,116046,1,0,0:0:0:0:
59,306,116130,1,2,0:0:0:0:
45,271,116213,1,0,0:0:0:0:
66,241,116296,1,0,0:0:0:0:
77,206,116379,1,0,0:0:0:0:
75,168,116463,6,0,L|64:60,1,100,6|0,0:0|0:0,0:0:0:0:
136,12,116713,1,0,0:0:0:0:
162,27,116797,2,0,B|179:188|179:188|165:224,1,200,8|2,0:0|0:0,0:0:0:0:
12,12,117297,1,0,0:0:0:0:
300,48,117463,1,8,0:0:0:0:
136,240,117630,1,2,0:0:0:0:
88,72,117797,6,0,P|136:60|184:71,1,100,0|2,0:0|0:0,0:0:0:0:
228,96,118047,1,0,0:0:0:0:
228,96,118130,1,8,0:0:0:0:
144,280,118297,1,2,0:0:0:0:
88,72,118463,1,0,0:0:0:0:
296,16,118630,1,2,0:0:0:0:
352,224,118796,1,8,0:0:0:0:
108,100,118963,2,0,L|180:104,1,50
80,264,119130,6,0,B|64:218|89:172|89:172|60:125|60:125|88:83|71:38,1,239.999992675781,6|2,0:0|0:0,0:0:0:0:
432,264,119630,2,0,B|448:218|423:172|423:172|452:125|452:125|424:83|441:40,1,239.999992675781,6|0,0:0|0:0,0:0:0:0:
240,40,120130,6,0,L|320:52,1,75.0000028610231,12|0,0:0|0:0,0:0:0:0:
252,176,120297,2,0,L|332:188,1,75.0000028610231,12|0,0:0|0:0,0:0:0:0:
264,316,120463,5,6,0:0:0:0:
120,80,120630,1,6,0:0:0:0:
120,80,121130,6,0,P|136:136|116:196,1,113.333335494995,2|0,0:2|0:0,0:0:0:0:
36,220,121463,5,2,0:0:0:0:
36,220,121575,1,0,0:0:0:0:
36,220,121686,1,0,0:0:0:0:
48,312,121797,6,0,B|89:319|121:293|121:293|179:323|179:323|211:297|257:309,1,225.000008583069,6|0,0:0|0:0,0:0:0:0:
316,360,122130,1,12,0:0:0:0:
60,216,122297,1,0,0:0:0:0:
288,136,122463,1,2,0:0:0:0:
168,332,122630,1,2,0:0:0:0:
120,72,122797,1,8,0:0:0:0:
384,52,122963,6,0,P|400:167|328:259,1,239.999992675781,2|0,0:0|0:0,0:0:0:0:
168,248,123463,1,8,0:0:0:0:
84,84,123630,1,0,0:0:0:0:
84,84,123713,1,0,0:0:0:0:
85,83,123797,2,0,P|143:84|189:121,1,119.999996337891,2|2,0:0|0:0,0:0:0:0:
232,332,124130,1,8,0:0:0:0:
16,368,124297,6,0,B|-2:165|-2:165|23:123,1,239.999992675781
17,133,124713,1,0,0:0:0:0:
17,133,124797,1,8,0:0:0:0:
272,252,124963,1,0,0:0:0:0:
120,224,125130,1,2,0:0:0:0:
100,56,125297,1,2,0:0:0:0:
252,28,125464,1,8,0:0:0:0:
388,104,125630,6,0,P|412:220|344:324,1,239.999992675781,0|2,0:0|0:0,0:0:0:0:
144,196,126130,1,8,0:0:0:0:
300,200,126297,1,0,0:0:0:0:
40,236,126463,1,2,0:0:0:0:
40,236,126547,1,0,0:0:0:0:
40,236,126630,2,0,P|32:179|56:115,1,119.999996337891,2|8,0:0|0:0,0:0:0:0:
232,12,126963,1,2,0:0:0:0:
339,209,127130,6,0,B|321:243|321:243|205:291|137:187,1,239.999992675781,6|8,0:0|0:0,0:0:0:0:
360,44,127630,1,0,0:0:0:0:
492,152,127797,2,0,P|504:216|472:288,1,119.999996337891,2|2,0:0|0:0,0:0:0:0:
332,364,128130,1,8,0:0:0:0:
260,120,128297,6,0,B|300:104|300:104|520:160,1,239.999992675781,2|2,0:0|0:0,0:0:0:0:
490,152,128713,1,0,0:0:0:0:
490,152,128797,1,8,0:0:0:0:
216,264,128963,1,0,0:0:0:0:
172,16,129130,1,2,0:0:0:0:
340,208,129297,1,2,0:0:0:0:
116,132,129463,1,8,0:0:0:0:
404,92,129630,6,0,P|440:212|388:336,1,239.999992675781
162,239,130130,1,8,0:0:0:0:
340,208,130297,1,0,0:0:0:0:
232,372,130463,1,2,0:0:0:0:
54,341,130630,1,2,0:0:0:0:
84,164,130797,1,8,0:0:0:0:
262,195,130964,1,2,0:0:0:0:
28,328,131130,5,0,0:0:0:0:
8,80,131297,1,2,0:0:0:0:
59,50,131380,1,0,0:0:0:0:
118,53,131463,1,8,0:0:0:0:
167,87,131547,1,0,0:0:0:0:
164,116,131630,1,2,0:0:0:0:
160,144,131713,1,0,0:0:0:0:
156,176,131797,6,0,L|226:168,1,59.9999981689454
412,132,131963,2,0,L|342:124,1,59.9999981689454,2|0,0:0|0:0,0:0:0:0:
268,20,132130,2,0,L|261:79,1,59.9999981689454,8|0,0:0|0:0,0:0:0:0:
312,276,132296,2,0,L|305:216,1,59.9999981689454
172,56,132463,6,0,B|152:208|152:208|160:288,1,225.000008583069,6|0,0:0|0:0,0:0:0:0:
159,279,132797,1,12,0:0:0:0:
400,176,132963,1,2,0:0:0:0:
184,44,133130,1,2,0:0:0:0:
292,304,133297,1,2,0:0:0:0:
336,56,133463,1,8,0:0:0:0:
159,279,133630,6,0,B|205:287|242:261|242:261|283:287|283:287|329:251|381:269,1,239.999992675781,2|2,0:0|0:0,0:0:0:0:
100,376,134130,1,8,0:0:0:0:
100,108,134297,1,0,0:0:0:0:
268,304,134463,1,2,0:0:0:0:
8,240,134630,1,2,0:0:0:0:
212,168,134797,1,8,0:0:0:0:
172,380,134963,1,0,0:0:0:0:
172,380,135047,1,0,0:0:0:0:
172,380,135130,6,0,B|134:323|161:264|161:264|192:201|150:136,1,239.999992675781,2|8,0:0|0:0,0:0:0:0:
52,212,135630,1,0,0:0:0:0:
272,312,135797,2,0,L|400:300,1,119.999996337891,2|2,0:0|0:0,0:0:0:0:
344,88,136130,2,0,L|224:76,1,119.999996337891,8|0,0:0|0:0,0:0:0:0:
432,207,136463,6,0,P|495:110|463:-1,1,239.999992675781,6|8,0:0|0:0,0:0:0:0:
224,76,136963,1,0,0:0:0:0:
392,92,137130,1,2,0:0:0:0:
324,316,137297,1,2,0:0:0:0:
156,300,137464,1,8,0:0:0:0:
432,208,137630,1,0,0:0:0:0:
432,208,137713,1,0,0:0:0:0:
432,208,137797,6,0,B|460:276|420:352|420:352|376:360|316:336,1,239.999992675781,6|8,0:0|0:0,0:0:0:0:
228,128,138297,1,0,0:0:0:0:
464,200,138463,1,2,0:0:0:0:
220,312,138630,1,2,0:0:0:0:
396,80,138797,1,8,0:0:0:0:
412,356,138963,1,2,0:0:0:0:
191,282,139130,5,6,0:0:0:0:
265,59,139297,1,0,0:0:0:0:
487,134,139463,1,8,0:0:0:0:
412,356,139630,2,0,B|296:402|193:322|193:322|189:290,1,239.999992675781,6|2,0:0|0:0,0:0:0:0:
264,76,140130,1,8,0:0:0:0:
460,204,140297,1,0,0:0:0:0:
460,204,140380,1,0,0:0:0:0:
460,204,140463,6,0,L|452:328,1,119.999996337891,6|0,0:0|0:0,0:0:0:0:
268,76,140797,1,8,0:0:0:0:
477,120,140963,2,0,B|499:156|499:156|487:359,1,239.999992675781,2|2,0:0|0:0,0:0:0:0:
276,300,141463,1,8,0:0:0:0:
264,84,141630,6,0,B|303:64|303:64|504:95,1,239.999992675781,2|2,0:0|0:0,0:0:0:0:
328,224,142130,1,8,0:0:0:0:
252,60,142297,1,2,0:0:0:0:
252,60,142380,1,0,0:0:0:0:
252,60,142463,1,0,0:0:0:0:
504,76,142630,1,2,0:0:0:0:
228,216,142797,1,8,0:0:0:0:
468,232,142963,1,2,0:0:0:0:
220,240,143130,6,0,P|209:182|224:125,1,119.999996337891,6|0,0:0|0:0,0:0:0:0:
300,312,143463,1,8,0:0:0:0:
108,292,143630,2,0,P|81:177|116:64,1,239.999992675781,2|2,0:0|0:0,0:0:0:0:
256,184,144130,1,8,0:0:0:0:
404,292,144297,6,0,P|431:177|396:63,1,239.999992675781,2|2,0:0|0:0,0:0:0:0:
396,63,144713,1,0,0:0:0:0:
396,63,144797,1,8,0:0:0:0:
176,144,144963,1,2,0:0:0:0:
332,184,145130,1,0,0:0:0:0:
136,44,145297,1,2,0:0:0:0:
152,292,145464,1,8,0:0:0:0:
360,160,145630,1,2,0:0:0:0:
360,160,145713,1,0,0:0:0:0:
360,160,145797,6,0,B|294:108|214:149|214:149|134:190|77:149,3,300.000011444092,6|10|8|2,0:0|0:0|0:3|0:0,0:0:0:0:
77,149,148130,6,0,L|71:76,1,50,8|0,0:0|0:0,0:0:0:0:
151,276,148297,2,0,L|146:326,1,50,8|0,0:0|0:0,0:0:0:0:
333,158,148463,5,8,0:0:0:0:
247,308,148630,1,0,0:0:0:0:
161,158,148797,1,2,0:0:0:0:
358,273,148963,1,0,0:0:0:0:
134,274,149130,1,2,0:0:0:0:
246,79,149297,1,0,0:0:0:0:
357,273,149463,6,0,P|303:282|250:265,1,112.500004291535,8|0,0:0|0:0,0:0:0:0:
250,265,149797,6,0,P|340:257|398:191,1,179.999994506836,6|0,0:0|0:0,0:0:0:0:
404,144,150130,1,0,0:0:0:0:
256,192,150213,12,2,152297,0:0:0:0:
364,284,152463,6,0,P|396:192|348:80,1,200,6|0,0:0|0:0,0:0:0:0:
147,98,152963,2,0,P|115:191|148:284,1,200,6|0,0:0|0:0,0:0:0:0:
256,192,153463,1,0,0:0:0:0:
148,99,153630,1,2,0:0:0:0:
39,269,153797,5,8,0:0:0:0:
93,306,153908,1,8,0:0:0:0:
158,314,154019,1,8,0:0:0:0:
220,292,154130,1,4,0:3:0:0:
261,239,154241,1,4,0:3:0:0:
318,211,154352,1,8,0:3:0:0:
371,246,154463,5,8,0:3:0:0:
367,310,154574,1,4,0:3:0:0:
308,342,154686,1,4,0:3:0:0:
252,305,154797,1,8,0:3:0:0:
219,247,154908,1,8,0:3:0:0:
221,181,155019,1,4,0:3:0:0:
260,125,155130,6,0,B|351:129|351:129|402:164|402:164|488:168,1,239.999992675781,6|8,0:0|0:0,0:0:0:0:
481,348,155630,2,0,B|389:343|389:343|338:308|338:308|252:304,1,239.999992675781,6|8,0:0|0:3,0:0:0:0:
136,364,156130,1,2,0:0:0:0:
136,364,156213,1,0,0:0:0:0:
136,364,156297,1,2,0:0:0:0:
40,168,156463,5,0,0:0:0:0:
252,304,156630,1,2,0:0:0:0:
56,292,156797,2,0,L|64:176,1,100,0|2,0:0|0:0,0:0:0:0:
264,176,157130,2,0,L|270:275,1,100,0|2,0:0|0:0,0:0:0:0:
344,308,157380,1,0,0:0:0:0:
356,292,157463,2,0,L|349:192,1,100,2|8,0:0|0:0,0:0:0:0:
364,144,157713,1,0,0:0:0:0:
379,95,157797,6,0,P|279:36|168:71,1,239.999992675781,6|8,0:0|0:0,0:0:0:0:
148,248,158297,2,0,P|248:307|359:272,1,239.999992675781,6|8,0:0|0:3,0:0:0:0:
416,132,158797,1,2,0:0:0:0:
264,176,158963,1,6,0:0:0:0:
424,356,159130,5,0,0:0:0:0:
456,200,159297,1,2,0:0:0:0:
268,324,159463,1,8,0:0:0:0:
236,168,159630,1,2,0:0:0:0:
472,232,159797,1,2,0:0:0:0:
504,76,159964,1,2,0:0:0:0:
220,200,160130,1,8,0:0:0:0:
188,44,160297,1,0,0:0:0:0:
188,44,160380,1,0,0:0:0:0:
188,44,160463,6,0,B|144:124|178:234|178:234|144:212|132:148,1,259.999988098145,6|0,0:0|0:0,0:0:0:0:
56,64,160963,1,2,0:0:0:0:
16,312,161130,2,0,P|64:320|112:307,1,100,8|0,0:0|0:0,0:0:0:0:
220,200,161463,1,2,0:0:0:0:
356,264,161630,6,0,P|364:312|348:376,1,100,2|0,0:0|0:0,0:0:0:0:
220,200,161963,2,0,B|295:193|295:193|337:213|337:213|415:207,1,200,8|2,0:0|0:0,0:0:0:0:
480,96,162463,1,8,0:0:0:0:
480,96,162797,1,0,0:0:0:0:
415,208,162963,1,8,0:0:0:0:
480,320,163130,6,0,B|402:326|402:326|360:306|360:306|284:312,1,200,6|2,0:0|0:0,0:0:0:0:
148,376,163630,1,0,0:0:0:0:
24,292,163797,2,0,P|20:244|48:184,1,100,8|0,0:0|0:0,0:0:0:0:
184,152,164130,1,2,0:0:0:0:
308,280,164297,6,0,B|258:299|208:271|208:271|162:243|108:262,1,200,6|8,0:0|0:0,0:0:0:0:
148,376,164797,1,2,0:0:0:0:
272,164,164963,1,2,0:0:0:0:
72,276,165130,1,8,0:0:0:0:
308,280,165297,1,0,0:0:0:0:
136,152,165463,1,2,0:0:0:0:
100,364,165630,1,8,0:0:0:0:
100,364,165713,1,0,0:0:0:0:
100,364,165797,6,0,B|40:313|44:217|44:217|14:262|18:311,1,259.999988098145,6|2,0:0|0:0,0:0:0:0:
200,240,166297,1,0,0:0:0:0:
352,260,166463,1,2,0:0:0:0:
120,348,166630,1,0,0:0:0:0:
110,138,166797,1,2,0:0:0:0:
316,172,166963,6,0,B|345:190|345:190|376:284|300:344,1,200,6|8,0:0|0:0,0:0:0:0:
159,234,167463,1,2,0:0:0:0:
260,85,167630,2,0,P|307:68|356:77,1,100,2|8,0:0|0:0,0:0:0:0:
172,196,167963,1,0,0:0:0:0:
172,12,168130,1,2,0:0:0:0:
270,256,168297,1,8,0:0:0:0:
270,256,168380,1,0,0:0:0:0:
270,256,168463,6,0,P|186:304|74:252,1,200,6|2,0:0|0:0,0:0:0:0:
28,160,168963,1,2,0:0:0:0:
144,8,169130,2,0,L|136:128,1,100,8|0,0:0|0:0,0:0:0:0:
260,232,169463,1,2,0:0:0:0:
408,96,169630,6,0,B|414:65|414:65|335:6|250:77,1,200,6|8,0:0|0:0,0:0:0:0:
280,284,170130,1,2,0:0:0:0:
340,148,170297,1,0,0:0:0:0:
176,48,170463,1,8,0:0:0:0:
236,184,170630,1,8,0:0:0:0:
234,150,170713,1,0,0:0:0:0:
231,115,170796,1,2,0:0:0:0:
228,80,170880,1,0,0:0:0:0:
226,45,170963,2,0,L|288:52,1,50,8|0,0:0|0:0,0:0:0:0:
116,124,171130,6,0,L|17:136,1,100,2|0,0:0|0:0,0:0:0:0:
183,218,171463,2,0,L|283:230,1,100,8|0,0:0|0:0,0:0:0:0:
98,302,171797,2,0,P|70:202|118:122,1,200,2|8,0:0|0:0,0:0:0:0:
256,72,172297,1,0,0:0:0:0:
388,144,172463,6,0,P|438:149|482:127,1,100,2|0,0:0|0:0,0:0:0:0:
256,73,172797,2,0,P|237:118|239:168,1,100,8|0,0:0|0:0,0:0:0:0:
239,168,173047,1,0,0:0:0:0:
239,168,173130,1,2,0:0:0:0:
372,288,173297,1,0,0:0:0:0:
480,128,173463,1,8,0:0:0:0:
336,136,173630,1,0,0:0:0:0:
356,308,173797,6,0,B|420:336|488:296|488:296|476:332|456:342,1,194.999991073609,6|0,0:0|0:0,0:0:0:0:
456,342,174130,6,0,P|495:279|489:205,1,150,8|0,0:0|0:0,0:0:0:0:
434,139,174463,2,0,B|411:130|411:130|322:138,1,100,2|0,0:0|0:0,0:0:0:0:
184,224,174797,1,8,0:0:0:0:
372,252,174963,1,0,0:0:0:0:
372,252,175047,1,0,0:0:0:0:
372,252,175130,6,0,B|388:180|334:139|334:139|296:164|288:208,1,200,2|8,0:0|0:0,0:0:0:0:
296,356,175630,1,0,0:0:0:0:
504,272,175797,1,2,0:0:0:0:
334,141,175963,1,0,0:0:0:0:
420,348,176130,1,8,0:0:0:0:
436,140,176297,1,8,0:0:0:0:
224,256,176463,6,0,P|272:269|329:250,1,100,6|2,0:0|0:0,0:0:0:0:
363,182,176713,1,0,0:0:0:0:
334,141,176797,2,0,L|338:29,1,100,8|0,0:0|0:0,0:0:0:0:
212,244,177130,2,0,L|216:344,1,100,2|0,0:0|0:0,0:0:0:0:
312,168,177463,1,8,0:0:0:0:
112,124,177630,1,0,0:0:0:0:
145,356,177797,6,0,B|184:364|216:344|216:344|260:361|260:361|340:347,1,200,2|8,0:0|0:0,0:0:0:0:
248,144,178297,1,0,0:0:0:0:
32,193,178463,2,0,P|22:241|36:288,1,100,2|0,0:0|0:0,0:0:0:0:
112,124,178797,2,0,P|127:77|116:29,1,100,8|2,0:0|0:0,0:0:0:0:
32,192,179130,5,6,0:0:0:0:
230,225,179297,1,0,0:0:0:0:
260,28,179463,2,0,B|236:12|236:12|116:29,1,150,8|0,0:0|0:0,0:0:0:0:
43,76,179797,2,0,P|28:123|39:171,1,100,2|0,0:0|0:0,0:0:0:0:
230,225,180130,2,0,P|242:177|227:130,1,100,8|0,0:0|0:0,0:0:0:0:
128,296,180463,5,2,0:0:0:0:
316,300,180630,1,0,0:0:0:0:
227,129,180797,1,8,0:0:0:0:
216,368,180963,1,0,0:0:0:0:
324,125,181130,2,0,P|276:117|227:129,1,100,2|0,0:0|0:0,0:0:0:0:
169,192,181380,1,0,0:0:0:0:
94,153,181463,2,0,L|96:123,7,25,8|0|0|0|0|0|0|0,0:0|2:0|2:0|2:0|2:0|2:0|2:0|2:0,0:0:0:0:
98,106,181797,5,4,0:1:0:0:
256,192,181880,12,0,184380,0:0:0:0:
94,153,184463,5,6,0:0:0:0:
418,231,184630,1,8,0:0:0:0:
92,168,185297,1,10,0:0:0:0:
421,217,185630,1,10,0:0:0:0:
90,182,185963,5,10,0:0:0:0:
423,202,186130,1,2,0:0:0:0:
423,202,186463,6,0,P|436:244|430:289,1,89.9999972534181,2|0,0:0|0:0,0:0:0:0:
354,342,186797,2,0,P|340:299|346:254,1,89.9999972534181,2|0,0:0|0:0,0:0:0:0:
423,202,187130,6,0,B|438:163|438:163|423:30,2,150.000005722046,8|0|2,0:0|0:0|0:0,0:0:0:0:
200,148,187963,1,0,0:0:0:0:
312,148,188130,1,2,0:0:0:0:
89,202,188297,6,0,B|74:163|74:163|89:30,1,150.000005722046,0|2,0:0|0:0,0:0:0:0:
86,55,188713,1,0,0:0:0:0:
86,55,188797,1,0,0:0:0:0:
196,216,188963,1,0,0:0:0:0:
8,256,189130,1,2,0:0:0:0:
86,55,189297,1,0,0:0:0:0:
216,180,189463,1,0,0:0:0:0:
164,352,189630,6,0,P|94:377|23:356,1,150.000005722046
0,248,190130,1,2,0:0:0:0:
72,164,190297,1,0,0:0:0:0:
72,164,190463,2,0,L|64:76,1,75.0000028610231,2|0,0:0|0:0,0:0:0:0:
176,8,190797,1,0,0:0:0:0:
300,64,190963,6,0,P|314:136|284:208,1,150.000005722046,2|0,0:0|0:0,0:0:0:0:
272,212,191380,1,0,0:0:0:0:
260,219,191463,2,0,P|251:256|259:292,1,75.0000028610231,2|0,0:0|0:0,0:0:0:0:
352,360,191797,1,0,0:0:0:0:
464,344,191963,1,2,0:0:0:0:
508,196,192130,1,2,0:0:0:0:
396,180,192296,1,0,0:0:0:0:
301,242,192463,6,0,P|283:194|294:129,1,112.500004291535,8|0,0:0|0:0,0:0:0:0:
345,76,192797,2,0,L|227:80,1,112.500004291535,2|0,0:0|0:0,0:0:0:0:
200,60,193130,1,2,0:0:0:0:
396,180,193297,1,0,0:0:0:0:
156,176,193463,1,0,0:0:0:0:
343,75,193630,6,0,P|375:142|367:216,1,150.000005722046,2|0,0:0|0:0,0:0:0:0:
139,199,194130,2,0,P|135:144|155:92,1,112.500004291535,2|0,0:0|0:0,0:0:0:0:
200,60,194463,1,0,0:0:0:0:
228,256,194630,1,0,0:0:0:0:
48,192,194797,1,2,0:0:0:0:
304,188,194963,6,0,P|328:257|303:327,1,150.000005722046
120,288,195463,1,2,0:0:0:0:
228,256,195630,1,0,0:0:0:0:
396,344,195797,2,0,L|321:341,1,75.0000028610231,2|0,0:0|0:0,0:0:0:0:
304,188,196130,2,0,L|378:185,1,75.0000028610231,2|0,0:0|0:0,0:0:0:0:
240,276,196463,5,2,0:0:0:0:
220,96,196630,1,0,0:0:0:0:
380,184,196797,1,2,0:0:0:0:
164,192,196963,1,0,0:0:0:0:
280,40,197130,2,0,P|295:93|281:146,1,112.500004291535,2|0,0:0|0:0,0:0:0:0:
276,184,197463,2,0,L|164:192,1,112.500004291535,2|0,0:0|0:0,0:0:0:0:
107,256,197797,6,0,B|123:208|123:208|111:68,1,170.000003242493,8|2,0:0|0:0,0:0:0:0:
0,200,198297,1,0,0:0:0:0:
92,288,198463,2,0,L|176:280,1,85.0000016212464,2|0,0:0|0:0,0:0:0:0:
316,204,198797,1,2,0:0:0:0:
183,119,198963,6,0,P|155:198|176:280,1,170.000003242493,2|0,0:0|0:0,0:0:0:0:
296,324,199463,1,2,0:0:0:0:
348,208,199630,1,0,0:0:0:0:
348,208,199797,2,0,P|304:196|240:216,1,85.0000016212464,2|0,0:0|0:0,0:0:0:0:
424,312,200130,1,2,0:0:0:0:
512,208,200297,6,0,B|506:148|506:148|483:114|483:114|477:46,1,170.000003242493,0|0,0:0|0:0,0:0:0:0:
372,208,200797,1,2,0:0:0:0:
372,208,201130,2,0,B|366:148|366:148|343:114|343:114|337:46,1,170.000003242493,2|2,0:0|0:0,0:0:0:0:
337,45,201797,6,0,B|317:20|317:20|244:70|158:38,1,200,6|0,0:0|0:0,0:0:0:0:
40,132,202297,1,0,0:0:0:0:
128,352,202463,2,0,B|128:276|128:276|152:236|152:236|152:158,1,200,6|0,0:0|0:0,0:0:0:0:
336,44,202963,1,0,0:0:0:0:
488,236,203130,6,0,P|410:295|312:288,1,200,6|0,0:0|0:0,0:0:0:0:
224,168,203630,1,2,0:0:0:0:
332,64,203797,2,0,P|360:104|364:164,1,100,8|0,0:0|0:0,0:0:0:0:
190,258,204130,2,0,P|195:208|223:168,1,100,0|0,0:0|0:0,0:0:0:0:
288,352,204463,5,6,0:0:0:0:
68,260,204630,1,0,0:0:0:0:
272,104,204797,1,8,0:0:0:0:
168,372,204963,2,0,B|136:323|160:273|160:273|183:215|150:157,1,200,6|2,0:0|0:0,0:0:0:0:
16,224,205463,1,8,0:0:0:0:
300,316,205630,1,0,0:0:0:0:
160,48,205797,6,0,L|156:156,1,100,6|0,0:0|0:0,0:0:0:0:
157,148,206047,1,0,0:0:0:0:
157,148,206130,1,8,0:0:0:0:
352,48,206297,2,0,B|356:180|356:180|344:212|304:232,1,200,2|2,0:0|0:0,0:0:0:0:
152,108,206797,1,8,0:0:0:0:
336,28,206963,6,0,P|385:21|444:42,1,100,2|0,0:0|0:0,0:0:0:0:
256,152,207297,1,2,0:0:0:0:
112,100,207463,2,0,P|105:51|126:-8,1,100,8|2,0:0|0:0,0:0:0:0:
240,168,207797,1,0,0:0:0:0:
36,242,207963,1,2,0:0:0:0:
118,4,208130,1,8,0:0:0:0:
164,276,208297,1,2,0:0:0:0:
0,84,208463,5,6,0:0:0:0:
320,120,208630,2,0,P|332:167|308:235,1,100,0|8,0:0|0:0,0:0:0:0:
285,252,208880,1,0,0:0:0:0:
285,252,208963,2,0,B|326:265|359:240|359:240|402:262|402:262|439:240|473:252,1,200,2|2,0:0|0:0,0:0:0:0:
236,368,209463,1,8,0:0:0:0:
60,268,209630,6,0,P|42:167|96:64,1,200,6|2,0:0|0:0,0:0:0:0:
256,24,210130,1,8,0:0:0:0:
433,81,210297,2,0,P|471:172|452:268,1,200,2|2,0:0|0:0,0:0:0:0:
188,212,210797,1,8,0:0:0:0:
336,188,210963,1,2,0:0:0:0:
148,336,211130,6,0,L|160:216,1,100,6|0,0:0|0:0,0:0:0:0:
144,188,211380,1,0,0:0:0:0:
120,144,211463,2,0,L|113:77,1,50,8|0,0:0|0:0,0:0:0:0:
256,24,211630,2,0,L|251:74,1,50,8|0,0:0|0:0,0:0:0:0:
336,188,211797,1,2,0:0:0:0:
385,197,211880,1,0,0:0:0:0:
432,182,211963,1,2,0:0:0:0:
467,147,212047,1,0,0:0:0:0:
472,97,212130,1,8,0:0:0:0:
443,138,212213,1,0,0:0:0:0:
430,186,212296,1,2,0:0:0:0:
433,235,212380,1,0,0:0:0:0:
453,281,212463,6,0,L|512:284,1,50,6|8,0:0|0:3,0:0:0:0:
328,364,212630,2,0,L|269:367,1,50,4|0,0:3|0:0,0:0:0:0:
336,188,212797,2,0,L|395:191,1,50,2|8,0:0|0:3,0:0:0:0:
211,271,212964,2,0,L|152:274,1,50,4|0,0:3|0:0,0:0:0:0:
104,88,213130,2,0,L|254:95,1,150,2|0,0:0|0:0,0:0:0:0:
226,123,213463,1,8,0:0:0:0:
198,152,213547,1,0,0:0:0:0:
170,181,213630,1,0,0:0:0:0:
142,210,213713,1,0,0:0:0:0:
112,240,213797,6,0,P|99:284|111:344,1,89.9999972534181,2|0,0:2|0:0,0:0:0:0:
104,327,214130,6,0,P|74:219|108:114,1,225.000008583069,12|0,0:0|0:0,0:0:0:0:
108,115,214463,1,2,0:0:0:0:
280,328,214630,1,2,0:0:0:0:
8,376,214797,1,8,0:0:0:0:
108,116,214963,6,0,B|200:92|256:164|256:164|224:204|172:212,1,239.999992675781,2|2,0:0|0:0,0:0:0:0:
16,168,215463,2,0,P|8:104|36:40,1,119.999996337891,8|0,0:0|0:0,0:0:0:0:
254,164,215797,1,2,0:0:0:0:
104,328,215963,1,2,0:0:0:0:
104,328,216047,1,0,0:0:0:0:
104,328,216130,1,8,0:0:0:0:
132,80,216297,1,0,0:0:0:0:
381,89,216463,6,0,P|391:205|319:297,1,239.999992675781,2|8,0:0|0:0,0:0:0:0:
108,224,216963,1,0,0:0:0:0:
256,164,217130,1,2,0:0:0:0:
184,368,217297,1,2,0:0:0:0:
4,252,217463,1,8,0:0:0:0:
4,252,217547,1,0,0:0:0:0:
4,252,217630,6,0,B|8:88|8:88|24:48|72:36,1,239.999992675781,0|2,0:0|0:0,0:0:0:0:
300,144,218130,1,8,0:0:0:0:
120,168,218297,1,0,0:0:0:0:
404,40,218463,1,2,0:0:0:0:
431,73,218546,1,0,0:0:0:0:
446,112,218629,1,2,0:0:0:0:
449,154,218713,1,0,0:0:0:0:
440,194,218797,2,0,P|384:180|320:200,1,119.999996337891,8|2,0:0|0:0,0:0:0:0:
142,339,219130,6,0,P|108:257|120:168,1,179.999994506836,6|0,0:0|0:0,0:0:0:0:
178,117,219463,2,0,L|54:121,1,119.999996337891,8|0,0:0|0:0,0:0:0:0:
260,236,219797,1,2,0:0:0:0:
416,151,219963,2,0,P|425:93|403:38,1,119.999996337891,2|8,0:0|0:0,0:0:0:0:
260,236,220297,6,0,B|239:310|305:360|305:360|356:317|350:249,1,239.999992675781,0|2,0:0|0:0,0:0:0:0:
350,276,220713,1,0,0:0:0:0:
350,276,220797,1,8,0:0:0:0:
324,104,220963,1,0,0:0:0:0:
260,236,221130,1,2,0:0:0:0:
468,180,221297,1,2,0:0:0:0:
320,60,221463,1,8,0:0:0:0:
272,324,221630,1,2,0:0:0:0:
488,204,221797,6,0,P|500:145|484:84,1,119.999996337891,2|0,0:0|0:0,0:0:0:0:
244,96,222130,2,0,P|231:154|248:216,1,119.999996337891,8|0,0:0|0:0,0:0:0:0:
344,40,222463,1,2,0:0:0:0:
120,76,222630,1,2,0:0:0:0:
120,76,222713,1,0,0:0:0:0:
120,76,222797,1,8,0:0:0:0:
144,292,222963,6,0,P|255:328|368:280,1,239.999992675781,2|2,0:0|0:0,0:0:0:0:
364,283,223380,1,0,0:0:0:0:
364,283,223463,1,8,0:0:0:0:
244,96,223630,1,0,0:0:0:0:
144,292,223797,2,0,L|148:352,1,59.9999981689454,2|0,0:0|0:0,0:0:0:0:
60,228,223963,2,0,L|64:168,1,59.9999981689454,4|0,0:3|0:0,0:0:0:0:
193,36,224130,1,8,0:0:0:0:
194,66,224213,1,0,0:0:0:0:
196,96,224296,1,2,0:0:0:0:
198,126,224380,1,0,0:0:0:0:
199,155,224463,6,0,P|253:164|304:142,1,112.500004291535,6|0,0:0|0:0,0:0:0:0:
92,60,224797,6,0,P|63:166|111:265,1,225.000008583069,12|0,0:0|0:0,0:0:0:0:
111,265,225130,1,2,0:0:0:0:
268,56,225297,1,0,0:0:0:0:
12,24,225463,1,8,0:0:0:0:
111,264,225630,6,0,B|187:312|259:252|259:252|231:204|155:212,1,239.999992675781,6|0,0:0|0:0,0:0:0:0:
111,265,226047,1,0,0:0:0:0:
110,264,226130,2,0,P|96:321|112:380,1,119.999996337891,8|0,0:0|0:0,0:0:0:0:
259,252,226463,1,2,0:0:0:0:
36,152,226630,1,2,0:0:0:0:
112,379,226797,2,0,L|234:367,1,119.999996337891,8|0,0:0|0:0,0:0:0:0:
312,136,227130,6,0,B|256:104|192:136|192:136|128:168|82:142,1,239.999992675781,2|8,0:0|0:0,0:0:0:0:
124,4,227630,1,0,0:0:0:0:
256,272,227797,1,2,0:0:0:0:
220,293,227880,1,0,0:0:0:0:
180,306,227963,1,2,0:0:0:0:
138,310,228047,1,0,0:0:0:0:
95,303,228130,2,0,P|76:247|85:189,1,119.999996337891,8|2,0:0|0:0,0:0:0:0:
406,134,228463,6,0,P|431:250|388:360,2,239.999992675781,6|8|2,0:0|0:0|0:0,0:0:0:0:
208,72,229297,1,2,0:0:0:0:
144,288,229463,1,8,0:0:0:0:
320,240,229630,1,0,0:0:0:0:
105,134,229797,6,0,P|80:250|123:359,1,239.999992675781,6|8,0:0|0:0,0:0:0:0:
320,240,230297,1,2,0:0:0:0:
320,240,230380,1,0,0:0:0:0:
319,239,230463,2,0,P|262:223|205:239,1,119.999996337891,2|2,0:0|0:0,0:0:0:0:
384,368,230797,1,8,0:0:0:0:
400,120,230963,1,2,0:0:0:0:
200,260,231130,5,6,0:0:0:0:
460,208,231297,1,2,0:0:0:0:
244,48,231463,1,8,0:0:0:0:
12,192,231630,2,0,B|20:232|20:232|112:296|220:232,1,239.999992675781,6|2,0:0|0:0,0:0:0:0:
64,88,232130,1,8,0:0:0:0:
4,360,232297,1,0,0:0:0:0:
304,296,232463,6,0,P|320:244|296:168,1,119.999996337891,6|0,0:0|0:0,0:0:0:0:
176,120,232797,1,8,0:0:0:0:
112,360,232963,2,0,L|248:352,1,119.999996337891,6|0,0:0|0:0,0:0:0:0:
231,352,233213,1,0,0:0:0:0:
231,352,233297,1,2,0:0:0:0:
312,180,233463,1,8,0:0:0:0:
72,140,233630,6,0,B|40:157|40:157|0:264|88:348,1,239.999992675781,6|2,0:0|0:0,0:0:0:0:
256,228,234130,1,8,0:0:0:0:
440,140,234297,2,0,B|471:157|471:157|512:264|424:348,1,239.999992675781,2|2,0:0|0:0,0:0:0:0:
256,228,234797,1,8,0:0:0:0:
168,44,234963,1,2,0:0:0:0:
168,44,235047,1,0,0:0:0:0:
168,44,235130,6,0,B|256:-16|344:44|344:44|308:100|240:108,3,300.000011444092,6|8|8|8,0:0|0:0|0:3|0:0,0:0:0:0:
255,106,237463,1,8,0:0:0:0:
229,144,237546,1,0,0:0:0:0:
220,187,237629,1,0,0:0:0:0:
230,231,237713,1,0,0:0:0:0:
256,266,237796,5,8,0:0:0:0:
384,188,237963,1,0,0:0:0:0:
157,194,238130,1,2,0:0:0:0:
160,344,238297,1,0,0:0:0:0:
280,128,238463,1,2,0:0:0:0:
148,56,238630,1,0,0:0:0:0:
48,167,238797,2,0,P|46:217|67:262,1,100,8|0,0:0|0:0,0:0:0:0:
236,360,239130,6,0,P|256:315|255:265,1,100,6|0,0:0|0:0,0:0:0:0:
48,168,239463,1,8,0:0:0:0:
236,360,239630,1,0,0:0:0:0:
280,128,239797,1,8,0:3:0:0:
136,248,239963,1,2,0:0:0:0:
142,297,240046,1,0,0:0:0:0:
149,347,240129,1,0,0:0:0:0:
272,104,240297,6,0,P|224:92|168:100,1,100,2|8,0:0|0:3,0:0:0:0:
332,260,240630,2,0,P|381:265|429:253,1,100,2|0,0:0|0:0,0:0:0:0:
488,72,240963,1,8,0:0:0:0:
300,16,241130,5,0,0:0:0:0:
272,104,241241,2,0,L|284:180,1,66.6666666666667,4|0,0:3|0:0,0:0:0:0:
420,288,241463,1,0,0:0:0:0:
332,260,241574,2,0,L|256:272,1,66.6666666666667,8|4,0:0|0:3,0:0:0:0:
64,320,241797,6,0,L|180:340,1,100,6|0,0:0|0:0,0:0:0:0:
36,184,242130,1,8,0:0:0:0:
40,344,242297,1,8,0:0:0:0:
164,96,242463,1,2,0:0:0:0:
36,184,242630,1,8,0:0:0:0:
70,220,242713,1,0,0:0:0:0:
114,243,242796,1,8,0:3:0:0:
163,250,242880,1,0,0:0:0:0:
212,240,242963,1,4,0:3:0:0:
255,215,243046,1,0,0:0:0:0:
287,177,243130,6,0,B|296:204|296:204|284:292,1,100,6|8,0:0|0:0,0:0:0:0:
376,104,243463,2,0,B|367:77|367:77|379:-10,1,100,4|2,0:3|0:0,0:0:0:0:
484,224,243797,5,8,0:0:0:0:
429,307,243908,2,0,L|333:311,1,66.6666666666667,2|8,0:0|0:0,0:0:0:0:
292,240,244130,2,0,B|272:204|272:204|284:132|344:108,1,150
408,112,244463,5,6,0:0:0:0:
408,112,244797,1,8,0:0:0:0:
156,328,244963,2,0,B|115:365|40:336|26:296|26:296|81:313|118:273|118:273|90:259|70:229,1,300.000011444092,6|2,0:0|0:0,0:0:0:0:
82,244,245740,1,0,0:0:0:0:
82,244,245826,1,2,0:0:0:0:
256,192,245912,12,8,249284,0:0:0:0:
256,192,249457,5,8,0:3:0:0:
256,192,249543,1,2,0:0:0:0:
256,192,249630,1,2,0:0:0:0:
