osu file format v13

[General]
AudioFilename: 01 .mp3
AudioLeadIn: 0
PreviewTime: 53104
Countdown: 0
SampleSet: Soft
StackLeniency: 0.7
Mode: 0
LetterboxInBreaks: 1
WidescreenStoryboard: 0

[Editor]
DistanceSpacing: 1
BeatDivisor: 4
GridSize: 4
TimelineZoom: 1.5

[Metadata]
Title:EXTRA MAGIC HOUR
TitleUnicode:エクストラ・マジック・アワー
Artist:AKINO with bless4
ArtistUnicode:AKINO with bless4
Creator:Kawaiwkyik
Version:Hard
Source:甘城ブリリアントパーク
Tags:opening amagi brilliant park
BeatmapID:533591
BeatmapSetID:228619

[Difficulty]
HPDrainRate:5
CircleSize:4
OverallDifficulty:6
ApproachRate:8
SliderMultiplier:1.6
SliderTickRate:1

[Events]
//Background and Video events
0,0,"bg.jpg",0,0
//Break Periods
2,89971,97021
2,149971,158521
2,187104,197021
//Storyboard Layer 0 (Background)
//Storyboard Layer 1 (Fail)
//Storyboard Layer 2 (Pass)
//Storyboard Layer 3 (Foreground)
//Storyboard Sound Samples
//Background Colour Transformations
3,100,163,162,255

[TimingPoints]
7105,333.333333333333,4,2,1,80,1,0
8771,-133.333333333333,4,2,1,70,0,0
9604,-133.333333333333,4,2,1,5,0,0
9771,-100,4,2,1,70,0,0
19104,-100,4,2,1,80,0,0
19604,-100,4,2,1,90,0,0
20938,-100,4,3,1,70,0,0
21771,-133.333333333333,4,2,2,50,0,0
31104,-100,4,2,1,70,0,0
43104,-133.333333333333,4,2,1,70,0,0
47771,-100,4,2,1,70,0,0
51104,-100,4,2,1,80,0,0
52438,-100,4,2,1,70,0,0
53104,-200,4,2,1,50,0,0
53771,-100,4,2,1,90,0,1
77771,-133.333333333333,4,2,1,80,0,1
80104,-133.333333333333,4,2,1,70,0,1
80271,-133.333333333333,4,2,1,60,0,1
80438,-133.333333333333,4,2,1,50,0,0
81438,-166.666666666667,4,2,1,50,0,0
81771,-100,4,2,1,70,0,1
81854,-100,4,2,1,70,0,0
97771,-133.333333333333,4,2,2,50,0,0
99104,-100,4,2,1,70,0,0
111104,-133.333333333333,4,2,1,70,0,0
116438,-100,4,2,1,70,0,0
121104,-200,4,2,1,50,0,0
121771,-100,4,2,1,90,0,1
145771,-133.333333333333,4,2,1,80,0,1
148104,-133.333333333333,4,2,1,70,0,1
148271,-133.333333333333,4,2,1,60,0,1
148438,-133.333333333333,4,2,1,50,0,0
149438,-66.6666666666667,4,2,1,50,0,0
149771,-133.333333333333,4,2,1,70,0,1
149854,-133.333333333333,4,2,1,70,0,0
159271,-133.333333333333,4,2,1,70,0,0
171104,-100,4,2,1,70,0,0
184104,-100,4,2,1,5,0,0
184438,-100,4,2,1,70,0,0
197771,-200,4,2,2,50,0,0
201771,-200,4,2,2,60,0,0
203104,-133.333333333333,4,2,1,60,0,0
205771,-100,4,2,1,80,0,1
213771,-133.333333333333,4,2,1,60,0,0
214104,-83.3333333333333,4,2,1,90,0,1
214438,-100,4,2,1,90,0,1
235104,-133.333333333333,4,2,1,80,0,1
237438,-133.333333333333,4,2,1,70,0,1
237604,-133.333333333333,4,2,1,60,0,1
237771,-133.333333333333,4,2,1,50,0,0
238771,-166.666666666667,4,2,1,50,0,0
239104,-100,4,2,1,70,0,1
239188,-100,4,2,1,70,0,0

[Colours]
Combo1 : 206,180,154
Combo2 : 255,0,0
Combo3 : 251,229,168

[HitObjects]
84,124,7104,5,4,0:0:0:0:
136,196,7271,1,8,0:0:0:0:
136,196,7438,2,0,L|232:184,1,80,8|8,0:0|0:0,0:0:0:0:
260,112,7771,2,0,P|308:96|388:168,1,160,4|8,0:0|0:0,0:0:0:0:
312,336,8271,2,0,P|288:261|304:184,1,160,12|0,0:0|0:0,0:0:0:0:
444,256,8771,6,0,B|460:304|412:352|412:352|376:312|340:240|400:176,1,300.000011444092,12|0,0:0|0:0,0:0:0:0:
460,100,9771,5,8,0:0:0:0:
460,100,9854,1,8,0:0:0:0:
460,100,9938,2,0,L|368:88,1,80,0|0,0:0|0:0,0:0:0:0:
284,76,10271,2,0,L|272:28,2,40,8|8|0,0:0|0:0|0:0,0:0:0:0:
248,164,10604,2,0,L|204:172,4,40,0|0|4|0|8,0:0|0:0|0:3|0:0|0:0,0:0:0:0:
152,248,11104,6,0,L|56:240,1,80,4|0,0:0|0:0,0:0:0:0:
116,164,11438,1,8,0:0:0:0:
120,332,11604,2,0,L|216:324,1,80,0|0,0:0|0:0,0:0:0:0:
284,360,11938,2,0,P|292:320|272:268,1,80,0|8,0:0|0:0,0:0:0:0:
228,212,12271,1,0,0:0:0:0:
368,300,12438,6,0,L|460:292,1,80,0|0,0:0|0:0,0:0:0:0:
472,140,12771,2,0,L|380:148,1,80,8|0,0:0|0:0,0:0:0:0:
324,200,13104,2,0,L|256:196,3,40,0|0|0|0,0:0|0:0|0:0|0:0,0:0:0:0:
248,168,13438,2,0,L|208:170,3,40,8|0|0|0,0:0|0:0|0:0|0:0,0:0:0:0:
164,184,13771,6,0,P|136:228|172:328,1,160,0|8,0:0|0:0,0:0:0:0:
252,300,14271,1,0,0:0:0:0:
328,348,14438,2,0,L|428:336,1,80,0|0,0:0|0:0,0:0:0:0:
400,252,14771,1,8,0:0:0:0:
484,364,14938,1,0,0:0:0:0:
484,364,15021,1,0,0:0:0:0:
484,364,15104,6,0,P|488:320|472:280,1,80,0|0,0:0|0:0,0:0:0:0:
393,175,15438,2,0,P|389:219|405:259,1,80,8|0,0:0|0:0,0:0:0:0:
364,332,15771,1,0,0:0:0:0:
280,352,15938,1,4,0:3:0:0:
212,296,16104,1,8,0:0:0:0:
224,208,16271,1,4,0:3:0:0:
304,168,16438,6,0,L|308:72,2,80,0|0|8,0:0|0:0|0:0,0:0:0:0:
376,216,16938,2,0,L|372:312,2,80,0|0|0,0:0|0:0|0:0,0:0:0:0:
440,156,17438,1,8,0:0:0:0:
420,72,17604,1,0,0:0:0:0:
420,72,17771,6,0,P|376:80|292:0,1,160,0|8,0:0|0:0,0:0:0:0:
232,72,18271,1,0,0:0:0:0:
232,72,18438,2,0,L|140:64,1,80,0|0,0:0|0:0,0:0:0:0:
67,92,18771,2,0,P|56:130|58:169,1,80,8|0,0:0|0:0,0:0:0:0:
264,256,19104,6,0,P|212:200|136:212,1,160,8|0,0:0|0:0,0:0:0:0:
192,344,19604,2,0,L|368:332,1,160,8|0,0:0|0:0,0:0:0:0:
436,356,20104,2,0,P|468:312|440:228,1,120,8|0,0:0|0:0,0:0:0:0:
428,216,20438,5,8,0:0:0:0:
336,312,20604,1,8,0:0:0:0:
336,312,20938,5,4,0:0:0:0:
288,236,21104,2,0,L|240:244,2,40,8|8|4,0:0|0:0|0:0,0:0:0:0:
332,160,21438,1,8,0:0:0:0:
336,140,21521,1,8,0:0:0:0:
340,120,21604,1,4,0:0:0:0:
344,100,21688,1,4,0:0:0:0:
348,84,21771,6,0,L|416:80,2,60.0000022888184,4|0|0,0:0|0:0|0:0,0:0:0:0:
284,140,22271,1,0,0:0:0:0:
216,88,22438,2,0,P|176:76|88:120,1,120.000004577637,0|0,0:0|0:0,0:0:0:0:
68,176,22938,1,0,0:0:0:0:
84,256,23104,6,0,L|100:336,1,60.0000022888184,0|0,0:0|0:0,0:0:0:0:
168,360,23438,2,0,L|179:301,1,60.0000022888184,0|0,0:0|0:0,0:0:0:0:
248,252,23771,2,0,L|264:332,1,60.0000022888184,0|0,0:0|0:0,0:0:0:0:
332,356,24105,2,0,L|343:297,1,60.0000022888184,0|0,0:0|0:0,0:0:0:0:
400,236,24438,6,0,P|444:228|512:268,2,120.000004577637,0|0|0,0:0|0:0|0:0,0:0:0:0:
376,96,25271,1,0,0:0:0:0:
344,172,25438,2,0,L|264:164,1,60.0000022888184,0|0,0:0|0:0,0:0:0:0:
180,260,25771,6,0,L|324:245,1,120.000004577637,0|0,0:0|0:0,0:0:0:0:
360,304,26271,1,0,0:0:0:0:
432,348,26438,2,0,P|444:312|436:280,1,60.0000022888184,0|0,0:0|0:0,0:0:0:0:
400,168,26771,2,0,P|388:204|396:236,1,60.0000022888184,0|0,0:0|0:0,0:0:0:0:
360,304,27104,6,0,L|288:296,1,60.0000022888184,4|0,0:0|0:0,0:0:0:0:
236,352,27438,2,0,L|164:344,1,60.0000022888184,0|0,0:0|0:0,0:0:0:0:
104,304,27771,2,0,P|88:260|132:188,1,120.000004577637,0|0,0:0|0:0,0:0:0:0:
196,164,28271,1,0,0:0:0:0:
268,208,28438,6,0,P|316:216|376:152,2,120.000004577637,0|0|0,0:0|0:0|0:0,0:0:0:0:
148,92,29438,1,0,0:0:0:0:
44,224,29771,6,0,L|56:304,1,60.0000022888184,2|0,0:0|0:0,0:0:0:0:
128,244,30104,2,0,L|140:324,1,60.0000022888184,4|0,0:0|0:0,0:0:0:0:
212,268,30438,2,0,L|224:348,1,60.0000022888184,0|0,0:0|0:0,0:0:0:0:
296,288,30771,2,0,L|308:368,1,60.0000022888184,0|0,0:0|0:0,0:0:0:0:
384,312,31104,5,2,0:0:0:0:
448,252,31271,1,0,0:0:0:0:
448,252,31354,1,0,0:0:0:0:
448,252,31438,1,8,0:0:0:0:
408,172,31604,1,2,0:0:0:0:
408,172,31938,6,0,L|328:180,1,80,2|8,0:0|0:0,0:0:0:0:
154,233,32271,1,8,0:0:0:0:
154,233,32438,6,0,P|169:159|244:148,1,160,4|8,0:0|0:0,0:0:0:0:
328,179,32938,2,0,L|320:280,1,80,0|0,0:0|0:0,0:0:0:0:
364,336,33271,1,0,0:0:0:0:
452,348,33438,2,0,L|445:268,1,80,8|0,0:0|0:0,0:0:0:0:
468,184,33771,6,0,P|488:140|416:48,1,160,0|8,0:0|0:0,0:0:0:0:
356,88,34271,1,0,0:0:0:0:
276,52,34438,2,0,L|108:48,1,160,0|8,0:0|0:0,0:0:0:0:
48,104,34938,1,0,0:0:0:0:
88,180,35104,6,0,L|80:260,2,80,0|0|8,0:0|0:0|0:0,0:0:0:0:
172,148,35604,1,0,0:0:0:0:
240,204,35771,2,0,P|288:216|340:200,1,80,0|0,0:0|0:0,0:0:0:0:
284,128,36104,1,8,0:0:0:0:
156,232,36271,6,0,P|132:300|168:380,1,160,0|0,0:0|0:0,0:0:0:0:
244,336,36771,2,0,L|412:328,1,160,8|0,0:0|0:0,0:0:0:0:
403,328,37271,1,0,0:0:0:0:
488,360,37438,2,0,L|504:264,1,80,8|0,0:0|0:0,0:0:0:0:
444,212,37771,5,4,0:0:0:0:
356,196,37938,1,0,0:0:0:0:
288,248,38104,1,8,0:0:0:0:
268,336,38271,2,0,P|220:352|120:272,1,160,0|0,0:0|0:0,0:0:0:0:
116,216,38771,1,8,0:0:0:0:
160,140,38938,5,4,0:0:0:0:
160,140,39271,1,0,0:0:0:0:
240,172,39438,2,0,L|336:160,1,80,8|0,0:0|0:0,0:0:0:0:
368,256,39771,2,0,L|272:244,1,80,0|0,0:0|0:0,0:0:0:0:
240,340,40104,2,0,L|336:328,1,80,8|0,0:0|0:0,0:0:0:0:
408,340,40438,6,0,P|440:316|444:200,2,160,4|8|0,0:0|0:0|0:0,0:0:0:0:
256,248,41438,1,8,0:0:0:0:
192,188,41604,6,0,P|244:160|336:216,1,160,4|0,0:0|0:0,0:0:0:0:
340,288,42104,1,8,0:0:0:0:
268,336,42271,2,0,L|172:324,1,80,0|8,0:0|0:0,0:0:0:0:
188,326,42521,1,0,0:0:0:0:
188,326,42604,1,0,0:0:0:0:
100,328,42771,2,0,L|92:384,2,40,8|0|4,0:0|3:0|3:0,0:0:0:0:
60,252,43104,6,0,P|40:192|172:80,1,240.000009155274,4|8,0:0|0:0,0:0:0:0:
220,128,43938,1,0,0:0:0:0:
300,100,44104,2,0,L|388:92,1,60.0000022888184,0|0,0:0|0:0,0:0:0:0:
436,132,44438,6,0,P|464:168|432:256,1,120.000004577637,0|0,0:0|0:0,0:0:0:0:
308,320,45104,2,0,P|280:284|312:196,1,120.000004577637,8|0,0:0|0:0,0:0:0:0:
240,148,45604,1,0,0:0:0:0:
180,208,45771,6,0,L|36:200,1,120.000004577637,0|0,0:0|0:0,0:0:0:0:
32,280,46271,2,0,L|176:288,1,120.000004577637,0|0,0:0|0:0,0:0:0:0:
216,340,46771,2,0,L|296:328,1,60.0000022888184,0|0,0:0|0:0,0:0:0:0:
356,352,47104,2,0,P|396:356|444:280,1,120.000004577637,0|0,0:0|0:0,0:0:0:0:
352,96,47771,6,0,L|340:208,1,80,0|0,0:0|0:0,0:0:0:0:
256,192,48104,2,0,L|268:80,1,80,0|0,0:0|0:0,0:0:0:0:
212,40,48438,6,0,P|168:24|72:96,1,160,4|8,0:0|0:0,0:0:0:0:
68,168,48938,1,0,0:0:0:0:
144,212,49104,2,0,P|160:264|148:312,1,80,0|0,0:0|0:0,0:0:0:0:
84,340,49438,2,0,P|68:288|80:240,1,80,8|0,0:0|0:0,0:0:0:0:
208,356,49771,6,0,P|260:368|336:292,1,160,0|8,0:0|0:0,0:0:0:0:
324,216,50271,1,0,0:0:0:0:
396,164,50438,2,0,L|480:172,1,80,0|0,0:0|0:0,0:0:0:0:
432,248,50771,1,8,0:0:0:0:
432,248,50938,1,0,0:0:0:0:
316,128,51104,6,0,P|272:144|252:264,1,160,8|0,0:0|0:0,0:0:0:0:
288,320,51604,2,0,B|236:340|192:316|192:316|104:328,1,160,8|0,0:0|0:0,0:0:0:0:
48,356,52104,2,0,L|32:312,3,40,8|0|0|0,0:0|0:0|0:0|0:0,0:0:0:0:
56,280,52438,2,0,L|64:172,1,80,8|8,0:0|0:0,0:0:0:0:
300,204,53104,6,0,P|340:212|388:188,1,80,0|0,0:0|0:0,0:0:0:0:
384,184,53771,6,0,L|200:176,2,160,4|8|0,0:1|0:0|0:0,0:0:0:0:
452,128,54604,1,0,0:0:0:0:
480,212,54771,1,8,0:0:0:0:
396,288,54938,6,0,L|212:280,1,160,4|0,0:0|0:0,0:0:0:0:
164,332,55438,2,0,P|124:340|76:324,1,80,8|0,0:0|0:0,0:0:0:0:
36,260,55771,1,0,0:0:0:0:
92,192,55938,1,0,0:0:0:0:
36,124,56104,1,8,0:0:0:0:
96,60,56271,6,0,P|136:76|232:12,1,160,4|0,0:0|0:0,0:0:0:0:
256,164,56771,2,0,L|176:152,1,80,8|0,0:0|0:0,0:0:0:0:
36,124,57104,1,0,0:0:0:0:
36,124,57271,1,0,0:0:0:0:
92,192,57438,1,8,0:0:0:0:
176,176,57604,6,0,P|232:160|304:232,1,160,4|0,0:0|0:0,0:0:0:0:
284,308,58104,2,0,L|456:292,1,160,8|0,0:0|0:0,0:0:0:0:
443,293,58604,1,0,0:0:0:0:
480,212,58771,1,8,0:0:0:0:
432,136,58938,1,0,0:0:0:0:
344,136,59104,6,0,P|300:144|228:56,2,160,4|8|0,0:0|0:0|0:0,0:0:0:0:
380,216,59938,2,0,L|352:312,1,80,0|8,0:0|0:0,0:0:0:0:
288,348,60271,6,0,P|232:352|164:264,1,160,4|0,0:0|0:0,0:0:0:0:
262,184,60771,2,0,L|252:264,1,80,8|0,0:0|0:0,0:0:0:0:
176,184,61104,2,0,L|165:104,1,80,0|0,0:0|0:0,0:0:0:0:
232,48,61438,1,8,0:0:0:0:
304,100,61604,6,0,P|344:120|448:64,1,160,4|0,0:0|0:0,0:0:0:0:
484,156,62104,1,8,0:0:0:0:
484,156,62271,1,0,0:0:0:0:
440,232,62438,2,0,L|452:328,2,80,0|0|8,0:0|0:0|0:0,0:0:0:0:
360,268,62938,6,0,L|192:256,1,160,4|0,0:0|0:0,0:0:0:0:
120,292,63438,1,8,0:0:0:0:
120,292,63521,1,2,0:0:0:0:
120,292,63604,1,2,0:0:0:0:
120,292,63688,1,2,0:0:0:0:
120,292,63771,2,0,L|32:284,1,80,2|0,0:0|0:0,0:0:0:0:
52,164,64104,2,0,L|140:172,1,80,8|0,0:0|0:0,0:0:0:0:
204,224,64438,6,0,P|248:240|324:148,2,160,4|8|0,0:1|0:0|0:0,0:0:0:0:
156,152,65271,2,0,L|168:64,1,80,0|8,0:0|0:0,0:0:0:0:
244,28,65604,6,0,B|316:44|316:44|416:16,1,160,4|0,0:0|0:0,0:0:0:0:
468,76,66104,2,0,B|496:156|496:156|480:252,1,160,8|0,0:0|0:0,0:0:0:0:
444,308,66604,1,0,0:0:0:0:
372,256,66771,1,8,0:0:0:0:
324,332,66938,1,0,0:0:0:0:
324,332,67104,6,0,P|260:308|176:360,2,160,4|8|0,0:0|0:0|0:0,0:0:0:0:
372,256,67938,1,0,0:0:0:0:
312,192,68104,2,0,L|320:96,1,80,8|0,0:0|0:0,0:0:0:0:
380,48,68438,6,0,P|424:68|512:4,2,160,4|8|4,0:0|0:0|0:0,0:0:0:0:
304,92,69271,2,0,L|224:80,1,80,0|8,0:0|0:0,0:0:0:0:
88,192,69771,6,0,P|68:248|140:336,1,160,4|8,0:0|0:0,0:0:0:0:
156,248,70271,1,0,0:0:0:0:
224,304,70438,2,0,P|244:248|172:160,1,160,0|8,0:0|0:0,0:0:0:0:
128,112,70938,1,0,0:0:0:0:
188,52,71104,6,0,P|240:32|340:80,1,160,4|8,0:0|0:0,0:0:0:0:
304,152,71604,2,0,P|372:189|448:169,1,160,4|0,0:0|0:0,0:0:0:0:
492,244,72104,2,0,L|476:332,1,80,8|0,0:0|0:0,0:0:0:0:
396,356,72438,6,0,L|308:340,1,80,4|0,0:0|0:0,0:0:0:0:
256,276,72771,1,8,0:0:0:0:
184,328,72938,2,0,P|116:340|56:256,1,160,4|0,0:0|0:0,0:0:0:0:
52,192,73438,1,8,0:0:0:0:
132,152,73604,6,0,L|224:160,2,80,4|0|0,0:0|0:0|0:0,0:0:0:0:
52,192,74104,2,0,P|44:140|140:64,1,160,8|0,0:0|0:0,0:0:0:0:
200,80,74604,1,0,0:0:0:0:
200,80,74771,2,0,L|292:72,1,80,8|0,0:0|0:0,0:0:0:0:
352,124,75104,6,0,P|368:168|360:224,1,80,4|0,0:0|0:0,0:0:0:0:
280,176,75438,1,8,0:0:0:0:
428,256,75604,2,0,P|444:216|428:104,1,160,4|0,0:0|0:0,0:0:0:0:
372,36,76104,1,8,0:0:0:0:
288,64,76271,6,0,P|236:76|140:12,1,160,4|0,0:0|0:0,0:0:0:0:
64,56,76771,2,0,L|52:136,1,80,8|0,0:0|0:0,0:0:0:0:
140,132,77104,2,0,L|128:212,1,80,0|0,0:0|0:0,0:0:0:0:
40,232,77438,2,0,L|28:312,1,80,8|0,0:0|0:0,0:0:0:0:
120,296,77771,6,0,P|168:288|252:376,1,180.000006866455,4|0,0:0|0:0,0:0:0:0:
251,374,78438,1,8,0:0:0:0:
392,88,79104,6,0,P|344:96|260:8,1,180.000006866455,4|0,0:0|0:0,0:0:0:0:
260,9,79771,1,8,0:0:0:0:
136,52,80104,2,0,L|132:96,4,30.0000011444092,8|8|8|8|8,0:0|0:0|0:0|0:0|0:0,0:0:0:0:
332,300,81438,5,8,0:0:0:0:
332,300,81771,2,0,L|352:136,2,160,4|8|0,0:0|0:0|0:0,0:0:0:0:
252,264,82604,1,0,0:0:0:0:
184,320,82771,2,0,P|136:328|52:248,1,160,8|0,0:0|0:0,0:0:0:0:
56,172,83271,5,0,0:0:0:0:
120,112,83438,2,0,L|128:32,1,80,8|0,0:0|0:0,0:0:0:0:
216,16,83771,2,0,L|208:96,1,80,0|8,0:0|0:0,0:0:0:0:
264,164,84104,2,0,P|312:144|360:128,1,80,0|0,0:0|0:0,0:0:0:0:
420,172,84438,5,4,0:0:0:0:
492,224,84604,1,0,0:0:0:0:
412,260,84771,1,8,0:0:0:0:
484,312,84938,2,0,P|444:344|336:304,1,160,4|0,0:0|0:0,0:0:0:0:
324,232,85438,2,0,P|280:252|224:244,1,80,8|0,0:0|0:0,0:0:0:0:
172,208,85771,6,0,P|112:224|104:336,1,160,4|8,0:0|0:0,0:0:0:0:
148,376,86271,2,0,L|320:360,1,160,4|0,0:0|0:0,0:0:0:0:
396,364,86771,2,0,P|404:316|416:268,1,80,8|0,0:0|0:0,0:0:0:0:
256,192,87104,12,4,89771,0:0:0:0:
68,84,97771,6,0,L|136:76,1,60.0000022888184,0|0,0:0|0:0,0:0:0:0:
96,156,98104,2,0,L|164:148,1,60.0000022888184,0|0,0:0|0:0,0:0:0:0:
128,228,98438,2,0,L|196:220,1,60.0000022888184,0|0,0:0|0:0,0:0:0:0:
156,300,98771,2,0,L|224:292,1,60.0000022888184,0|0,0:0|0:0,0:0:0:0:
292,336,99104,5,2,0:0:0:0:
376,308,99271,1,0,0:0:0:0:
376,308,99354,1,0,0:0:0:0:
376,308,99438,1,8,0:0:0:0:
456,348,99604,1,8,0:0:0:0:
456,348,99938,2,0,L|472:252,2,80,2|0|8,0:0|0:0|0:0,0:0:0:0:
291,335,100438,6,0,P|300:256|366:220,1,160,4|8,0:0|0:0,0:0:0:0:
428,156,100938,2,0,B|380:120|328:140|328:140|252:132,1,160,0|0,0:0|0:0,0:0:0:0:
200,180,101438,2,0,P|184:124|268:48,1,160,8|0,0:0|0:0,0:0:0:0:
328,76,101938,5,0,0:0:0:0:
404,120,102104,2,0,P|416:72|400:12,1,80,8|0,0:0|0:0,0:0:0:0:
328,160,102438,2,0,L|336:272,1,80,0|0,0:0|0:0,0:0:0:0:
412,284,102771,2,0,L|417:204,1,80,8|0,0:0|0:0,0:0:0:0:
336,328,103104,5,0,0:0:0:0:
256,288,103271,1,0,0:0:0:0:
260,376,103438,2,0,L|168:360,1,80,8|0,0:0|0:0,0:0:0:0:
92,360,103771,2,0,P|80:292|72:256,1,80,0|0,0:0|0:0,0:0:0:0:
36,204,104104,1,8,0:0:0:0:
84,132,104271,6,0,P|124:136|192:40,1,160,0|0,0:0|0:0,0:0:0:0:
264,104,104771,2,0,L|380:96,1,80,8|0,0:0|0:0,0:0:0:0:
388,176,105104,2,0,L|308:181,1,80,0|0,0:0|0:0,0:0:0:0:
240,240,105438,2,0,P|232:284|256:340,1,80,8|0,0:0|0:0,0:0:0:0:
320,280,105771,5,4,0:0:0:0:
380,344,105938,1,0,0:0:0:0:
464,320,106104,1,8,0:0:0:0:
472,232,106271,2,0,P|488:176|432:84,1,160,0|0,0:0|0:0,0:0:0:0:
356,92,106771,1,8,0:0:0:0:
300,160,106938,6,0,P|256:176|168:100,1,160,4|0,0:0|0:0,0:0:0:0:
108,180,107438,2,0,P|132:248|144:356,1,160,8|0,0:0|0:0,0:0:0:0:
224,300,107938,2,0,P|288:284|336:292,1,80,0|8,0:0|0:0,0:0:0:0:
384,312,108271,1,0,0:0:0:0:
444,248,108438,6,0,L|452:148,1,80,4|0,0:0|0:0,0:0:0:0:
360,116,108771,2,0,L|366:195,1,80,8|0,0:0|0:0,0:0:0:0:
288,232,109104,1,0,0:0:0:0:
232,164,109271,2,0,L|132:160,1,80,0|8,0:0|0:0,0:0:0:0:
72,196,109604,6,0,P|44:240|92:348,1,160,4|0,0:0|0:0,0:0:0:0:
160,312,110104,2,0,L|256:304,1,80,8|0,0:0|0:0,0:0:0:0:
320,340,110438,2,0,L|312:396,2,40,8|0|0,0:0|0:0|0:0,0:0:0:0:
388,288,110771,2,0,L|380:232,2,40,8|0|0,0:0|0:0|0:0,0:0:0:0:
300,260,111104,6,0,P|200:248|172:108,1,240.000009155274,4|8,0:0|0:0,0:0:0:0:
280,48,112104,2,0,L|344:36,1,60.0000022888184,0|0,0:0|0:0,0:0:0:0:
416,72,112438,6,0,P|440:108|416:204,1,120.000004577637,0|0,0:0|0:0,0:0:0:0:
288,268,113104,1,8,0:0:0:0:
160,160,113438,1,0,0:0:0:0:
84,308,113771,6,0,P|112:340|208:336,1,120.000004577637,0|0,0:0|0:0,0:0:0:0:
252,296,114271,2,0,P|295:256|353:255,1,120.000004577637,0|0,0:0|0:0,0:0:0:0:
420,304,114771,2,0,P|436:256|432:220,1,60.0000022888184,0|0,0:0|0:0,0:0:0:0:
388,180,115104,2,0,L|384:100,1,60.0000022888184,0|0,0:0|0:0,0:0:0:0:
140,60,115771,5,8,0:0:0:0:
140,60,116104,2,0,L|148:144,1,60.0000022888184,0|0,0:0|0:0,0:0:0:0:
76,176,116438,5,4,0:0:0:0:
44,256,116604,1,0,0:0:0:0:
100,324,116771,2,0,P|144:344|232:268,1,160,8|0,0:0|0:0,0:0:0:0:
300,336,117271,2,0,L|396:324,2,80,0|8|0,0:0|0:0|0:0,0:0:0:0:
252,260,117771,5,0,0:0:0:0:
304,188,117938,2,0,P|320:136|320:84,2,80,0|8|0,0:0|0:0|0:0,0:0:0:0:
216,176,118438,1,0,0:0:0:0:
168,248,118604,1,0,0:0:0:0:
196,332,118771,2,0,P|160:340|108:304,1,80,8|0,0:0|0:0,0:0:0:0:
80,244,119104,5,8,0:0:0:0:
256,48,119604,1,8,0:0:0:0:
432,244,120104,2,0,L|428:296,3,40,8|0|0|0,0:0|0:0|0:0|0:0,0:0:0:0:
440,328,120438,2,0,L|352:316,1,80,8|8,0:0|0:0,0:0:0:0:
152,248,121104,6,0,P|126:218|88:208,1,80,0|0,0:0|0:0,0:0:0:0:
72,192,121771,6,0,P|116:192|152:68,1,160,4|8,0:1|0:0,0:0:0:0:
340,56,122438,1,0,0:0:0:0:
368,140,122604,1,0,0:0:0:0:
428,76,122771,1,8,0:0:0:0:
456,160,122938,6,0,P|432:208|328:220,1,160,4|0,0:0|0:0,0:0:0:0:
248,240,123438,2,0,L|256:340,1,80,8|0,0:0|0:0,0:0:0:0:
172,348,123771,2,0,L|165:268,2,80,0|0|8,0:0|0:0|0:0,0:0:0:0:
88,316,124271,1,0,0:0:0:0:
24,256,124438,6,0,L|40:84,2,160,4|8|0,0:0|0:0|0:0,0:0:0:0:
88,316,125271,2,0,P|128:304|184:304,1,80,0|8,0:0|0:0,0:0:0:0:
248,336,125604,6,0,P|296:352|376:256,1,160,4|0,0:0|0:0,0:0:0:0:
392,204,126104,2,0,L|380:40,1,160,8|0,0:0|0:0,0:0:0:0:
296,16,126604,1,0,0:0:0:0:
228,72,126771,2,0,L|144:56,1,80,8|0,0:0|0:0,0:0:0:0:
64,84,127104,6,0,P|28:120|64:240,2,160,4|8|0,0:0|0:0|0:0,0:0:0:0:
108,160,127938,2,0,L|188:156,1,80,0|8,0:0|0:0,0:0:0:0:
276,152,128271,6,0,P|316:188|300:300,1,160,4|0,0:0|0:0,0:0:0:0:
144,332,128771,2,0,P|155:279|260:237,1,160,8|0,0:0|0:0,0:0:0:0:
341,362,129271,2,0,P|301:367|264:356,1,80,0|8,0:0|0:0,0:0:0:0:
424,312,129604,1,0,0:0:0:0:
424,312,129771,6,0,L|432:216,1,80,4|0,0:0|0:0,0:0:0:0:
388,156,130104,1,8,0:0:0:0:
388,156,130271,1,0,0:0:0:0:
312,196,130438,2,0,P|276:168|244:112,1,80,0|0,0:0|0:0,0:0:0:0:
176,180,130771,1,8,0:0:0:0:
112,120,130938,6,0,P|60:152|80:256,1,160,4|0,0:0|0:0,0:0:0:0:
100,324,131438,1,8,0:0:0:0:
100,324,131521,1,2,0:0:0:0:
100,324,131604,1,2,0:0:0:0:
100,324,131688,1,2,0:0:0:0:
100,324,131771,2,0,L|200:312,1,80,2|0,0:0|0:0,0:0:0:0:
260,352,132104,2,0,P|296:336|348:328,1,80,8|0,0:0|0:0,0:0:0:0:
424,344,132438,6,0,P|432:288|456:176,1,160,4|8,0:1|0:0,0:0:0:0:
336,56,133104,1,0,0:0:0:0:
248,48,133271,1,0,0:0:0:0:
160,36,133438,1,8,0:0:0:0:
72,24,133604,6,0,P|36:76|72:184,1,160,4|0,0:0|0:0,0:0:0:0:
136,196,134104,2,0,L|300:176,1,160,8|0,0:0|0:0,0:0:0:0:
376,208,134604,2,0,P|384:256|376:308,1,80,0|8,0:0|0:0,0:0:0:0:
320,352,134938,1,0,0:0:0:0:
236,324,135104,6,0,P|204:308|108:372,2,160,4|8|0,0:0|0:0|0:0,0:0:0:0:
320,352,135938,1,0,0:0:0:0:
396,304,136104,2,0,L|500:296,1,80,8|0,0:0|0:0,0:0:0:0:
488,212,136438,6,0,L|328:224,1,160,4|8,0:0|0:0,0:0:0:0:
24,172,137104,2,0,L|183:159,1,160,4|8,0:0|0:0,0:0:0:0:
212,244,137604,1,0,0:0:0:0:
272,180,137771,6,0,P|300:248|252:320,1,160,4|8,0:0|0:0,0:0:0:0:
336,360,138271,1,0,0:0:0:0:
412,312,138438,2,0,L|504:308,1,80,0|0,0:0|0:0,0:0:0:0:
500,220,138771,2,0,L|408:224,1,80,8|0,0:0|0:0,0:0:0:0:
360,160,139104,5,4,0:0:0:0:
376,72,139271,1,0,0:0:0:0:
360,160,139438,1,8,0:0:0:0:
292,104,139604,2,0,P|248:80|144:140,1,160,4|0,0:0|0:0,0:0:0:0:
235,247,140104,2,0,L|228:168,1,80,8|0,0:0|0:0,0:0:0:0:
148,208,140438,6,0,L|155:287,2,80,4|0|8,0:0|0:0|0:0,0:0:0:0:
72,160,140938,2,0,P|48:120|88:8,1,160,4|0,0:0|0:0,0:0:0:0:
156,52,141438,1,8,0:0:0:0:
240,24,141604,6,0,L|408:16,1,160,4|0,0:0|0:0,0:0:0:0:
472,68,142104,1,8,0:0:0:0:
404,124,142271,2,0,L|396:220,1,80,0|0,0:0|0:0,0:0:0:0:
464,260,142604,2,0,L|472:356,2,80,0|8|0,0:0|0:0|0:0,0:0:0:0:
388,304,143104,6,0,L|308:296,1,80,4|0,0:0|0:0,0:0:0:0:
220,312,143438,1,8,0:0:0:0:
132,320,143604,2,0,P|88:328|40:224,1,160,4|0,0:0|0:0,0:0:0:0:
56,160,144104,1,8,0:0:0:0:
136,120,144271,6,0,L|312:108,1,160,4|0,0:0|0:0,0:0:0:0:
336,188,144771,1,8,0:0:0:0:
372,268,144938,2,0,L|196:280,1,160,4|0,0:0|0:0,0:0:0:0:
140,328,145438,2,0,L|92:320,3,40,8|0|0|0,0:0|0:0|0:0|0:0,0:0:0:0:
68,312,145771,6,0,P|44:260|108:160,1,180.000006866455,4|0,0:0|0:0,0:0:0:0:
101,162,146438,1,8,0:0:0:0:
444,72,147104,2,0,P|468:124|404:224,1,180.000006866455,4|0,0:0|0:0,0:0:0:0:
410,221,147771,1,8,0:0:0:0:
280,196,148104,2,0,L|232:188,4,30.0000011444092,8|8|8|8|8,0:0|0:0|0:0|0:0|0:0,0:0:0:0:
68,304,149438,5,8,0:0:0:0:
68,304,149771,1,4,0:0:0:0:
176,104,159271,6,0,L|112:108,2,60.0000022888184,0|8|0,0:0|0:0|0:0,0:0:0:0:
228,172,159771,2,0,L|292:168,2,60.0000022888184,0|8|8,0:0|0:0|0:0,0:0:0:0:
168,232,160271,1,8,0:0:0:0:
228,292,160438,5,4,0:0:0:0:
228,292,160771,2,0,L|224:364,1,60.0000022888184,0|0,0:0|0:0,0:0:0:0:
304,328,161104,1,8,0:0:0:0:
380,364,161271,2,0,L|384:292,1,60.0000022888184,0|0,0:0|0:0,0:0:0:0:
464,280,161604,6,0,P|488:240|464:156,1,120.000004577637,4|0,0:0|0:0,0:0:0:0:
404,124,162104,1,0,0:0:0:0:
324,152,162271,2,0,L|244:148,1,60.0000022888184,0|8,0:0|0:0,0:0:0:0:
104,204,162771,2,0,L|184:208,1,60.0000022888184,0|0,0:0|0:0,0:0:0:0:
188,288,163104,6,0,P|128:312|68:284,2,120.000004577637,4|0|8,0:0|0:0|0:0,0:0:0:0:
252,232,163938,1,0,0:0:0:0:
296,304,164104,2,0,L|380:300,1,60.0000022888184,0|4,0:0|0:0,0:0:0:0:
384,136,164604,5,8,0:0:0:0:
312,184,164771,2,0,L|228:188,1,60.0000022888184,0|0,0:0|0:0,0:0:0:0:
180,232,165104,2,0,P|168:188|176:148,1,60.0000022888184,8|0,0:0|0:0,0:0:0:0:
208,44,165438,2,0,P|220:88|212:128,1,60.0000022888184,0|0,0:0|0:0,0:0:0:0:
136,88,165771,5,4,0:0:0:0:
136,88,166104,1,0,0:0:0:0:
76,148,166271,2,0,L|8:144,2,60.0000022888184,0|8|0,0:0|0:0|0:0,0:0:0:0:
100,228,166771,1,0,0:0:0:0:
180,252,166938,6,0,P|216:244|292:292,1,120.000004577637,4|0,0:0|0:0,0:0:0:0:
320,360,167438,1,0,0:0:0:0:
388,308,167604,2,0,L|464:304,1,60.0000022888184,0|8,0:0|0:0,0:0:0:0:
476,224,167938,2,0,L|400:228,2,60.0000022888184,0|0|0,0:0|0:0|0:0,0:0:0:0:
440,148,168438,5,4,0:0:0:0:
292,68,168771,1,0,0:0:0:0:
148,156,169104,2,0,L|136:76,1,60.0000022888184,8|0,0:0|0:0,0:0:0:0:
64,140,169438,1,0,0:0:0:0:
92,220,169604,6,0,P|136:240|216:204,1,120.000004577637,12|8,0:0|0:0,0:0:0:0:
272,264,170104,2,0,L|360:252,1,60.0000022888184,0|0,0:0|0:0,0:0:0:0:
352,340,170438,2,0,L|400:348,3,30.0000011444092,0|0|0|0,0:0|0:0|0:0|0:0,0:0:0:0:
420,324,170771,2,0,L|449:319,3,30.0000011444092,0|0|0|0,0:0|0:0|0:0|0:0,0:0:0:0:
492,320,171104,6,0,P|496:248|504:148,1,160,4|8,0:0|0:0,0:0:0:0:
456,84,171604,1,0,0:0:0:0:
376,120,171771,2,0,L|292:112,1,80,0|0,0:0|0:0,0:0:0:0:
260,192,172104,2,0,L|180:199,1,80,8|0,0:0|0:0,0:0:0:0:
124,132,172438,6,0,P|96:168|144:280,2,160,4|8|0,0:0|0:0|0:0,0:0:0:0:
212,116,173271,1,0,0:0:0:0:
260,192,173438,2,0,L|360:188,1,80,8|0,0:0|0:0,0:0:0:0:
380,268,173771,6,0,P|424:284|508:216,2,160,4|8|0,0:0|0:0|0:0,0:0:0:0:
300,300,174604,1,0,0:0:0:0:
232,356,174771,2,0,L|136:348,1,80,8|0,0:0|0:0,0:0:0:0:
64,352,175104,6,0,P|56:308|24:184,1,160,4|8,0:0|0:0,0:0:0:0:
60,116,175604,1,0,0:0:0:0:
132,164,175771,2,0,P|180:168|232:148,1,80,0|0,0:0|0:0,0:0:0:0:
288,120,176104,2,0,P|326:111|366:115,1,80,8|0,0:0|0:0,0:0:0:0:
416,188,176438,6,0,P|452:148|424:52,2,160,4|8|0,0:0|0:0|0:0,0:0:0:0:
328,200,177271,1,0,0:0:0:0:
380,272,177438,2,0,L|376:364,1,80,8|0,0:0|0:0,0:0:0:0:
288,344,177771,6,0,P|224:328|108:304,1,160,4|8,0:0|0:0,0:0:0:0:
224,40,178438,2,0,P|288:56|404:80,1,160,0|8,0:0|0:0,0:0:0:0:
428,148,178938,1,0,0:0:0:0:
364,208,179104,6,0,L|356:304,1,80,4|0,0:0|0:0,0:0:0:0:
288,344,179438,2,0,L|192:336,1,80,8|0,0:0|0:0,0:0:0:0:
160,264,179771,2,0,L|256:256,1,80,0|0,0:0|0:0,0:0:0:0:
284,180,180104,2,0,L|188:172,1,80,8|0,0:0|0:0,0:0:0:0:
116,184,180438,6,0,P|72:188|8:88,2,160,4|8|4,0:0|0:0|0:0,0:0:0:0:
168,112,181271,1,0,0:0:0:0:
236,168,181438,2,0,L|328:160,1,80,8|0,0:0|0:0,0:0:0:0:
404,156,181771,1,4,0:0:0:0:
256,192,181938,12,0,184104,0:0:0:0:
256,120,184438,6,0,L|256:208,1,80,8|8,0:0|0:0,0:0:0:0:
160,152,185271,5,8,0:0:0:0:
352,152,185604,1,8,0:0:0:0:
256,320,185938,2,0,L|256:240,1,80,8|8,0:0|0:0,0:0:0:0:
180,176,197771,6,0,P|256:230|334:178,1,200,0|0,0:0|0:0,0:0:0:0:
256,104,198938,2,0,L|256:308,1,200,0|0,0:0|0:0,0:0:0:0:
348,280,200104,1,0,0:0:0:0:
436,320,200438,5,0,0:0:0:0:
436,320,201104,1,0,0:0:0:0:
392,132,201771,5,4,0:0:0:0:
392,132,202438,1,4,0:0:0:0:
120,224,203104,6,0,P|88:228|24:160,1,120.000004577637,4|0,0:0|0:0,0:0:0:0:
104,144,203604,2,0,L|96:64,1,60.0000022888184,0|8,0:0|0:0,0:0:0:0:
256,24,204104,1,0,0:0:0:0:
300,96,204271,1,0,0:0:0:0:
372,56,204438,6,0,L|448:48,2,60.0000022888184,4|0|8,0:0|0:0|0:0,0:0:0:0:
300,96,204938,2,0,P|284:128|316:208,1,120.000004577637,4|0,0:0|0:0,0:0:0:0:
388,232,205438,2,0,L|464:224,1,60.0000022888184,8|0,0:0|0:0,0:0:0:0:
504,292,205771,5,4,0:0:0:0:
448,360,205938,1,0,0:0:0:0:
368,324,206104,1,8,0:0:0:0:
284,356,206271,2,0,P|236:364|120:320,1,160,4|0,0:0|0:0,0:0:0:0:
92,252,206771,1,8,0:0:0:0:
160,196,206938,6,0,P|208:188|324:232,1,160,4|0,0:0|0:0,0:0:0:0:
372,288,207438,1,8,0:0:0:0:
428,220,207604,2,0,L|436:136,1,80,0|0,0:0|0:0,0:0:0:0:
352,64,207938,2,0,L|359:143,2,80,0|8|0,0:0|0:0|0:0,0:0:0:0:
280,116,208438,5,4,0:0:0:0:
200,76,208604,1,0,0:0:0:0:
116,100,208771,1,8,0:0:0:0:
80,180,208938,2,0,P|60:236|136:316,1,160,4|0,0:0|0:0,0:0:0:0:
196,276,209438,1,8,0:0:0:0:
268,324,209604,6,0,L|444:312,1,160,4|0,0:0|0:0,0:0:0:0:
484,244,210104,1,8,0:0:0:0:
428,176,210271,2,0,L|432:92,1,80,0|0,0:0|0:0,0:0:0:0:
348,124,210604,2,0,L|352:40,1,80,0|8,0:0|0:0,0:0:0:0:
268,72,210938,1,0,0:0:0:0:
192,116,211104,6,0,P|152:136|48:92,2,160,4|8|0,0:0|0:0|0:0,0:0:0:0:
256,176,211938,2,0,L|244:264,1,80,0|8,0:0|0:0,0:0:0:0:
264,340,212271,1,0,0:0:0:0:
336,292,212438,6,0,L|504:284,2,160,0|8|8,0:0|0:0|0:0,0:0:0:0:
164,332,213438,2,0,L|72:324,2,80,8|0|0,0:0|0:0|0:0,0:0:0:0:
264,88,214104,6,0,P|196:68|140:180,1,191.999994140625,12|0,0:0|0:0,0:0:0:0:
184,224,214604,6,0,L|264:216,1,80,0|8,0:0|0:0,0:0:0:0:
340,260,214938,2,0,P|376:280|480:216,1,160,4|0,0:0|0:0,0:0:0:0:
380,32,215438,2,0,L|395:191,1,160,8|0,0:0|0:0,0:0:0:0:
339,259,215938,1,0,0:0:0:0:
388,332,216104,2,0,L|472:328,1,80,8|0,0:0|0:0,0:0:0:0:
304,340,216438,6,0,P|244:360|148:296,2,160,4|8|0,0:0|0:0|0:0,0:0:0:0:
339,259,217271,2,0,L|328:168,1,80,0|8,0:0|0:0,0:0:0:0:
400,128,217604,2,0,P|364:100|256:132,1,160,4|0,0:0|0:0,0:0:0:0:
248,212,218104,2,0,L|80:200,1,160,8|0,0:0|0:0,0:0:0:0:
28,264,218604,2,0,L|40:344,1,80,0|8,0:0|0:0,0:0:0:0:
120,308,218938,1,0,0:0:0:0:
196,348,219104,6,0,P|236:368|332:288,1,160,4|8,0:0|0:0,0:0:0:0:
488,244,219771,2,0,L|480:156,1,80,0|0,0:0|0:0,0:0:0:0:
468,76,220104,1,8,0:0:0:0:
384,108,220271,6,0,P|332:120|244:48,1,160,4|0,0:0|0:0,0:0:0:0:
164,88,220771,2,0,L|156:176,1,80,8|0,0:0|0:0,0:0:0:0:
80,212,221104,2,0,L|72:132,2,80,0|0|8,0:0|0:0|0:0,0:0:0:0:
88,300,221604,1,0,0:0:0:0:
88,300,221771,6,0,P|144:288|184:300,1,80,4|0,0:0|0:0,0:0:0:0:
244,332,222104,1,8,0:0:0:0:
244,332,222271,1,0,0:0:0:0:
244,332,222438,2,0,L|344:324,1,80,0|0,0:0|0:0,0:0:0:0:
408,348,222771,1,8,0:0:0:0:
476,288,222938,6,0,P|480:220|500:100,1,160,4|0,0:0|0:0,0:0:0:0:
432,68,223438,1,8,0:0:0:0:
432,68,223521,1,2,0:0:0:0:
432,68,223604,1,2,0:0:0:0:
432,68,223688,1,2,0:0:0:0:
432,68,223771,2,0,L|344:60,1,80,2|0,0:0|0:0,0:0:0:0:
284,120,224104,2,0,L|196:112,1,80,8|0,0:0|0:0,0:0:0:0:
144,48,224438,6,0,P|116:92|164:192,2,160,4|8|0,0:1|0:0|0:0,0:0:0:0:
204,112,225271,2,0,L|284:120,1,80,0|8,0:0|0:0,0:0:0:0:
324,200,225604,6,0,L|488:184,1,160,4|0,0:0|0:0,0:0:0:0:
460,268,226104,2,0,L|296:284,1,160,8|0,0:0|0:0,0:0:0:0:
236,344,226604,1,0,0:0:0:0:
156,308,226771,1,8,0:0:0:0:
76,348,226938,2,0,P|72:296|64:256,1,80,4|0,0:0|0:0,0:0:0:0:
32,188,227271,5,0,0:0:0:0:
76,112,227438,2,0,L|184:100,1,80,8|0,0:0|0:0,0:0:0:0:
196,184,227771,2,0,L|275:192,1,80,0|0,0:0|0:0,0:0:0:0:
312,88,228104,2,0,L|420:76,1,80,8|0,0:0|0:0,0:0:0:0:
468,160,228438,6,0,P|500:208|460:304,2,160,4|8|4,0:0|0:0|0:0,0:0:0:0:
380,148,229271,1,0,0:0:0:0:
416,228,229438,1,8,0:0:0:0:
276,336,229771,6,0,L|104:328,1,160,4|8,0:0|0:0,0:0:0:0:
56,264,230271,1,0,0:0:0:0:
104,192,230438,2,0,P|120:128|112:96,1,80,0|0,0:0|0:0,0:0:0:0:
200,64,230771,2,0,P|199:103|214:140,1,80,8|0,0:0|0:0,0:0:0:0:
292,200,231104,6,0,P|336:212|412:124,1,160,4|8,0:0|0:0,0:0:0:0:
328,124,231604,1,4,0:0:0:0:
452,248,231938,2,0,L|440:340,2,80,0|8|0,0:0|0:0|0:0,0:0:0:0:
368,276,232438,5,4,0:0:0:0:
304,336,232604,1,0,0:0:0:0:
224,304,232771,1,8,0:0:0:0:
144,272,232938,2,0,P|104:240|124:128,1,160,4|0,0:0|0:0,0:0:0:0:
184,88,233438,1,8,0:0:0:0:
264,128,233604,6,0,L|432:116,1,160,4|0,0:0|0:0,0:0:0:0:
488,176,234104,1,8,0:0:0:0:
432,244,234271,2,0,L|420:344,1,80,0|0,0:0|0:0,0:0:0:0:
340,356,234604,2,0,P|292:348|256:344,1,80,0|8,0:0|0:0,0:0:0:0:
172,348,234938,1,0,0:0:0:0:
92,368,235104,5,4,0:0:0:0:
256,76,235771,1,8,0:0:0:0:
420,368,236438,1,4,0:0:0:0:
256,76,237105,1,8,0:0:0:0:
256,208,237438,2,0,L|256:252,4,30.0000011444092,8|8|8|8|8,0:0|0:0|0:0|0:0|0:0,0:0:0:0:
432,84,238771,5,8,0:0:0:0:
432,84,239104,2,0,P|396:108|284:40,1,160,4|8,0:0|0:0,0:0:0:0:
120,64,239771,1,0,0:0:0:0:
120,64,239938,1,0,0:0:0:0:
92,236,240271,6,0,L|268:216,1,160,8|0,0:0|0:0,0:0:0:0:
308,284,240771,2,0,L|392:260,1,80,0|8,0:0|0:0,0:0:0:0:
472,268,241104,2,0,L|484:196,5,53.3333333333333,8|0|0|0|8|0,0:0|0:0|0:0|0:0|0:0|0:0,0:0:0:0:
492,156,241771,6,0,P|472:96|372:104,1,160,4|8,0:0|0:0,0:0:0:0:
308,132,242271,1,8,0:0:0:0:
308,132,242438,2,0,L|208:124,1,80,0|8,0:0|0:0,0:0:0:0:
184,200,242771,2,0,L|284:208,1,80,0|0,0:0|0:0,0:0:0:0:
296,288,243104,6,0,L|136:275,1,160,4|0,0:0|0:0,0:0:0:0:
52,304,243604,1,0,0:0:0:0:
24,220,243771,2,0,L|16:160,2,53.3333333333333,8|0|0,0:0|0:0|0:0,0:0:0:0:
104,184,244104,2,0,P|112:128|136:60,1,120,8|0,0:0|0:0,0:0:0:0:
160,100,244438,6,0,P|212:116|296:28,1,160,4|8,0:0|0:0,0:0:0:0:
291,57,244938,1,4,0:0:0:0:
256,192,245104,12,8,249271,0:0:0:0:
256,192,249604,5,4,0:3:0:0:
