osu file format v14

[General]
AudioFilename: EXTRA MAGIC HOURAKINO with bless4 (TV Size).mp3
AudioLeadIn: 0
PreviewTime: 53329
Countdown: 0
SampleSet: Normal
StackLeniency: 0.7
Mode: 1
LetterboxInBreaks: 0
WidescreenStoryboard: 0

[Editor]
DistanceSpacing: 1
BeatDivisor: 4
GridSize: 16
TimelineZoom: 1.400001

[Metadata]
Title:EXTRA MAGIC HOUR [TV ver.]
TitleUnicode:エクストラ・マジック・アワー [TV ver.]
Artist:AKINO with bless4
ArtistUnicode:AKINO with bless4
Creator:Nardoxyribonucleic
Version:Muzukashii
Source:Amagi Brilliant Park
Tags:Taiko 甘城ブリリアントパーク Opening aabc271 qoot8123
BeatmapID:523797
BeatmapSetID:224390

[Difficulty]
HPDrainRate:5
CircleSize:5
OverallDifficulty:4
ApproachRate:5
SliderMultiplier:1.4
SliderTickRate:1

[Events]
//Background and Video events
0,0,"bg.jpg",0,110
//Break Periods
//Storyboard Layer 0 (Background)
//Storyboard Layer 1 (Fail)
//Storyboard Layer 2 (Pass)
//Storyboard Layer 3 (Foreground)
//Storyboard Sound Samples

[TimingPoints]
663,333.333333333333,4,1,0,80,1,0
11329,-100,4,1,0,90,0,0
21996,-100,4,1,0,80,0,0
43329,-100,4,1,0,70,0,0
48662,-100,4,1,0,80,0,0
53996,-100,4,1,0,100,0,1
77996,-100,4,1,0,80,0,0
85329,-100,4,1,0,50,0,0
85996,-100,4,1,0,40,0,0
86662,-100,4,1,0,30,0,0
87329,-100,4,1,0,20,0,0
87996,-100,4,1,0,10,0,0
88662,-100,4,1,0,5,0,0

[HitObjects]
256,192,7329,5,0,0:0:0:0:
256,192,7496,1,8,0:0:0:0:
256,192,7662,1,8,0:0:0:0:
256,192,7829,1,8,0:0:0:0:
256,192,7996,1,0,0:0:0:0:
256,192,8329,1,8,0:0:0:0:
256,192,8496,1,8,0:0:0:0:
256,192,8829,1,0,0:0:0:0:
256,192,8996,12,0,10996,0:0:0:0:
256,192,11329,5,4,0:0:0:0:
256,192,11662,1,8,0:0:0:0:
256,192,11996,1,8,0:0:0:0:
256,192,12162,1,0,0:0:0:0:
256,192,12496,1,8,0:0:0:0:
256,192,12662,1,8,0:0:0:0:
256,192,12829,1,0,0:0:0:0:
256,192,12996,1,8,0:0:0:0:
256,192,13329,1,8,0:0:0:0:
256,192,13496,1,8,0:0:0:0:
256,192,13662,1,0,0:0:0:0:
256,192,13996,1,0,0:0:0:0:
256,192,14329,1,8,0:0:0:0:
256,192,14662,1,8,0:0:0:0:
256,192,14829,1,0,0:0:0:0:
256,192,15162,1,0,0:0:0:0:
256,192,15329,1,0,0:0:0:0:
256,192,15496,1,8,0:0:0:0:
256,192,15662,1,8,0:0:0:0:
256,192,15829,1,0,0:0:0:0:
256,192,16162,1,8,0:0:0:0:
256,192,16329,1,0,0:0:0:0:
256,192,16496,1,8,0:0:0:0:
256,192,16829,1,8,0:0:0:0:
256,192,16996,1,8,0:0:0:0:
256,192,17162,1,0,0:0:0:0:
256,192,17329,1,8,0:0:0:0:
256,192,17496,1,0,0:0:0:0:
256,192,17829,1,8,0:0:0:0:
256,192,17996,1,8,0:0:0:0:
256,192,18162,1,0,0:0:0:0:
256,192,18329,1,8,0:0:0:0:
256,192,18496,1,0,0:0:0:0:
256,192,18996,1,8,0:0:0:0:
256,192,19329,1,12,0:0:0:0:
256,192,19829,1,12,0:0:0:0:
256,192,20329,1,12,0:0:0:0:
256,192,20662,1,4,0:0:0:0:
256,192,20829,1,4,0:0:0:0:
256,192,21162,1,8,0:0:0:0:
256,192,21329,1,8,0:0:0:0:
256,192,21496,1,0,0:0:0:0:
256,192,21579,1,0,0:0:0:0:
256,192,21662,1,0,0:0:0:0:
256,192,21996,1,4,0:0:0:0:
256,192,22329,1,8,0:0:0:0:
256,192,22496,1,0,0:0:0:0:
256,192,22829,1,8,0:0:0:0:
256,192,22996,1,8,0:0:0:0:
256,192,23662,1,0,0:0:0:0:
256,192,23829,1,0,0:0:0:0:
256,192,23996,1,8,0:0:0:0:
256,192,24329,1,8,0:0:0:0:
256,192,24496,1,0,0:0:0:0:
256,192,24662,1,8,0:0:0:0:
256,192,24996,1,8,0:0:0:0:
256,192,25162,1,0,0:0:0:0:
256,192,25329,1,0,0:0:0:0:
256,192,25996,1,0,0:0:0:0:
256,192,26329,1,0,0:0:0:0:
256,192,26662,1,8,0:0:0:0:
256,192,27329,1,0,0:0:0:0:
256,192,27496,1,8,0:0:0:0:
256,192,27662,1,8,0:0:0:0:
256,192,27829,1,0,0:0:0:0:
256,192,28162,1,8,0:0:0:0:
256,192,28329,1,8,0:0:0:0:
256,192,28996,1,0,0:0:0:0:
256,192,29329,1,8,0:0:0:0:
256,192,29662,1,8,0:0:0:0:
256,192,29829,1,0,0:0:0:0:
256,192,29996,1,8,0:0:0:0:
256,192,30329,1,0,0:0:0:0:
256,192,30496,1,8,0:0:0:0:
256,192,30662,1,8,0:0:0:0:
256,192,31329,1,8,0:0:0:0:
256,192,31496,1,8,0:0:0:0:
256,192,31579,1,8,0:0:0:0:
256,192,31662,1,8,0:0:0:0:
256,192,31829,1,0,0:0:0:0:
256,192,32162,1,12,0:0:0:0:
256,192,32662,1,4,0:0:0:0:
256,192,32996,1,8,0:0:0:0:
256,192,33162,1,8,0:0:0:0:
256,192,33496,1,0,0:0:0:0:
256,192,33662,1,8,0:0:0:0:
256,192,33996,1,0,0:0:0:0:
256,192,34162,1,0,0:0:0:0:
256,192,34329,1,8,0:0:0:0:
256,192,34496,1,0,0:0:0:0:
256,192,34829,1,0,0:0:0:0:
256,192,34996,1,8,0:0:0:0:
256,192,35329,1,0,0:0:0:0:
256,192,35496,1,0,0:0:0:0:
256,192,35662,1,8,0:0:0:0:
256,192,35829,1,8,0:0:0:0:
256,192,35996,1,0,0:0:0:0:
256,192,36329,1,8,0:0:0:0:
256,192,36496,1,0,0:0:0:0:
256,192,36829,1,8,0:0:0:0:
256,192,36996,1,8,0:0:0:0:
256,192,37662,1,8,0:0:0:0:
256,192,37996,1,12,0:0:0:0:
256,192,38162,1,0,0:0:0:0:
256,192,38329,1,8,0:0:0:0:
256,192,38496,1,0,0:0:0:0:
256,192,38829,1,0,0:0:0:0:
256,192,38996,1,8,0:0:0:0:
256,192,39162,1,4,0:0:0:0:
256,192,39496,1,0,0:0:0:0:
256,192,39662,1,8,0:0:0:0:
256,192,40329,1,8,0:0:0:0:
256,192,40662,1,12,0:0:0:0:
256,192,40996,1,8,0:0:0:0:
256,192,41329,1,0,0:0:0:0:
256,192,41496,1,0,0:0:0:0:
256,192,41662,1,8,0:0:0:0:
256,192,41829,1,8,0:0:0:0:
256,192,42162,1,0,0:0:0:0:
256,192,42329,1,8,0:0:0:0:
256,192,42662,1,8,0:0:0:0:
256,192,42746,1,8,0:0:0:0:
256,192,42829,1,8,0:0:0:0:
256,192,42996,1,8,0:0:0:0:
256,192,43329,1,4,0:0:0:0:
256,192,43996,1,8,0:0:0:0:
256,192,44329,1,0,0:0:0:0:
256,192,44496,1,0,0:0:0:0:
256,192,44662,1,8,0:0:0:0:
256,192,44996,1,0,0:0:0:0:
256,192,45329,1,8,0:0:0:0:
256,192,45662,1,0,0:0:0:0:
256,192,45996,1,0,0:0:0:0:
256,192,46329,1,8,0:0:0:0:
256,192,46496,1,0,0:0:0:0:
256,192,46662,1,8,0:0:0:0:
256,192,46829,1,8,0:0:0:0:
256,192,46996,1,0,0:0:0:0:
256,192,47329,1,0,0:0:0:0:
256,192,47496,1,8,0:0:0:0:
256,192,47829,1,0,0:0:0:0:
256,192,47996,1,8,0:0:0:0:
256,192,48329,1,8,0:0:0:0:
256,192,48662,1,4,0:0:0:0:
256,192,48996,1,8,0:0:0:0:
256,192,49329,1,0,0:0:0:0:
256,192,49496,1,0,0:0:0:0:
256,192,49662,1,8,0:0:0:0:
256,192,49829,1,0,0:0:0:0:
256,192,50162,1,0,0:0:0:0:
256,192,50329,1,8,0:0:0:0:
256,192,50662,1,8,0:0:0:0:
256,192,50829,1,8,0:0:0:0:
256,192,50996,1,0,0:0:0:0:
256,192,51162,1,8,0:0:0:0:
256,192,51329,1,12,0:0:0:0:
256,192,51662,1,0,0:0:0:0:
256,192,51829,1,12,0:0:0:0:
256,192,52162,1,0,0:0:0:0:
256,192,52329,1,12,0:0:0:0:
256,192,52662,1,4,0:0:0:0:
256,192,52829,1,4,0:0:0:0:
256,192,53996,1,4,0:0:0:0:
256,192,54329,1,12,0:0:0:0:
256,192,54662,1,0,0:0:0:0:
256,192,54829,1,0,0:0:0:0:
256,192,54996,1,8,0:0:0:0:
256,192,55162,1,8,0:0:0:0:
256,192,55496,1,0,0:0:0:0:
256,192,55662,1,8,0:0:0:0:
256,192,55996,1,8,0:0:0:0:
256,192,56162,1,0,0:0:0:0:
256,192,56329,1,8,0:0:0:0:
256,192,56496,1,0,0:0:0:0:
256,192,56996,1,8,0:0:0:0:
256,192,57329,1,0,0:0:0:0:
256,192,57496,1,0,0:0:0:0:
256,192,57662,1,8,0:0:0:0:
256,192,57829,1,8,0:0:0:0:
256,192,58162,1,0,0:0:0:0:
256,192,58329,1,8,0:0:0:0:
256,192,58829,1,0,0:0:0:0:
256,192,58996,1,8,0:0:0:0:
256,192,59162,1,8,0:0:0:0:
256,192,59329,1,4,0:0:0:0:
256,192,59662,1,8,0:0:0:0:
256,192,59996,1,0,0:0:0:0:
256,192,60162,1,0,0:0:0:0:
256,192,60496,1,12,0:0:0:0:
256,192,60829,1,0,0:0:0:0:
256,192,60996,1,8,0:0:0:0:
256,192,61329,1,8,0:0:0:0:
256,192,61496,1,0,0:0:0:0:
256,192,61662,1,8,0:0:0:0:
256,192,61829,1,8,0:0:0:0:
256,192,62162,1,0,0:0:0:0:
256,192,62329,1,8,0:0:0:0:
256,192,62496,1,8,0:0:0:0:
256,192,62662,1,0,0:0:0:0:
256,192,62829,1,8,0:0:0:0:
256,192,62912,1,8,0:0:0:0:
256,192,62996,1,8,0:0:0:0:
256,192,63162,1,0,0:0:0:0:
256,192,63496,1,0,0:0:0:0:
256,192,63662,1,8,0:0:0:0:
256,192,63829,1,8,0:0:0:0:
256,192,63996,1,0,0:0:0:0:
256,192,64079,1,0,0:0:0:0:
256,192,64162,1,0,0:0:0:0:
256,192,64329,1,8,0:0:0:0:
256,192,64662,1,4,0:0:0:0:
256,192,64996,1,12,0:0:0:0:
256,192,65329,1,0,0:0:0:0:
256,192,65496,1,0,0:0:0:0:
256,192,65662,1,8,0:0:0:0:
256,192,65829,1,8,0:0:0:0:
256,192,66162,1,0,0:0:0:0:
256,192,66329,1,8,0:0:0:0:
256,192,66662,1,8,0:0:0:0:
256,192,66829,1,0,0:0:0:0:
256,192,66996,1,8,0:0:0:0:
256,192,67162,1,0,0:0:0:0:
256,192,67662,1,0,0:0:0:0:
256,192,67996,1,8,0:0:0:0:
256,192,68329,1,8,0:0:0:0:
256,192,68496,1,8,0:0:0:0:
256,192,68662,1,0,0:0:0:0:
256,192,68829,1,0,0:0:0:0:
256,192,68996,1,8,0:0:0:0:
256,192,69329,1,0,0:0:0:0:
256,192,69496,1,0,0:0:0:0:
256,192,69662,1,8,0:0:0:0:
256,192,69829,1,0,0:0:0:0:
256,192,69996,1,12,0:0:0:0:
256,192,70329,1,8,0:0:0:0:
256,192,70662,1,0,0:0:0:0:
256,192,70829,1,0,0:0:0:0:
256,192,70996,1,8,0:0:0:0:
256,192,71329,1,4,0:0:0:0:
256,192,71662,1,0,0:0:0:0:
256,192,71829,1,8,0:0:0:0:
256,192,72162,1,0,0:0:0:0:
256,192,72329,1,8,0:0:0:0:
256,192,72496,1,8,0:0:0:0:
256,192,72662,1,4,0:0:0:0:
256,192,72996,1,8,0:0:0:0:
256,192,73162,1,0,0:0:0:0:
256,192,73496,1,0,0:0:0:0:
256,192,73662,1,8,0:0:0:0:
256,192,73829,1,0,0:0:0:0:
256,192,74162,1,8,0:0:0:0:
256,192,74329,1,8,0:0:0:0:
256,192,74496,1,0,0:0:0:0:
256,192,74829,1,0,0:0:0:0:
256,192,74996,1,8,0:0:0:0:
256,192,75162,1,8,0:0:0:0:
256,192,75329,1,0,0:0:0:0:
256,192,75996,1,0,0:0:0:0:
256,192,76662,1,8,0:0:0:0:
256,192,77329,1,8,0:0:0:0:
256,192,77662,1,8,0:0:0:0:
256,192,77746,1,8,0:0:0:0:
256,192,77829,1,8,0:0:0:0:
256,192,78996,1,8,0:0:0:0:
256,192,79329,1,4,0:0:0:0:
256,192,79662,1,8,0:0:0:0:
256,192,79996,1,0,0:0:0:0:
256,192,80162,1,0,0:0:0:0:
256,192,80496,1,12,0:0:0:0:
256,192,80829,1,0,0:0:0:0:
256,192,81162,1,0,0:0:0:0:
256,192,81329,1,8,0:0:0:0:
256,192,81662,1,8,0:0:0:0:
256,192,81996,1,4,0:0:0:0:
256,192,82329,1,8,0:0:0:0:
256,192,82496,1,8,0:0:0:0:
256,192,82662,1,0,0:0:0:0:
256,192,82829,1,8,0:0:0:0:
256,192,83329,1,4,0:0:0:0:
256,192,83996,1,8,0:0:0:0:
256,192,84329,1,0,0:0:0:0:
256,192,84662,1,12,0:0:0:0:
256,192,84996,1,0,0:0:0:0:
256,192,85162,1,12,0:0:0:0:
256,192,85329,12,0,88662,0:0:0:0:
