osu file format v14

[General]
AudioFilename: EXTRA MAGIC HOURAKINO with bless4 (TV Size).mp3
AudioLeadIn: 0
PreviewTime: 53329
Countdown: 0
SampleSet: Normal
StackLeniency: 0.7
Mode: 1
LetterboxInBreaks: 0
WidescreenStoryboard: 0

[Editor]
DistanceSpacing: 1
BeatDivisor: 2
GridSize: 16
TimelineZoom: 1.400001

[Metadata]
Title:EXTRA MAGIC HOUR [TV ver.]
TitleUnicode:エクストラ・マジック・アワー [TV ver.]
Artist:AKINO with bless4
ArtistUnicode:AKINO with bless4
Creator:Nardoxyribonucleic
Version:Kantan
Source:Amagi Brilliant Park
Tags:Taiko 甘城ブリリアントパーク Opening aabc271 qoot8123
BeatmapID:523796
BeatmapSetID:224390

[Difficulty]
HPDrainRate:4
CircleSize:5
OverallDifficulty:3
ApproachRate:3
SliderMultiplier:1.4
SliderTickRate:1

[Events]
//Background and Video events
0,0,"bg.jpg",0,110
//Break Periods
//Storyboard Layer 0 (Background)
//Storyboard Layer 1 (Fail)
//Storyboard Layer 2 (Pass)
//Storyboard Layer 3 (Foreground)
//Storyboard Sound Samples

[TimingPoints]
663,333.333333333333,4,1,0,80,1,0
11329,-100,4,1,0,90,0,0
21996,-100,4,1,0,80,0,0
43329,-100,4,1,0,70,0,0
48662,-100,4,1,0,80,0,0
53996,-100,4,1,0,100,0,1
61996,-100,4,1,0,75,0,1
63996,-100,4,1,0,100,0,1
75329,-100,4,1,0,75,0,1
77996,-100,4,1,0,80,0,0
85329,-100,4,1,0,50,0,0
85996,-100,4,1,0,40,0,0
86662,-100,4,1,0,30,0,0
87329,-100,4,1,0,20,0,0
87996,-100,4,1,0,10,0,0
88662,-100,4,1,0,5,0,0

[HitObjects]
256,192,7329,5,0,0:0:0:0:
256,192,7996,1,0,0:0:0:0:
256,192,8496,1,8,0:0:0:0:
256,192,8996,12,0,10996,0:0:0:0:
256,192,11329,5,4,0:0:0:0:
256,192,11662,1,8,0:0:0:0:
256,192,12329,1,8,0:0:0:0:
256,192,12662,1,0,0:0:0:0:
256,192,13329,1,8,0:0:0:0:
256,192,13996,1,0,0:0:0:0:
256,192,14329,1,8,0:0:0:0:
256,192,14996,1,8,0:0:0:0:
256,192,15329,1,0,0:0:0:0:
256,192,15996,1,0,0:0:0:0:
256,192,16662,1,0,0:0:0:0:
256,192,16996,1,8,0:0:0:0:
256,192,17662,1,8,0:0:0:0:
256,192,17996,1,0,0:0:0:0:
256,192,18662,1,0,0:0:0:0:
256,192,19329,1,12,0:0:0:0:
256,192,19829,1,12,0:0:0:0:
256,192,20329,1,12,0:0:0:0:
256,192,20662,1,4,0:0:0:0:
256,192,21996,1,4,0:0:0:0:
256,192,22662,1,8,0:0:0:0:
256,192,23329,1,0,0:0:0:0:
256,192,23996,1,8,0:0:0:0:
256,192,24329,1,8,0:0:0:0:
256,192,24662,1,0,0:0:0:0:
256,192,25996,1,8,0:0:0:0:
256,192,27329,1,0,0:0:0:0:
256,192,27996,1,8,0:0:0:0:
256,192,28662,1,0,0:0:0:0:
256,192,29329,1,8,0:0:0:0:
256,192,29662,1,8,0:0:0:0:
256,192,29996,1,0,0:0:0:0:
256,192,31329,1,12,0:0:0:0:
256,192,31829,1,0,0:0:0:0:
256,192,32662,1,4,0:0:0:0:
256,192,33329,1,8,0:0:0:0:
256,192,33996,1,0,0:0:0:0:
256,192,34662,1,8,0:0:0:0:
256,192,34996,1,8,0:0:0:0:
256,192,35329,1,0,0:0:0:0:
256,192,35996,1,8,0:0:0:0:
256,192,36662,1,0,0:0:0:0:
256,192,36996,1,8,0:0:0:0:
256,192,37996,1,4,0:0:0:0:
256,192,38329,1,8,0:0:0:0:
256,192,39162,1,4,0:0:0:0:
256,192,40329,1,8,0:0:0:0:
256,192,40662,1,4,0:0:0:0:
256,192,41329,1,0,0:0:0:0:
256,192,41829,1,8,0:0:0:0:
256,192,42329,1,8,0:0:0:0:
256,192,43329,1,4,0:0:0:0:
256,192,44662,1,8,0:0:0:0:
256,192,45329,1,8,0:0:0:0:
256,192,45996,1,0,0:0:0:0:
256,192,47329,1,0,0:0:0:0:
256,192,47996,1,8,0:0:0:0:
256,192,48662,1,4,0:0:0:0:
256,192,48996,1,8,0:0:0:0:
256,192,49662,1,8,0:0:0:0:
256,192,50329,1,8,0:0:0:0:
256,192,50662,1,0,0:0:0:0:
256,192,51329,1,12,0:0:0:0:
256,192,51829,1,12,0:0:0:0:
256,192,52329,1,12,0:0:0:0:
256,192,52662,1,4,0:0:0:0:
256,192,53996,1,4,0:0:0:0:
256,192,54662,1,0,0:0:0:0:
256,192,55329,1,8,0:0:0:0:
256,192,55996,1,8,0:0:0:0:
256,192,56329,1,8,0:0:0:0:
256,192,56662,1,0,0:0:0:0:
256,192,57329,1,0,0:0:0:0:
256,192,57996,1,8,0:0:0:0:
256,192,59329,1,0,0:0:0:0:
256,192,59996,1,0,0:0:0:0:
256,192,60662,1,8,0:0:0:0:
256,192,61329,1,8,0:0:0:0:
256,192,61662,1,8,0:0:0:0:
256,192,61996,12,0,63329,0:0:0:0:
256,192,63996,5,0,0:0:0:0:
256,192,64329,1,8,0:0:0:0:
256,192,64662,1,4,0:0:0:0:
256,192,65329,1,0,0:0:0:0:
256,192,65996,1,8,0:0:0:0:
256,192,66662,1,8,0:0:0:0:
256,192,66996,1,8,0:0:0:0:
256,192,67329,1,0,0:0:0:0:
256,192,67996,1,8,0:0:0:0:
256,192,68662,1,0,0:0:0:0:
256,192,69329,1,8,0:0:0:0:
256,192,69662,1,0,0:0:0:0:
256,192,69996,1,12,0:0:0:0:
256,192,71329,1,0,0:0:0:0:
256,192,71829,1,8,0:0:0:0:
256,192,72662,1,4,0:0:0:0:
256,192,73162,1,0,0:0:0:0:
256,192,73829,1,8,0:0:0:0:
256,192,74496,1,8,0:0:0:0:
256,192,75329,12,0,77996,0:0:0:0:
256,192,78996,5,8,0:0:0:0:
256,192,79329,1,4,0:0:0:0:
256,192,79662,1,8,0:0:0:0:
256,192,80496,1,12,0:0:0:0:
256,192,81996,1,4,0:0:0:0:
256,192,82662,1,8,0:0:0:0:
256,192,83329,1,4,0:0:0:0:
256,192,84662,1,12,0:0:0:0:
256,192,85162,12,0,88662,0:0:0:0:
