osu file format v14

[General]
AudioFilename: AKINO.mp3
AudioLeadIn: 0
PreviewTime: 55321
Countdown: 0
SampleSet: Soft
StackLeniency: 0.7
Mode: 2
LetterboxInBreaks: 1
WidescreenStoryboard: 0

[Editor]
Bookmarks: 25440,54706,56094,90552,108321,110244,120090,129936,154398,164398,173321,177936,184090,193936,211167,216090,228398,240552
DistanceSpacing: 0.5
BeatDivisor: 4
GridSize: 4
TimelineZoom: 1.2

[Metadata]
Title:Miiro
TitleUnicode:海色(みいろ)
Artist:AKINO from bless4
ArtistUnicode:AKINO from bless4
Creator:Pizza Kun
Version:Overdose
Source:
Tags:
BeatmapID:714902
BeatmapSetID:321362

[Difficulty]
HPDrainRate:7
CircleSize:4
OverallDifficulty:7
ApproachRate:9.4
SliderMultiplier:1.9
SliderTickRate:1

[Events]
//Background and Video events
0,0,"BG.jpg",0,0
//Break Periods
2,196398,205704
//Storyboard Layer 0 (Background)
//Storyboard Layer 1 (Fail)
//Storyboard Layer 2 (Pass)
//Storyboard Layer 3 (Foreground)
//Storyboard Sound Samples

[TimingPoints]
706,307.692307692308,4,2,0,30,1,0
706,-133.333333333333,4,2,0,30,0,0
4398,-100,4,2,0,30,0,0
6706,-100,4,1,1,60,0,0
9167,-100,4,1,0,60,0,0
9244,-100,4,1,1,60,0,0
11629,-100,4,1,0,60,0,0
11706,-100,4,1,1,60,0,0
15359,-100,4,1,1,5,0,0
15475,-100,4,1,1,60,0,0
15513,-100,4,1,1,5,0,0
15629,-100,4,1,1,60,0,0
16706,-133.333333333333,4,2,0,40,0,0
26552,-100,4,1,1,60,0,0
32706,-133.333333333333,4,1,1,60,0,0
33398,-133.333333333333,4,1,1,5,0,0
33475,-133.333333333333,4,1,1,60,0,0
34013,-133.333333333333,4,1,1,5,0,0
34090,-133.333333333333,4,1,1,60,0,0
34398,-100,4,1,1,60,0,0
36398,-133.333333333333,4,2,0,30,0,0
45013,-133.333333333333,4,2,1,60,0,0
45090,-133.333333333333,4,2,1,30,0,0
45475,-133.333333333333,4,2,1,60,0,0
45552,-133.333333333333,4,2,1,30,0,0
45936,-133.333333333333,4,2,1,60,0,0
46013,-133.333333333333,4,2,1,30,0,0
46244,-100,4,1,1,30,0,0
46344,-100,4,1,1,30,0,0
47475,-100,4,1,1,40,0,0
48706,-100,4,1,1,50,0,0
51167,-100,4,1,1,60,0,0
53629,-100,4,1,1,40,0,0
55782,-100,4,1,1,5,0,0
56090,-76.9230769230769,4,1,1,60,0,1
75629,-100,4,1,1,60,0,1
79475,-100,4,1,1,60,0,0
99167,-100,4,2,1,60,0,0
99936,-100,4,1,1,60,0,0
110859,-133.333333333333,4,2,1,60,0,0
118936,-133.333333333333,4,1,1,5,0,0
119167,-133.333333333333,4,1,1,10,0,0
119475,-133.333333333333,4,1,1,15,0,0
119782,-133.333333333333,4,1,1,20,0,0
121321,-133.333333333333,4,1,1,30,0,0
122706,-100,4,1,1,40,0,0
125013,-100,4,1,1,60,0,0
129936,-100,4,1,1,60,0,1
130398,-76.9230769230769,4,1,1,60,0,1
131013,-58.8235294117647,4,1,1,60,0,1
132398,-76.9230769230769,4,1,1,60,0,1
137167,-133.333333333333,4,1,1,60,0,1
137629,-76.9230769230769,4,1,1,60,0,1
149475,-76.9230769230769,4,1,1,60,0,0
154398,-100,4,1,1,60,0,0
154475,-100,4,1,1,5,0,0
156706,-100,4,1,1,60,0,0
157090,-100,4,1,1,5,0,0
159321,-100,4,1,1,60,0,0
159552,-100,4,1,1,5,0,0
160398,-100,4,1,1,60,0,0
160782,-100,4,1,1,5,0,0
161629,-100,4,1,1,60,0,0
163167,-100,4,1,1,60,0,0
164398,-117.647058823529,4,1,1,60,0,0
184090,-100,4,1,1,60,0,0
191475,-100,4,1,1,10,0,0
191782,-100,4,1,1,15,0,0
192090,-100,4,1,1,20,0,0
192398,-100,4,1,1,25,0,0
192706,-100,4,1,1,30,0,0
193013,-100,4,1,1,40,0,0
193321,-100,4,1,1,60,0,0
206244,-117.647058823529,4,1,1,5,0,0
206552,-117.647058823529,4,1,1,60,0,0
206859,-117.647058823529,4,1,1,5,0,0
207167,-117.647058823529,4,1,1,60,0,0
207475,-117.647058823529,4,1,1,5,0,0
207782,-117.647058823529,4,1,1,60,0,0
208090,-117.647058823529,4,1,1,5,0,0
208398,-117.647058823529,4,1,1,60,0,0
208706,-117.647058823529,4,1,1,5,0,0
209013,-117.647058823529,4,1,1,60,0,0
209321,-117.647058823529,4,1,1,5,0,0
209629,-117.647058823529,4,1,1,60,0,0
209936,-117.647058823529,4,1,1,5,0,0
210244,-117.647058823529,4,1,1,60,0,0
210552,-117.647058823529,4,1,1,5,0,0
210859,-117.647058823529,4,1,1,60,0,0
211167,-117.647058823529,4,1,1,5,0,0
211475,-117.647058823529,4,1,1,60,0,0
213475,-117.647058823529,4,2,0,63,0,0
216090,-76.9230769230769,4,1,1,60,0,1
228398,-66.6666666666667,4,1,1,60,0,1
230244,-76.9230769230769,4,1,1,60,0,1
239475,-100,4,2,1,60,0,0
245475,-100,4,2,1,5,0,0

[Colours]
Combo1 : 55,162,240
Combo2 : 233,244,254

[HitObjects]
184,192,552,5,0,0:0:0:0:
240,156,629,1,0,0:0:0:0:
420,136,706,2,0,P|452:204|432:268,1,142.500005435944,2|0,0:0|0:0,0:0:0:0:
236,232,1321,2,0,P|216:300|240:368,1,142.500005435944
340,360,1782,1,0,0:0:0:0:
16,124,1936,5,2,0:0:0:0:
92,84,2090,1,0,0:0:0:0:
176,88,2244,1,0,0:0:0:0:
420,136,2398,1,2,0:0:0:0:
336,148,2552,1,2,0:0:0:0:
256,112,2706,1,0,0:0:0:0:
444,40,2859,1,0,0:0:0:0:
512,92,3013,1,0,0:0:0:0:
56,192,3167,6,0,B|176:272|176:272|112:272|32:332,1,285.000010871888,2|0,0:0|0:0,0:0:0:0:
256,332,4090,1,0,0:0:0:0:
256,192,4398,6,0,L|356:192,2,95,0|2|0,0:0|0:0|0:0,0:0:0:0:
400,120,4859,2,0,L|300:120,2,95,0|2|0,0:0|0:0|0:0,0:0:0:0:
216,48,5321,2,0,L|316:48,2,95,0|2|0,0:0|0:0|0:0,0:0:0:0:
496,48,5782,2,0,L|388:48,2,95,0|2|0,0:0|0:0|0:0,0:0:0:0:
120,112,6244,2,0,P|32:148|8:244,1,190
456,272,6706,6,0,P|412:316|280:348,1,190,4|0,0:0|0:0,0:0:0:0:
396,192,7167,2,0,P|456:184|488:196,1,95,8|0,0:0|0:0,0:0:0:0:
304,232,7475,2,0,P|244:240|212:228,1,95
360,64,7782,2,0,L|448:100,1,95,8|0,0:0|0:0,0:0:0:0:
176,116,8090,2,0,L|88:80,1,95
284,48,8398,1,8,0:0:0:0:
56,188,8552,1,0,0:0:0:0:
364,192,8859,1,0,0:0:0:0:
412,192,9013,1,8,0:0:0:0:
56,188,9167,6,0,B|4:224|4:224|36:252|128:264,1,190,4|0,0:0|0:0,0:0:0:0:
252,264,9629,1,8,0:0:0:0:
160,204,9782,1,0,0:0:0:0:
212,180,9859,1,0,0:0:0:0:
444,272,9936,2,0,P|396:304|360:308,2,95,0|0|8,0:0|0:0|0:0,0:0:0:0:
368,192,10398,1,0,0:0:0:0:
484,100,10552,1,0,0:0:0:0:
392,100,10706,1,0,0:0:0:0:
272,28,10859,1,8,0:0:0:0:
364,28,11013,5,0,0:0:0:0:
44,28,11321,1,8,0:0:0:0:
368,192,11629,2,0,B|424:212|476:208|476:208|456:304|348:320,1,285,4|8,0:0|0:0,0:0:0:0:
484,348,12244,1,0,0:0:0:0:
160,184,12398,2,0,P|136:224|128:280,1,95
268,240,12706,2,0,P|292:280|300:336,1,95,8|0,0:0|0:0,0:0:0:0:
60,332,13013,6,0,P|24:280|60:160,1,190,0|8,0:0|0:0,0:0:0:0:
260,160,13475,1,0,0:0:0:0:
160,184,13629,1,0,0:0:0:0:
400,192,13782,1,0,0:0:0:0:
316,108,13936,1,8,0:0:0:0:
448,108,14090,1,0,0:0:0:0:
492,156,14167,1,0,0:0:0:0:
208,256,14244,6,0,L|164:344,1,95,8|0,0:0|0:0,0:0:0:0:
308,260,14552,2,0,L|264:348,1,95,8|0,0:0|0:0,0:0:0:0:
404,268,14859,1,8,0:0:0:0:
68,260,15013,1,8,0:0:0:0:
68,260,15321,6,0,L|48:224,1,23.75,8|0,0:0|0:0,0:0:0:0:
320,192,15475,2,0,L|336:172,1,23.75,8|0,0:0|0:0,0:0:0:0:
96,116,15629,1,0,0:0:0:0:
424,48,15782,1,8,0:0:0:0:
400,88,15858,1,8,0:0:0:0:
402,134,15935,1,8,0:0:0:0:
430,172,16012,1,8,0:0:0:0:
96,116,16090,1,8,0:0:0:0:
208,88,16244,1,8,0:0:0:0:
208,192,16706,6,0,L|208:272,1,71.2500027179719,2|0,0:0|0:0,0:0:0:0:
320,192,17013,2,0,L|320:272,1,71.2500027179719,0|2,0:0|0:0,0:0:0:0:
430,172,17321,2,0,L|430:252,1,71.2500027179719
320,192,17629,1,0,0:0:0:0:
504,24,17782,6,0,P|476:64|384:88,1,142.500005435944,2|0,0:0|0:0,0:0:0:0:
389,88,18244,1,0,0:0:0:0:
136,100,18398,2,0,P|164:60|256:36,1,142.500005435944,2|0,0:0|0:0,0:0:0:0:
136,100,18859,2,0,L|136:180,1,71.2500027179719,2|0,0:0|0:0,0:0:0:0:
368,192,19167,6,0,L|292:192,1,71.2500027179719,2|0,0:0|0:0,0:0:0:0:
176,268,19475,2,0,L|252:268,1,71.2500027179719,0|2,0:0|0:0,0:0:0:0:
376,340,19782,2,0,L|300:340,2,71.2500027179719
112,336,20244,2,0,P|64:304|40:216,1,142.500005435944,2|0,0:0|0:0,0:0:0:0:
100,228,20706,1,0,0:0:0:0:
440,192,20859,2,0,P|480:248|440:308,1,142.500005435944,2|0,0:0|0:0,0:0:0:0:
192,192,21321,1,0,0:0:0:0:
320,192,21475,1,2,0:0:0:0:
160,84,21782,5,0,0:0:0:0:
244,84,21936,2,0,L|172:84,1,71.2500027179719,2|0,0:0|0:0,0:0:0:0:
300,84,22244,2,0,L|220:84,1,71.2500027179719,2|0,0:0|0:0,0:0:0:0:
356,84,22552,1,0,0:0:0:0:
80,188,22706,2,0,P|44:224|24:316,1,142.500005435944,2|0,0:0|0:0,0:0:0:0:
108,316,23167,1,0,0:0:0:0:
340,316,23321,6,0,L|188:316,1,142.500005435944,2|0,0:0|0:0,0:0:0:0:
197,316,23782,1,0,0:0:0:0:
416,316,23936,2,0,L|272:316,2,142.500005435944,2|2|2,0:0|0:0|0:0,0:0:0:0:
336,316,24706,1,0,0:0:0:0:
197,316,24859,1,0,0:0:0:0:
336,316,25013,1,2,0:0:0:0:
197,316,25167,1,0,0:0:0:0:
460,192,25321,6,0,L|472:172,1,17.812500679493
52,192,25526,2,0,L|40:172,1,17.812500679493
460,112,25731,2,0,L|472:92,1,17.812500679493
52,112,25936,2,0,L|40:92,1,17.812500679493
460,32,26141,2,0,L|472:12,1,17.812500679493
52,32,26346,2,0,L|40:12,1,17.812500679493
360,188,26552,5,4,0:0:0:0:
360,188,26859,2,0,P|316:220|292:272,1,95,8|0,0:0|0:0,0:0:0:0:
176,188,27167,2,0,P|220:220|244:272,1,95
136,252,27475,1,8,0:0:0:0:
456,32,27629,2,0,L|352:32,1,95
476,32,27936,1,0,0:0:0:0:
376,92,28090,1,8,0:0:0:0:
92,32,28244,6,0,P|132:120|88:200,1,190
91,197,28706,1,8,0:0:0:0:
436,192,28859,2,0,L|500:268,1,95
336,192,29167,2,0,L|400:268,1,95,0|8,0:0|0:0,0:0:0:0:
232,192,29475,2,0,L|296:268,1,95
56,108,29782,1,0,0:0:0:0:
456,108,30090,1,0,0:0:0:0:
456,108,30398,5,0,0:0:0:0:
340,108,30552,1,8,0:0:0:0:
456,108,30706,2,0,L|432:156,1,47.5,8|8,0:0|0:0,0:0:0:0:
232,192,30859,2,0,P|204:148|212:104,1,95
340,108,31167,2,0,P|368:152|360:196,1,95,8|0,0:0|0:0,0:0:0:0:
4,288,31475,6,0,P|56:216|0:148,1,190,4|0,0:0|0:0,0:0:0:0:
256,192,31936,2,0,P|204:264|260:332,1,190
376,336,32398,2,0,L|280:336,1,95,8|0,0:0|0:0,0:0:0:0:
416,88,32706,2,0,P|460:152|472:360,1,285.000010871888,0|8,0:0|0:0,0:0:0:0:
96,88,33398,2,0,P|52:152|36:328,1,249.375009512902,0|4,0:0|0:0,0:0:0:0:
368,192,34013,6,0,L|256:192,1,106.875004076958,0|8,0:0|0:0,0:0:0:0:
156,192,34398,1,0,0:0:0:0:
261,192,34552,1,0,0:0:0:0:
156,192,34706,2,0,L|128:144,1,47.5,8|8,0:0|0:0,0:0:0:0:
284,100,34859,1,0,0:0:0:0:
44,64,35013,5,0,0:0:0:0:
468,64,35321,1,8,0:0:0:0:
92,112,35629,1,4,0:0:0:0:
92,112,35936,1,8,0:0:0:0:
40,112,36012,1,8,0:0:0:0:
12,68,36089,1,8,0:0:0:0:
324,288,36167,1,0,0:0:0:0:
364,263,36243,1,0,0:0:0:0:
394,226,36320,1,0,0:0:0:0:
152,308,36398,5,4,0:0:0:0:
152,308,37013,6,0,L|296:308,1,142.500005435944,2|0,0:0|0:0,0:0:0:0:
112,192,37629,2,2,L|336:192,2,213.750008153916
112,192,38782,1,0,0:0:0:0:
328,104,38859,6,2,L|104:104,2,213.750008153916
500,104,40090,2,2,P|432:176|500:240,2,213.750008153916
56,96,41321,5,0,0:0:0:0:
56,96,41629,1,0,0:0:0:0:
148,96,41936,1,2,0:0:0:0:
240,96,42244,1,0,0:0:0:0:
20,160,42552,6,2,P|88:232|16:296,2,213.750008153916
408,192,43782,6,0,P|456:228|492:308,1,142.500005435944,2|0,0:0|0:0,0:0:0:0:
108,304,44244,1,0,0:0:0:0:
108,236,44398,5,2,0:0:0:0:
156,224,44474,1,0,0:0:0:0:
164,184,44551,1,0,0:0:0:0:
108,172,44628,1,0,0:0:0:0:
260,164,44706,5,2,0:0:0:0:
308,152,44782,1,0,0:0:0:0:
316,112,44859,1,0,0:0:0:0:
260,100,44936,1,0,0:0:0:0:
428,36,45013,6,0,P|472:76|496:140,1,106.875004076958,10|0,0:0|0:0,0:0:0:0:
448,124,45321,1,0,0:0:0:0:
404,128,45398,1,0,0:0:0:0:
260,164,45475,6,0,P|216:204|192:268,1,106.875004076958,8|0,0:0|0:0,0:0:0:0:
240,252,45783,1,0,0:0:0:0:
284,256,45860,1,0,0:0:0:0:
448,200,45936,6,0,P|500:244|512:292,1,106.875004076958,10|0,0:0|0:0,0:0:0:0:
208,92,46244,5,4,0:0:0:0:
308,92,46398,1,0,0:0:0:0:
208,92,46552,1,0,0:0:0:0:
308,92,46706,1,0,0:0:0:0:
440,340,46859,1,0,0:0:0:0:
340,340,47013,1,0,0:0:0:0:
440,340,47167,1,0,0:0:0:0:
340,340,47321,1,0,0:0:0:0:
100,192,47475,5,0,0:0:0:0:
0,192,47629,1,0,0:0:0:0:
100,192,47783,1,0,0:0:0:0:
0,192,47937,1,0,0:0:0:0:
304,192,48090,1,0,0:0:0:0:
144,108,48244,6,0,L|48:108,1,95,8|0,0:0|0:0,0:0:0:0:
368,108,48552,2,0,L|464:108,1,95,8|0,0:0|0:0,0:0:0:0:
328,108,48859,1,0,0:0:0:0:
463,108,49013,1,0,0:0:0:0:
328,108,49167,1,0,0:0:0:0:
72,192,49321,1,0,0:0:0:0:
208,192,49475,1,0,0:0:0:0:
73,192,49629,1,0,0:0:0:0:
208,192,49783,1,0,0:0:0:0:
476,288,49936,5,0,0:0:0:0:
340,288,50090,1,0,0:0:0:0:
475,288,50244,1,0,0:0:0:0:
340,288,50398,1,0,0:0:0:0:
184,288,50552,1,0,0:0:0:0:
476,288,50706,1,0,0:0:0:0:
116,192,50859,1,0,0:0:0:0:
252,192,51013,1,0,0:0:0:0:
24,192,51167,6,0,P|0:240|0:308,1,95,8|0,0:0|0:0,0:0:0:0:
308,288,51475,1,0,0:0:0:0:
204,288,51629,1,0,0:0:0:0:
488,192,51782,2,0,P|512:240|512:308,1,95,8|0,0:0|0:0,0:0:0:0:
184,216,52090,1,0,0:0:0:0:
424,40,52244,6,0,P|448:88|448:156,1,95,8|0,0:0|0:0,0:0:0:0:
24,112,52552,1,0,0:0:0:0:
272,48,52706,2,0,P|248:96|248:164,1,95,8|0,0:0|0:0,0:0:0:0:
488,192,53013,1,0,0:0:0:0:
184,216,53167,2,0,P|160:264|160:332,1,95,8|0,0:0|0:0,0:0:0:0:
448,264,53475,1,0,0:0:0:0:
184,216,53629,5,0,0:0:0:0:
144,189,53705,1,0,0:0:0:0:
104,163,53782,1,0,0:0:0:0:
156,156,53859,1,0,0:0:0:0:
328,136,53936,2,0,L|352:96,1,47.5
452,120,54090,2,0,L|476:76,1,47.5
152,36,54244,1,0,0:0:0:0:
105,42,54320,1,0,0:0:0:0:
65,67,54397,1,0,0:0:0:0:
39,106,54474,1,0,0:0:0:0:
248,124,54552,2,0,L|268:168,1,47.5
56,252,54706,5,0,0:0:0:0:
432,252,55782,1,0,0:0:0:0:
453,243,55820,1,0,0:0:0:0:
471,227,55858,1,0,0:0:0:0:
484,207,55897,1,0,0:0:0:0:
489,184,55935,1,0,0:0:0:0:
487,161,55974,1,0,0:0:0:0:
477,139,56012,1,0,0:0:0:0:
462,121,56051,1,0,0:0:0:0:
136,64,56090,6,0,P|52:124|140:200,1,246.999988693238,4|8,0:0|0:0,0:0:0:0:
256,204,56552,2,0,L|4:204,1,246.999988693238
144,204,57013,1,8,0:0:0:0:
60,296,57167,2,0,L|312:296,1,246.999988693238
200,204,57629,2,0,L|76:204,1,123.499994346619,8|0,0:0|0:0,0:0:0:0:
372,204,57936,1,0,0:0:0:0:
188,204,58141,1,0,0:0:0:0:
392,204,58347,1,0,0:0:0:0:
352,204,58449,1,0,0:0:0:0:
72,204,58552,6,0,P|4:108|80:20,1,246.999988693238,0|8,0:0|0:0,0:0:0:0:
436,21,59013,2,0,P|508:111|440:204,1,246.999988693238
320,204,59475,1,8,0:0:0:0:
196,204,59629,1,8,0:0:0:0:
416,296,59782,2,0,L|160:296,1,246.999988693238,0|8,0:0|0:0,0:0:0:0:
456,296,60244,1,0,0:0:0:0:
456,296,60552,1,0,0:0:0:0:
320,296,60706,1,8,0:0:0:0:
184,296,60859,1,0,0:0:0:0:
48,296,61013,5,4,0:0:0:0:
184,296,61167,2,0,L|56:296,2,123.499994346619,0|8|0,0:0|0:0|0:0,0:0:0:0:
0,296,61629,1,0,0:0:0:0:
0,296,61782,2,0,L|44:248,1,61.7499971733095
256,144,61936,2,0,L|384:144,1,123.499994346619,8|0,0:0|0:0,0:0:0:0:
248,64,62244,6,0,L|0:64,1,246.999988693238,0|8,0:0|0:0,0:0:0:0:
424,64,62706,2,0,P|480:96|416:236,1,246.999988693238
224,232,63090,1,0,0:0:0:0:
44,232,63167,1,8,0:0:0:0:
44,232,63321,6,0,P|8:168|56:8,1,246.999988693238,4|0,0:0|0:0,0:0:0:0:
424,64,63782,2,0,L|452:188,1,123.499994346619,8|0,0:0|0:0,0:0:0:0:
224,232,64090,2,0,L|180:352,1,123.499994346619,8|0,0:0|0:0,0:0:0:0:
420,272,64398,5,0,0:0:0:0:
132,148,64552,1,0,0:0:0:0:
464,48,64706,2,0,P|496:108|492:164,1,123.499994346619,8|0,0:0|0:0,0:0:0:0:
48,48,65013,2,0,P|16:108|20:164,1,123.499994346619,8|0,0:0|0:0,0:0:0:0:
352,156,65321,1,8,0:0:0:0:
352,156,65475,2,8,L|312:204,1,61.7499971733095
116,240,65629,1,8,0:0:0:0:
116,240,65782,2,8,L|160:288,1,61.7499971733095
424,300,65936,6,0,P|468:240|428:76,1,246.999988693238,4|8,0:0|0:0,0:0:0:0:
433,81,66398,1,0,0:0:0:0:
292,44,66552,2,0,L|416:44,1,123.499994346619
292,44,66859,1,8,0:0:0:0:
156,40,67013,6,0,P|104:80|76:136,1,123.499994346619
345,209,67321,2,0,P|397:249|425:305,1,123.499994346619,0|8,0:0|0:0,0:0:0:0:
128,296,67629,1,0,0:0:0:0:
240,296,67782,1,0,0:0:0:0:
0,296,67936,2,0,P|20:220|152:120,1,246.999988693238,0|8,0:0|0:0,0:0:0:0:
216,120,68321,1,8,0:0:0:0:
476,36,68398,6,0,P|384:84|480:140,1,246.999988693238,0|8,0:0|0:0,0:0:0:0:
466,146,68859,1,0,0:0:0:0:
336,188,69013,1,0,0:0:0:0:
200,188,69167,1,0,0:0:0:0:
72,144,69321,1,8,0:0:0:0:
436,300,69475,6,0,P|480:232|472:64,1,246.999988693238
344,44,69936,1,8,0:0:0:0:
212,76,70090,1,0,0:0:0:0:
336,188,70244,1,0,0:0:0:0:
394,206,70320,1,0,0:0:0:0:
439,248,70397,1,0,0:0:0:0:
462,305,70474,1,0,0:0:0:0:
200,188,70552,2,0,L|172:244,1,61.7499971733095
72,184,70706,2,0,L|44:240,1,61.7499971733095
316,264,70859,6,0,L|236:380,2,123.499994346619,4|0|8,0:0|0:0|0:0,0:0:0:0:
100,276,71321,1,0,0:0:0:0:
200,188,71475,2,0,P|116:76|12:48,1,246.999988693238,0|8,0:0|0:0,0:0:0:0:
256,40,71936,1,0,0:0:0:0:
494,47,72090,6,0,P|379:87|311:188,1,246.999988693238,0|8,0:0|0:0,0:0:0:0:
45,276,72552,2,0,L|297:276,1,246.999988693238
244,276,72936,1,0,0:0:0:0:
32,200,73013,1,8,0:0:0:0:
32,200,73167,6,0,P|112:124|24:52,1,246.999988693238,12|0,0:0|0:0,0:0:0:0:
396,56,73629,2,0,L|420:184,1,123.499994346619,8|0,0:0|0:0,0:0:0:0:
192,80,73936,2,0,L|168:208,1,123.499994346619,8|0,0:0|0:0,0:0:0:0:
388,296,74244,1,8,0:0:0:0:
132,320,74398,1,0,0:0:0:0:
464,248,74552,6,0,P|492:192|500:128,1,123.499994346619,8|0,0:0|0:0,0:0:0:0:
444,124,74782,1,0,0:0:0:0:
172,204,74859,2,0,P|144:148|136:84,1,123.499994346619,8|0,0:0|0:0,0:0:0:0:
192,80,75089,1,0,0:0:0:0:
360,64,75167,2,0,L|384:124,1,61.7499971733095
172,204,75321,2,0,L|144:260,1,61.7499971733095
312,296,75475,2,0,L|336:360,1,61.7499971733095
132,320,75629,6,0,P|56:280|24:176,1,190,4|0,0:0|0:0,0:0:0:0:
172,204,76090,2,0,L|228:296,1,95,8|0,0:0|0:0,0:0:0:0:
368,204,76398,2,0,L|424:296,1,95
312,296,76706,1,8,0:0:0:0:
512,192,76859,1,0,0:0:0:0:
412,128,77013,2,0,P|448:40|512:72,1,190,0|8,0:0|0:0,0:0:0:0:
380,128,77475,2,0,P|416:40|480:72,1,190
256,128,77936,2,0,L|160:128,1,95,8|0,0:0|0:0,0:0:0:0:
204,128,78167,1,0,0:0:0:0:
384,192,78244,5,8,0:0:0:0:
128,192,78398,1,8,0:0:0:0:
256,192,78552,1,8,0:0:0:0:
200,192,78706,1,8,0:0:0:0:
440,192,78859,1,8,0:0:0:0:
72,192,79013,1,8,0:0:0:0:
472,192,79167,1,8,0:0:0:0:
40,192,79321,1,8,0:0:0:0:
256,192,80552,6,0,B|300:168|343:194|343:194|384:220|452:192,1,190,4|0,0:0|0:0,0:0:0:0:
344,272,81013,2,0,L|296:364,1,95,8|0,0:0|0:0,0:0:0:0:
200,264,81321,2,0,L|152:356,1,95
456,60,81629,2,0,L|500:148,1,95,8|0,0:0|0:0,0:0:0:0:
260,56,81936,2,0,L|216:144,1,95
312,148,82244,1,8,0:0:0:0:
60,140,82398,1,0,0:0:0:0:
498,144,82706,1,8,0:0:0:0:
60,140,83013,6,0,P|28:188|56:316,1,190,4|0,0:0|0:0,0:0:0:0:
92,312,83398,1,0,0:0:0:0:
280,320,83475,2,0,P|304:280|304:232,1,95,8|0,0:0|0:0,0:0:0:0:
228,232,83782,1,0,0:0:0:0:
152,228,83936,1,0,0:0:0:0:
404,148,84090,1,8,0:0:0:0:
480,148,84244,1,0,0:0:0:0:
152,48,84398,5,0,0:0:0:0:
256,48,84552,1,0,0:0:0:0:
360,48,84706,1,8,0:0:0:0:
76,72,84859,1,0,0:0:0:0:
316,72,85167,1,8,0:0:0:0:
144,144,85475,6,0,P|208:200|144:252,1,190
232,304,85936,2,0,L|172:384,1,95,8|0,0:0|0:0,0:0:0:0:
300,348,86244,2,0,L|396:348,1,95
120,328,86552,2,0,L|24:328,1,95,8|0,0:0|0:0,0:0:0:0:
160,268,86859,6,0,L|64:268,1,95
304,192,87167,1,8,0:0:0:0:
208,192,87321,1,0,0:0:0:0:
452,192,87629,1,8,0:0:0:0:
452,192,87936,6,0,L|408:224,1,47.5
256,252,88090,2,0,L|216:344,1,95,8|0,0:0|0:0,0:0:0:0:
452,272,88398,2,0,L|492:364,1,95,8|0,0:0|0:0,0:0:0:0:
60,272,88706,2,0,L|20:364,1,95,8|0,0:0|0:0,0:0:0:0:
292,144,89013,1,8,0:0:0:0:
292,144,89167,6,0,L|248:108,1,47.5
447,65,89321,1,0,0:0:0:0:
478,100,89398,1,0,0:0:0:0:
488,146,89475,1,0,0:0:0:0:
476,192,89551,1,0,0:0:0:0:
256,252,89629,2,8,L|228:292,1,47.5
372,288,89782,2,8,L|400:328,1,47.5
60,272,89936,5,0,0:0:0:0:
34,232,90012,1,0,0:0:0:0:
33,185,90089,1,0,0:0:0:0:
57,145,90166,1,0,0:0:0:0:
200,88,90244,2,0,L|232:128,1,47.5
312,80,90398,2,0,L|348:124,1,47.5
140,192,90552,6,0,L|140:288,1,95,4|0,0:0|0:0,0:0:0:0:
264,252,90859,1,8,0:0:0:0:
120,192,91013,2,0,L|120:288,1,95
280,252,91321,1,0,0:0:0:0:
168,252,91475,1,8,0:0:0:0:
400,192,91629,6,0,L|304:192,2,95
276,192,92090,1,8,0:0:0:0:
460,192,92244,1,0,0:0:0:0:
240,100,92398,2,0,L|144:100,1,95
348,52,92706,2,0,L|444:52,1,95,8|0,0:0|0:0,0:0:0:0:
124,192,93013,6,0,P|56:232|120:284,1,190,0|8,0:0|0:0,0:0:0:0:
240,288,93475,2,0,L|148:348,1,95
256,336,93782,2,0,L|348:368,1,95,0|8,0:0|0:0,0:0:0:0:
252,212,94090,2,0,P|316:156|248:108,1,190
360,76,94552,2,0,L|408:164,1,95,8|0,0:0|0:0,0:0:0:0:
368,164,94782,1,0,0:0:0:0:
88,192,94859,2,0,L|52:280,1,95
252,212,95167,2,0,L|288:304,1,95,8|0,0:0|0:0,0:0:0:0:
56,32,95475,6,0,L|56:132,1,95,4|0,0:0|0:0,0:0:0:0:
172,80,95782,1,8,0:0:0:0:
36,32,95936,2,0,L|36:132,1,95
192,80,96244,1,0,0:0:0:0:
80,80,96398,1,8,0:0:0:0:
344,80,96552,6,0,P|392:116|456:236,1,190
240,224,97013,1,8,0:0:0:0:
316,224,97167,1,0,0:0:0:0:
196,292,97321,2,0,L|296:292,2,95,0|0|8,0:0|0:0|0:0,0:0:0:0:
304,292,97782,1,0,0:0:0:0:
72,296,97936,6,0,P|28:244|0:120,1,190,0|8,0:0|0:0,0:0:0:0:
252,72,98398,2,0,L|328:144,1,95
72,60,98706,2,0,L|-4:132,1,95,0|8,0:0|0:0,0:0:0:0:
408,44,99013,2,0,L|488:96,1,95,0|2,0:0|0:0,0:0:0:0:
464,124,99244,5,0,0:0:0:0:
440,152,99321,1,0,0:0:0:0:
408,172,99398,1,0,0:0:0:0:
372,180,99475,1,2,0:0:0:0:
336,188,99552,1,0,0:0:0:0:
296,188,99629,1,0,0:0:0:0:
260,184,99706,1,0,0:0:0:0:
224,172,99782,1,2,0:0:0:0:
188,156,99859,1,0,0:0:0:0:
404,284,99936,6,8,L|440:316,1,47.5
120,272,100090,1,8,0:0:0:0:
120,272,100244,2,8,L|80:320,1,47.5
404,284,100398,6,0,P|428:236|400:100,1,190,4|0,0:0|0:0,0:0:0:0:
252,104,101013,2,0,P|223:192|253:281,1,190,0|8,0:0|0:0,0:0:0:0:
24,152,101475,2,0,L|0:56,1,95
124,92,101782,2,0,L|144:0,1,95,0|8,0:0|0:0,0:0:0:0:
24,308,102090,2,0,L|0:212,1,95
144,248,102398,2,0,L|164:156,1,95,0|8,0:0|0:0,0:0:0:0:
408,248,102706,6,0,L|388:156,1,95
488,308,103013,2,0,L|512:212,1,95,0|8,0:0|0:0,0:0:0:0:
256,144,103321,2,0,L|256:48,1,95
472,112,103629,2,0,L|500:16,1,95,0|8,0:0|0:0,0:0:0:0:
92,48,103936,6,0,P|60:96|72:228,1,190
256,144,104398,2,0,P|288:192|276:324,1,190,8|0,0:0|0:0,0:0:0:0:
204,320,104859,1,0,0:0:0:0:
432,320,105013,1,8,0:0:0:0:
432,320,105167,2,0,L|400:280,1,47.5
204,144,105321,6,0,B|156:120|110:155|110:155|72:188|16:144,1,190,0|4,0:0|0:0,0:0:0:0:
144,56,105782,2,0,B|192:32|237:67|237:67|276:100|332:56,1,190
204,144,106244,2,0,L|160:232,1,95,8|0,0:0|0:0,0:0:0:0:
444,240,106552,6,0,P|472:188|456:56,1,190,0|8,0:0|0:0,0:0:0:0:
384,56,107013,1,0,0:0:0:0:
172,308,107167,2,0,L|360:336,1,190,0|8,0:0|0:0,0:0:0:0:
359,335,107629,2,0,L|336:292,1,47.5
36,52,107782,6,0,L|-8:160,1,95,8|0,0:0|0:0,0:0:0:0:
256,32,108090,2,0,L|212:140,1,95,8|0,0:0|0:0,0:0:0:0:
492,52,108398,2,0,L|448:160,1,95,8|0,0:0|0:0,0:0:0:0:
480,156,108629,1,0,0:0:0:0:
200,192,108706,1,8,0:0:0:0:
292,192,108859,1,8,0:0:0:0:
44,192,109167,1,8,0:0:0:0:
468,192,109475,1,8,0:0:0:0:
316,192,109782,6,8,L|288:232,1,47.5
444,264,109936,1,0,0:0:0:0:
482,289,110012,1,0,0:0:0:0:
482,334,110089,1,0,0:0:0:0:
444,359,110166,1,0,0:0:0:0:
128,284,110244,1,4,0:0:0:0:
128,284,110859,6,0,L|424:284,1,285.000010871888,2|0,0:0|0:0,0:0:0:0:
184,192,111936,1,2,0:0:0:0:
396,192,112398,1,0,0:0:0:0:
96,44,112706,6,0,P|64:84|44:176,1,142.500005435944,2|0,0:0|0:0,0:0:0:0:
184,192,113167,2,0,P|216:232|236:324,1,142.500005435944,2|0,0:0|0:0,0:0:0:0:
0,324,113629,1,0,0:0:0:0:
176,320,113936,2,0,L|324:341,1,142.500005435944,2|0,0:0|0:0,0:0:0:0:
256,252,114398,2,0,L|120:312,1,142.500005435944,2|0,0:0|0:0,0:0:0:0:
168,312,114859,1,0,0:0:0:0:
212,312,115013,1,0,0:0:0:0:
500,236,115167,6,0,B|508:112|508:112|440:64|332:88,1,285.000010871888,4|2,0:0|0:0,0:0:0:0:
212,192,116090,1,0,0:0:0:0:
292,192,116244,1,0,0:0:0:0:
372,192,116398,1,2,0:0:0:0:
40,192,116859,1,0,0:0:0:0:
456,192,117321,1,0,0:0:0:0:
40,192,117629,2,0,P|24:120|48:52,1,142.500005435944,2|0,0:0|0:0,0:0:0:0:
280,52,118090,2,0,P|301:119|285:187,1,142.500005435944,2|0,0:0|0:0,0:0:0:0:
40,284,118552,1,0,0:0:0:0:
224,284,118859,5,8,0:0:0:0:
444,284,118936,1,8,0:0:0:0:
434,278,118974,1,8,0:0:0:0:
425,273,119012,1,8,0:0:0:0:
417,266,119051,1,8,0:0:0:0:
409,259,119089,1,8,0:0:0:0:
401,251,119128,1,8,0:0:0:0:
394,243,119166,1,8,0:0:0:0:
388,234,119205,1,8,0:0:0:0:
383,225,119243,1,8,0:0:0:0:
378,216,119282,1,8,0:0:0:0:
374,206,119320,1,8,0:0:0:0:
370,196,119359,1,8,0:0:0:0:
368,185,119397,1,8,0:0:0:0:
366,175,119435,1,8,0:0:0:0:
365,164,119474,1,8,0:0:0:0:
365,154,119512,1,8,0:0:0:0:
366,143,119551,1,8,0:0:0:0:
367,132,119589,1,8,0:0:0:0:
370,122,119628,1,8,0:0:0:0:
373,112,119666,1,8,0:0:0:0:
377,102,119705,1,8,0:0:0:0:
381,92,119743,1,8,0:0:0:0:
386,83,119782,1,8,0:0:0:0:
392,74,119820,1,8,0:0:0:0:
399,66,119859,1,8,0:0:0:0:
406,58,119897,1,8,0:0:0:0:
414,50,119935,1,8,0:0:0:0:
423,44,119974,1,8,0:0:0:0:
431,38,120012,1,8,0:0:0:0:
232,192,120090,6,8,L|152:192,2,71.2500027179719
104,116,120552,2,8,L|176:116,2,71.2500027179719
256,40,121013,2,8,L|184:40,1,71.2500027179719
480,40,121321,5,8,0:0:0:0:
432,40,121475,1,8,0:0:0:0:
232,192,121629,1,8,0:0:0:0:
184,192,121782,2,8,L|144:220,1,35.625001358986
368,196,121937,1,8,0:0:0:0:
395,217,122013,1,8,0:0:0:0:
417,246,122090,1,8,0:0:0:0:
430,279,122167,1,8,0:0:0:0:
200,268,122245,1,8,0:0:0:0:
172,289,122321,1,8,0:0:0:0:
150,318,122398,1,8,0:0:0:0:
137,351,122475,1,8,0:0:0:0:
352,332,122552,5,8,0:0:0:0:
352,332,122706,2,0,L|248:332,2,95
448,328,123167,1,8,0:0:0:0:
484,297,123243,1,8,0:0:0:0:
507,255,123320,1,8,0:0:0:0:
512,208,123397,1,8,0:0:0:0:
248,192,123475,6,8,L|208:152,1,47.5
112,200,123629,2,8,L|80:160,1,47.5
272,112,123782,6,8,L|312:72,1,47.5
408,120,123936,2,8,L|440:80,1,47.5
248,192,124090,1,8,0:0:0:0:
222,231,124166,1,8,0:0:0:0:
204,275,124243,1,8,0:0:0:0:
196,322,124320,1,8,0:0:0:0:
472,272,124398,5,8,0:0:0:0:
472,272,124552,1,8,0:0:0:0:
472,272,124706,1,8,0:0:0:0:
204,275,124859,1,0,0:0:0:0:
304,276,125013,6,0,P|336:240|352:196,1,95,8|0,0:0|0:0,0:0:0:0:
100,136,125321,2,0,P|68:100|52:56,1,95,8|0,0:0|0:0,0:0:0:0:
412,136,125629,2,0,P|444:100|460:56,1,95,8|0,0:0|0:0,0:0:0:0:
96,272,125936,1,0,0:0:0:0:
204,275,126090,6,0,P|172:311|156:355,1,95,8|0,0:0|0:0,0:0:0:0:
512,296,126398,1,0,0:0:0:0:
416,256,126552,2,0,P|448:220|464:176,1,95,8|0,0:0|0:0,0:0:0:0:
116,192,126859,1,0,0:0:0:0:
208,192,127013,1,8,0:0:0:0:
472,80,127167,1,0,0:0:0:0:
384,80,127321,1,0,0:0:0:0:
84,192,127475,6,0,P|40:160|24:124,1,95,8|0,0:0|0:0,0:0:0:0:
56,124,127706,1,0,0:0:0:0:
256,124,127782,1,0,0:0:0:0:
256,124,127936,1,0,0:0:0:0:
228,108,128013,1,0,0:0:0:0:
384,192,128090,5,0,0:0:0:0:
413,228,128166,1,0,0:0:0:0:
416,275,128243,1,0,0:0:0:0:
393,315,128320,1,0,0:0:0:0:
160,316,128398,1,0,0:0:0:0:
160,316,128552,1,0,0:0:0:0:
64,316,128706,5,0,0:0:0:0:
420,76,128859,2,0,L|496:144,1,95,8|0,0:0|0:0,0:0:0:0:
188,124,129167,1,0,0:0:0:0:
420,76,129321,2,0,L|491:139,1,95,8|0,0:0|0:0,0:0:0:0:
456,140,129552,1,0,0:0:0:0:
252,212,129629,2,0,P|192:188|168:112,1,142.5,8|0,0:0|0:0,0:0:0:0:
464,260,129936,6,0,L|364:260,2,95,4|0|8,0:0|0:0|0:0,0:0:0:0:
252,212,130398,2,0,L|380:212,1,123.499994346619
484,144,130706,2,0,L|356:144,1,123.499994346619,0|8,0:0|0:0,0:0:0:0:
88,64,131013,2,0,L|256:64,3,161.500003080368,0|0|0|8,0:0|0:0|0:0|0:0,0:0:0:0:
8,64,131629,5,0,0:0:0:0:
376,64,131782,1,0,0:0:0:0:
249,64,131988,1,0,0:0:0:0:
412,64,132193,1,0,0:0:0:0:
376,64,132244,1,0,0:0:0:0:
92,152,132398,6,0,P|40:216|0:380,1,246.999988693238,4|8,0:0|0:0,0:0:0:0:
420,152,132859,2,0,P|472:216|512:380,1,246.999988693238
256,216,133321,1,8,0:0:0:0:
0,372,133475,1,0,0:0:0:0:
420,152,133629,2,0,P|344:240|428:320,1,246.999988693238,0|8,0:0|0:0,0:0:0:0:
93,319,134090,2,0,P|168:235|92:152,1,246.999988693238
304,140,134552,1,8,0:0:0:0:
304,140,134706,1,0,0:0:0:0:
276,108,134782,1,0,0:0:0:0:
28,48,134859,5,4,0:0:0:0:
28,48,135013,2,0,L|280:48,1,246.999988693238
52,192,135475,2,0,L|180:192,2,123.499994346619,0|0|8,0:0|0:0|0:0,0:0:0:0:
320,248,135936,2,0,L|444:248,1,123.499994346619
240,324,136244,2,0,L|116:324,1,123.499994346619,0|8,0:0|0:0,0:0:0:0:
448,336,136552,2,0,P|488:244|448:104,1,246.999988693238
408,108,136936,1,0,0:0:0:0:
56,108,137013,1,8,0:0:0:0:
212,108,137167,6,0,P|256:168|264:248,1,142.500005435944,4|0,0:0|0:0,0:0:0:0:
40,312,137629,2,0,L|176:312,2,123.499994346619,8|0|8,0:0|0:0|0:0,0:0:0:0:
472,312,138244,2,0,L|336:312,2,123.499994346619,8|0|8,0:0|0:0|0:0,0:0:0:0:
428,312,138629,1,8,0:0:0:0:
112,192,138706,6,0,P|52:152|36:104,1,123.499994346619,8|8,0:0|0:0,0:0:0:0:
256,96,139013,1,0,0:0:0:0:
475,105,139167,1,8,0:0:0:0:
256,96,139321,1,0,0:0:0:0:
224,124,139398,1,0,0:0:0:0:
448,196,139475,1,8,0:0:0:0:
448,196,139629,1,0,0:0:0:0:
416,224,139706,1,0,0:0:0:0:
212,320,139782,6,0,B|156:240|100:324|100:324|60:380|8:332,1,246.999988693238,4|8,0:0|0:0,0:0:0:0:
252,236,140244,2,0,P|304:300|460:344,1,246.999988693238
457,344,140706,1,8,0:0:0:0:
72,152,140859,2,0,P|188:104|300:148,2,246.999988693238
440,152,141629,1,0,0:0:0:0:
256,144,141834,1,0,0:0:0:0:
72,152,142039,1,0,0:0:0:0:
72,152,142244,6,0,P|8:256|92:328,1,246.999988693238,0|8,0:0|0:0,0:0:0:0:
352,232,142706,2,0,L|288:340,1,123.499994346619
432,248,143013,2,0,L|368:356,1,123.499994346619,0|8,0:0|0:0,0:0:0:0:
260,152,143321,6,0,L|520:152,1,246.999988693238
432,248,143782,2,0,P|408:188|420:116,1,123.499994346619,8|0,0:0|0:0,0:0:0:0:
316,228,144090,2,0,P|336:296|320:356,1,123.499994346619
280,340,144321,1,0,0:0:0:0:
64,272,144398,1,8,0:0:0:0:
111,236,144474,1,0,0:0:0:0:
114,176,144551,1,8,0:0:0:0:
70,136,144628,1,8,0:0:0:0:
260,152,144706,6,0,L|384:152,1,123.499994346619,4|0,0:0|0:0,0:0:0:0:
260,152,145013,1,8,0:0:0:0:
383,152,145167,1,0,0:0:0:0:
136,152,145321,1,0,0:0:0:0:
136,152,145629,2,0,L|88:272,1,123.499994346619,8|0,0:0|0:0,0:0:0:0:
424,312,145936,2,0,P|460:248|440:76,1,246.999988693238,0|8,0:0|0:0,0:0:0:0:
68,80,146398,2,0,P|41:199|88:312,1,246.999988693238
256,316,146782,1,0,0:0:0:0:
424,312,146859,1,8,0:0:0:0:
424,312,147013,6,0,P|332:296|372:176,1,246.999988693238,4|0,0:0|0:0,0:0:0:0:
68,80,147475,2,0,L|16:196,1,123.499994346619,8|0,0:0|0:0,0:0:0:0:
288,84,147782,2,0,L|236:200,1,123.499994346619,8|0,0:0|0:0,0:0:0:0:
344,192,148090,1,0,0:0:0:0:
124,192,148244,1,8,0:0:0:0:
448,192,148398,2,0,P|488:252|500:312,1,123.499994346619
200,196,148706,2,0,P|160:256|148:316,1,123.499994346619,8|0,0:0|0:0,0:0:0:0:
448,192,149013,2,0,P|480:132|472:72,1,123.499994346619
436,80,149244,1,8,0:0:0:0:
56,72,149321,1,8,0:0:0:0:
324,72,149475,6,0,P|356:204|440:288,1,246.999988693238,4|0,0:0|0:0,0:0:0:0:
320,280,149936,2,0,L|244:384,1,123.499994346619,8|0,0:0|0:0,0:0:0:0:
148,328,150244,2,0,L|408:328,1,246.999988693238,0|8,0:0|0:0,0:0:0:0:
348,328,150706,1,0,0:0:0:0:
40,252,150859,6,0,P|120:176|28:116,1,246.999988693238,0|8,0:0|0:0,0:0:0:0:
304,252,151321,2,0,P|224:176|316:116,1,246.999988693238
348,116,151706,1,0,0:0:0:0:
496,120,151782,1,8,0:0:0:0:
200,48,151936,1,0,0:0:0:0:
200,48,152090,5,0,0:0:0:0:
308,48,152244,1,0,0:0:0:0:
116,48,152398,1,8,0:0:0:0:
400,48,152552,1,8,0:0:0:0:
56,48,152706,1,8,0:0:0:0:
452,48,152859,1,8,0:0:0:0:
200,48,153013,5,0,0:0:0:0:
308,48,153167,1,0,0:0:0:0:
60,60,154398,6,0,B|484:60|484:60|460:196|44:196|8:320|8:320|488:320,1,1425,4|0,0:0|0:0,0:0:0:0:
360,320,156859,1,0,0:0:0:0:
32,192,157013,6,0,B|312:192|312:192|68:120|68:120|444:120|444:120|200:192|200:192|480:192,1,1425
4,264,159475,6,0,B|280:264|280:264|228:264|228:264|472:264,1,570,4|0,0:0|0:0,0:0:0:0:
436,264,160552,1,0,0:0:0:0:
4,264,160706,6,4,B|280:264|280:264|228:264|228:264|472:264,1,570,4|0,0:0|0:0,0:0:0:0:
436,264,161782,1,0,0:0:0:0:
136,192,161936,6,0,L|428:192,1,285,4|0,0:0|0:0,0:0:0:0:
56,192,162552,6,0,L|348:192,1,285,4|0,0:0|0:0,0:0:0:0:
112,140,163167,5,4,0:0:0:0:
212,140,163321,1,0,0:0:0:0:
272,140,163398,1,0,0:0:0:0:
332,140,163475,1,0,0:0:0:0:
112,140,163629,1,0,0:0:0:0:
400,140,163782,1,0,0:0:0:0:
144,140,163936,1,0,0:0:0:0:
372,140,164090,1,0,0:0:0:0:
32,140,164244,1,0,0:0:0:0:
480,140,164398,6,0,L|392:140,2,80.750001540184,4|0|0,0:0|0:0|0:0,0:0:0:0:
344,220,164859,2,0,L|288:160,1,80.750001540184,0|8,0:0|0:0,0:0:0:0:
100,220,165167,2,0,L|40:160,1,80.750001540184
152,304,165475,2,0,L|200:232,1,80.750001540184
396,304,165782,2,0,L|448:228,1,80.750001540184,0|8,0:0|0:0,0:0:0:0:
336,304,166090,1,0,0:0:0:0:
496,280,166244,2,0,L|412:280,2,80.750001540184,0|0|8,0:0|0:0|0:0,0:0:0:0:
384,232,166706,1,0,0:0:0:0:
80,192,166859,6,0,L|168:192,1,80.750001540184
40,192,167167,1,0,0:0:0:0:
80,192,167321,1,0,0:0:0:0:
424,128,167475,2,0,L|492:80,1,80.750001540184,8|0,0:0|0:0,0:0:0:0:
352,128,167782,1,0,0:0:0:0:
512,128,167936,6,0,L|512:380,1,242.250004620552,0|8,0:0|0:0,0:0:0:0:
512,370,168552,2,0,L|472:360,1,40.375000770092
256,284,168706,5,0,0:0:0:0:
256,284,168859,1,0,0:0:0:0:
40,192,169013,1,8,0:0:0:0:
80,192,169167,1,0,0:0:0:0:
316,188,169321,5,0,0:0:0:0:
276,188,169475,1,0,0:0:0:0:
472,192,169629,1,0,0:0:0:0:
472,192,169782,2,0,L|512:116,1,80.750001540184,0|8,0:0|0:0,0:0:0:0:
380,104,170090,2,0,L|348:24,1,80.750001540184
220,104,170398,2,0,L|252:24,1,80.750001540184
484,104,170706,6,0,L|312:104,1,161.500003080368,8|0,0:0|0:0,0:0:0:0:
512,164,171167,1,0,0:0:0:0:
420,164,171321,1,8,0:0:0:0:
256,240,171629,6,0,L|424:240,1,161.500003080368
360,240,172090,1,0,0:0:0:0:
480,240,172244,1,0,0:0:0:0:
256,336,172398,1,8,0:0:0:0:
320,336,172552,1,0,0:0:0:0:
0,192,172706,1,0,0:0:0:0:
56,192,172859,1,0,0:0:0:0:
288,100,173013,5,0,0:0:0:0:
224,100,173167,1,0,0:0:0:0:
448,172,173321,1,8,0:0:0:0:
512,172,173475,1,0,0:0:0:0:
120,48,173629,1,0,0:0:0:0:
56,48,173783,1,0,0:0:0:0:
336,220,173936,5,8,0:0:0:0:
375,227,174012,1,8,0:0:0:0:
407,251,174089,1,8,0:0:0:0:
426,287,174166,1,8,0:0:0:0:
176,312,174244,6,0,L|256:312,2,80.750001540184,4|0|0,0:0|0:0|0:0,0:0:0:0:
272,240,174706,2,0,L|180:240,1,80.750001540184
80,168,175013,2,0,L|172:168,1,80.750001540184
264,96,175321,2,0,L|92:96,2,161.500003080368
44,96,176090,1,0,0:0:0:0:
480,96,176295,1,8,0:0:0:0:
348,96,176500,1,8,0:0:0:0:
480,96,176706,6,0,P|456:184|400:240,1,161.500003080368,0|8,0:0|0:0,0:0:0:0:
140,216,177167,2,0,P|164:304|220:360,1,161.500003080368
210,354,177629,1,8,0:0:0:0:
252,352,177782,1,0,0:0:0:0:
20,192,177936,1,0,0:0:0:0:
20,192,178090,1,0,0:0:0:0:
156,216,178244,6,0,P|164:288|196:336,1,121.125002310276,8|0,0:0|0:0,0:0:0:0:
20,192,178552,1,0,0:0:0:0:
20,192,178706,1,0,0:0:0:0:
156,216,178859,2,0,P|164:288|196:336,1,121.125002310276,8|0,0:0|0:0,0:0:0:0:
380,192,179167,6,0,L|292:192,2,80.750001540184,4|0|0,0:0|0:0|0:0,0:0:0:0:
276,108,179629,2,0,L|108:108,1,161.500003080368
336,36,180244,2,0,L|504:36,1,161.500003080368
456,36,180706,1,8,0:0:0:0:
152,200,180859,2,0,P|60:228|36:288,1,161.500003080368
76,284,181321,1,8,0:0:0:0:
432,192,181475,6,0,B|348:192|348:192|488:232|488:232|312:232,1,403.75000770092
492,92,182552,1,0,0:0:0:0:
260,88,182706,1,8,0:0:0:0:
300,88,182859,5,8,0:0:0:0:
340,88,183013,1,0,0:0:0:0:
48,88,183167,1,8,0:0:0:0:
88,88,183321,1,0,0:0:0:0:
420,192,183475,1,8,0:0:0:0:
460,192,183629,1,0,0:0:0:0:
244,296,183782,1,8,0:0:0:0:
284,296,183936,5,8,0:0:0:0:
48,192,184090,6,0,L|144:192,2,95,4|0|0,0:0|0:0|0:0,0:0:0:0:
468,192,184706,1,0,0:0:0:0:
468,192,185013,2,0,L|368:192,2,95
48,192,185629,1,0,0:0:0:0:
468,192,185936,1,0,2:0:0:0:
256,192,186090,1,0,0:0:0:0:
324,192,186244,1,0,2:0:0:0:
48,192,186398,1,0,0:0:0:0:
168,284,186552,5,0,0:0:0:0:
68,284,186706,1,0,0:0:0:0:
444,284,186859,1,0,0:0:0:0:
68,284,187167,1,0,0:0:0:0:
256,100,187475,5,0,0:0:0:0:
368,100,187629,2,0,L|312:100,1,47.5
156,100,187782,1,0,0:0:0:0:
156,100,187936,1,0,0:0:0:0:
384,100,188090,1,0,0:0:0:0:
128,100,188244,1,0,0:0:0:0:
416,100,188398,1,0,0:0:0:0:
96,100,188552,1,0,0:0:0:0:
468,100,188859,1,0,0:0:0:0:
376,192,189013,6,0,L|476:192,1,95
316,192,189321,2,0,L|412:192,1,95
128,192,189629,1,0,0:0:0:0:
312,192,189936,2,0,L|216:192,1,95
384,192,190244,2,0,L|288:192,1,95
512,192,190552,1,0,0:0:0:0:
48,264,190859,5,0,2:0:0:0:
260,264,191013,1,0,0:0:0:0:
192,264,191167,1,0,2:0:0:0:
468,264,191321,1,0,0:0:0:0:
348,356,191475,5,0,0:0:0:0:
366,341,191551,1,0,0:0:0:0:
380,322,191628,1,0,0:0:0:0:
389,300,191705,1,0,0:0:0:0:
392,276,191782,1,0,0:0:0:0:
388,253,191859,1,0,0:0:0:0:
378,232,191936,1,0,0:0:0:0:
363,213,192013,1,0,0:0:0:0:
164,28,192090,5,0,0:0:0:0:
145,42,192166,1,0,0:0:0:0:
131,61,192243,1,0,0:0:0:0:
122,83,192320,1,0,0:0:0:0:
119,107,192397,1,0,0:0:0:0:
123,130,192474,1,0,0:0:0:0:
133,151,192551,1,0,0:0:0:0:
148,170,192628,1,0,0:0:0:0:
356,80,192706,5,0,0:0:0:0:
401,93,192782,1,0,0:0:0:0:
439,121,192859,1,0,0:0:0:0:
466,160,192936,1,0,0:0:0:0:
236,232,193013,5,0,0:0:0:0:
190,245,193089,1,0,0:0:0:0:
152,273,193166,1,0,0:0:0:0:
125,312,193243,1,0,0:0:0:0:
376,328,193321,5,0,0:0:0:0:
272,328,193475,1,0,0:0:0:0:
512,328,193629,1,0,0:0:0:0:
8,332,193782,1,0,0:0:0:0:
256,192,193936,5,8,0:0:0:0:
348,192,206244,6,0,L|512:192,1,161.500003080368
232,192,206859,2,0,L|400:192,1,161.500003080368
116,192,207475,2,0,L|284:192,1,161.500003080368
0,192,208090,2,0,L|168:192,1,161.500003080368
388,192,208706,6,0,L|220:192,1,161.500003080368
500,192,209321,2,0,L|332:192,1,161.500003080368
28,192,209936,2,0,L|196:192,1,161.500003080368
500,192,210552,2,0,L|332:192,1,161.500003080368
28,192,211167,6,0,L|196:192,1,161.500003080368
28,108,211782,1,0,0:0:0:0:
336,108,212090,1,0,0:0:0:0:
84,108,212398,1,0,0:0:0:0:
392,108,212706,1,0,0:0:0:0:
136,108,213013,1,0,0:0:0:0:
444,108,213321,1,0,0:0:0:0:
188,108,213475,5,2,2:0:0:0:
256,104,215167,5,0,0:0:0:0:
124,104,215475,1,0,0:0:0:0:
388,104,215629,1,0,0:0:0:0:
240,176,215782,5,0,0:0:0:0:
205,170,215820,1,0,0:0:0:0:
171,182,215858,1,0,0:0:0:0:
147,209,215897,1,0,0:0:0:0:
138,243,215935,1,0,0:0:0:0:
146,278,215974,1,0,0:0:0:0:
170,305,216012,1,0,0:0:0:0:
204,318,216051,1,0,0:0:0:0:
464,316,216090,6,0,B|508:264|508:264|308:264,1,246.999988693238,4|8,0:0|0:0,0:0:0:0:
32,176,216552,2,0,L|284:176,1,246.999988693238
216,176,217013,1,8,0:0:0:0:
488,104,217167,2,0,L|240:104,2,246.999988693238
188,100,217936,1,0,0:0:0:0:
336,192,218141,2,0,L|504:192,1,164.666659128825
448,192,218475,1,0,0:0:0:0:
112,192,218552,6,0,B|64:232|12:340|12:340|88:340,1,246.999988693238,0|8,0:0|0:0,0:0:0:0:
400,192,219013,2,0,B|448:232|500:340|500:340|424:340,1,246.999988693238
372,332,219475,1,8,0:0:0:0:
312,340,219629,1,0,0:0:0:0:
60,100,219782,2,0,B|0:104|0:32|216:32,1,246.999988693238,0|8,0:0|0:0,0:0:0:0:
464,72,220244,2,0,L|204:112,1,246.999988693238
464,176,220706,2,0,P|496:232|488:292,1,123.499994346619,8|0,0:0|0:0,0:0:0:0:
460,288,220936,1,0,0:0:0:0:
144,280,221013,6,0,L|268:280,2,123.499994346619,4|0|8,0:0|0:0|0:0,0:0:0:0:
240,280,221475,1,0,0:0:0:0:
16,280,221629,1,0,0:0:0:0:
16,280,221936,1,8,0:0:0:0:
320,284,222090,2,0,P|368:244|384:188,1,123.499994346619
244,176,222398,2,0,P|196:136|180:80,1,123.499994346619,0|8,0:0|0:0,0:0:0:0:
448,28,222706,2,0,P|492:92|456:256,1,246.999988693238
256,244,223090,1,0,0:0:0:0:
50,249,223167,1,8,0:0:0:0:
50,249,223321,6,0,P|10:135|64:28,1,246.999988693238,4|0,0:0|0:0,0:0:0:0:
364,124,223782,2,0,L|408:240,1,123.499994346619,8|0,0:0|0:0,0:0:0:0:
148,124,224090,2,0,L|104:240,1,123.499994346619,8|0,0:0|0:0,0:0:0:0:
388,76,224398,1,0,0:0:0:0:
124,76,224552,1,0,0:0:0:0:
432,128,224706,2,0,L|352:232,1,123.499994346619,8|0,0:0|0:0,0:0:0:0:
80,128,225013,2,0,L|160:232,1,123.499994346619,8|0,0:0|0:0,0:0:0:0:
460,72,225321,5,0,0:0:0:0:
460,72,225475,2,0,L|504:128,1,61.7499971733095
328,188,225629,2,0,L|296:244,1,61.7499971733095
216,184,225782,2,8,L|176:240,1,61.7499971733095
412,348,225936,6,0,P|460:288|388:148,1,246.999988693238,4|8,0:0|0:0,0:0:0:0:
124,140,226398,2,0,L|252:140,2,123.499994346619
220,140,226859,1,8,0:0:0:0:
88,200,227013,2,0,L|348:200,2,246.999988693238
448,192,227782,1,0,0:0:0:0:
336,192,227988,1,0,0:0:0:0:
160,192,228193,1,0,0:0:0:0:
120,192,228321,1,0,0:0:0:0:
428,64,228398,6,0,B|504:104|504:104|296:124,1,285.000010871888,4|8,0:0|0:0,0:0:0:0:
64,192,228859,2,0,B|-12:232|-12:232|196:252,1,285.000010871888
504,276,229321,1,8,0:0:0:0:
64,192,229475,6,0,B|16:140|16:140|92:80|372:84,1,427.500016307831,4|0,0:0|0:0,0:0:0:0:
480,84,230090,1,0,0:0:0:0:
356,192,230244,5,0,0:0:0:0:
294,192,230320,1,0,0:0:0:0:
232,192,230397,1,0,0:0:0:0:
170,192,230474,1,0,0:0:0:0:
319,276,230552,1,8,0:0:0:0:
380,276,230628,1,8,0:0:0:0:
442,276,230705,1,8,0:0:0:0:
504,276,230782,1,8,0:0:0:0:
64,192,230859,5,4,0:0:0:0:
64,192,231013,2,0,L|192:192,2,123.499994346619,0|8|0,0:0|0:0|0:0,0:0:0:0:
356,192,231475,1,0,0:0:0:0:
356,192,231629,1,0,0:0:0:0:
116,104,231782,2,0,L|244:104,1,123.499994346619,8|0,0:0|0:0,0:0:0:0:
484,32,232090,6,0,L|232:32,1,246.999988693238,0|8,0:0|0:0,0:0:0:0:
504,104,232552,1,0,0:0:0:0:
504,104,232859,2,0,L|452:148,1,61.7499971733095
100,196,233013,1,8,0:0:0:0:
388,320,233167,6,0,P|460:288|508:128,1,246.999988693238,4|0,0:0|0:0,0:0:0:0:
232,272,233629,2,0,L|312:164,1,123.499994346619,8|0,0:0|0:0,0:0:0:0:
40,260,233936,2,0,L|120:152,1,123.499994346619,8|0,0:0|0:0,0:0:0:0:
20,136,234244,1,0,0:0:0:0:
292,96,234398,1,0,0:0:0:0:
64,28,234552,2,0,L|140:128,1,123.499994346619,8|0,0:0|0:0,0:0:0:0:
408,24,234859,2,0,L|484:124,1,123.499994346619,8|0,0:0|0:0,0:0:0:0:
184,192,235167,5,0,0:0:0:0:
146,240,235243,1,0,0:0:0:0:
123,297,235320,1,0,0:0:0:0:
119,359,235397,1,0,0:0:0:0:
396,244,235475,2,0,L|440:296,1,61.7499971733095
56,24,235629,6,0,P|12:104|60:248,1,246.999988693238,4|0,0:0|0:0,0:0:0:0:
184,256,236090,2,0,L|448:256,1,246.999988693238,8|0,0:0|0:0,0:0:0:0:
368,256,236552,1,0,0:0:0:0:
144,172,236706,2,0,L|272:172,2,123.499994346619,8|0|0,0:0|0:0|0:0,0:0:0:0:
228,172,237167,1,0,0:0:0:0:
0,172,237321,1,8,0:0:0:0:
424,56,237475,2,0,P|468:120|464:176,1,123.499994346619
436,164,237706,5,0,0:0:0:0:
228,172,237782,2,0,L|200:228,1,61.7499971733095
368,256,237936,2,0,L|400:312,1,61.7499971733095
224,300,238090,2,0,L|192:356,1,61.7499971733095
436,164,238244,5,8,0:0:0:0:
436,164,238398,1,8,0:0:0:0:
0,172,238552,1,8,0:0:0:0:
0,172,238706,1,8,0:0:0:0:
360,176,238859,1,8,0:0:0:0:
196,192,239013,1,8,0:0:0:0:
360,176,239167,1,8,0:0:0:0:
48,64,239321,1,8,0:0:0:0:
48,64,239475,6,0,L|152:64,2,95,0|2|0,0:0|0:0|0:0,0:0:0:0:
164,140,239936,2,0,L|60:140,2,95,0|2|0,0:0|0:0|0:0,0:0:0:0:
56,216,240398,1,0,0:0:0:0:
38,232,240436,1,0,0:0:0:0:
24,251,240474,1,0,0:0:0:0:
12,272,240513,1,0,0:0:0:0:
368,288,240552,1,4,1:0:0:0:
256,192,240706,12,0,245475,0:0:0:0:
