osu file format v14

[General]
AudioFilename: AKINO from bless4.mp3
AudioLeadIn: 3000
PreviewTime: 54845
Countdown: 0
SampleSet: Soft
StackLeniency: 0.7
Mode: 0
LetterboxInBreaks: 0
WidescreenStoryboard: 1

[Editor]
Bookmarks: 11768
DistanceSpacing: 1.1
BeatDivisor: 2
GridSize: 16
TimelineZoom: 1.1

[Metadata]
Title:MIIRO(TV size)
TitleUnicode:海色(TV size)
Artist:AKINO from bless4
ArtistUnicode:AKINO from bless4
Creator:sumomo301
Version:Normal
Source:艦隊これくしょん -艦これ-
Tags:kantai collection kankore opening -Yuzuriha
BeatmapID:617291
BeatmapSetID:271497

[Difficulty]
HPDrainRate:3
CircleSize:3
OverallDifficulty:3
ApproachRate:5
SliderMultiplier:0.9
SliderTickRate:1

[Events]
//Background and Video events
0,0,"BG.jpg",0,0
Video,120,"MIIRO.flv"
//Break Periods
//Storyboard Layer 0 (Background)
//Storyboard Layer 1 (Fail)
//Storyboard Layer 2 (Pass)
//Storyboard Layer 3 (Foreground)
//Storyboard Sound Samples

[TimingPoints]
384,307.692307692308,4,2,1,50,1,0
384,-100,4,2,1,70,0,0
6384,-100,4,2,1,70,0,0
16076,-100,4,2,1,50,0,0
26537,-100,4,2,1,50,0,0
36076,-100,4,2,1,50,0,0
45922,-100,4,2,1,60,0,0
54384,-100,4,2,1,60,0,0
55768,-100,4,2,1,70,0,1
79153,-100,4,2,1,70,0,0
80230,-100,4,2,1,70,0,0
85307,-100,4,2,1,30,0,0

[Colours]
Combo1 : 255,146,36
Combo2 : 49,255,49
Combo3 : 0,122,244
Combo4 : 86,3,148

[HitObjects]
295,141,691,6,0,L|373:79,2,90
271,248,1614,2,0,P|212:221|187:129,2,135
373,208,2845,2,0,P|432:235|452:333,2,135
256,192,4076,12,0,5922,0:0:0:0:
187,242,6384,6,0,P|131:195|120:100,1,135,4|8,0:0|0:0,0:0:0:0:
212,148,7153,2,0,L|304:148,1,90,2|8,0:0|0:0,0:0:0:0:
366,198,7768,2,0,L|467:198,1,90,0|8,0:0|0:0,0:0:0:0:
483,239,8230,2,0,P|478:297|437:353,1,90
419,346,8691,1,8,0:0:0:0:
370,334,8845,6,0,P|302:320|220:343,1,135,0|8,0:0|0:0,0:0:0:0:
140,343,9614,2,0,L|163:215,1,90,2|8,0:0|0:0,0:0:0:0:
70,203,10230,2,0,L|58:250,2,45,0|0|8,0:0|0:0|0:0,0:0:0:0:
85,155,10691,2,0,P|108:103|165:83,1,90
179,175,11307,6,0,P|242:191|318:170,1,135,0|8,0:0|0:0,0:0:0:0:
362,97,12076,1,2,0:0:0:0:
453,134,12384,1,8,0:0:0:0:
393,213,12691,2,0,L|382:316,1,90,0|8,0:0|0:0,0:0:0:0:
337,321,13153,2,0,B|269:305|269:305|184:326,1,135,0|8,0:0|0:0,0:0:0:0:
131,255,13922,6,0,L|226:230,2,90,0|8|2,0:0|0:0|0:0,0:0:0:0:
44,207,14845,1,8,0:0:0:0:
15,112,15153,1,0,0:0:0:0:
106,74,15460,1,8,0:0:0:0:
137,168,15768,2,0,L|179:218,1,45,4|0,0:0|0:0,0:0:0:0:
258,319,16384,6,0,P|300:311|378:338,1,90,2|0,0:0|0:0,0:0:0:0:
392,301,16845,2,0,P|436:309|479:300,1,90
506,258,17307,1,0,0:0:0:0:
500,209,17460,2,0,L|478:92,1,90
442,91,17922,1,0,0:0:0:0:
353,45,18230,1,0,0:0:0:0:
264,88,18537,2,0,L|207:88,1,45
181,120,18845,6,0,L|78:119,1,90
50,147,19307,2,0,B|30:187|30:187|45:260,1,90
81,321,19922,1,0,0:0:0:0:
201,300,20230,2,0,P|243:293|320:321,1,90
338,308,20691,2,0,P|362:259|362:208,1,90
343,179,21153,2,0,L|286:139,1,45
229,90,21614,6,0,L|98:90,2,90
267,58,22384,2,0,L|399:59,1,90
438,114,22999,2,0,L|416:225,1,90
382,234,23460,1,0,0:0:0:0:
335,250,23614,6,0,L|313:361,1,90
221,312,24230,2,0,P|148:294|91:310,1,135
56,274,24845,2,0,P|23:145|184:137,1,315
239,188,26230,5,4,0:0:0:0:
327,144,26537,2,0,L|346:237,2,90
329,94,27307,2,0,P|262:106|231:98,1,90
206,66,27768,1,0,0:0:0:0:
156,64,27922,2,0,P|102:59|44:80,1,90
35,105,28384,1,0,0:0:0:0:
31,154,28537,6,0,L|57:253,1,90
79,284,28999,1,0,0:0:0:0:
127,295,29153,2,0,P|179:291|238:314,1,90,8|2,0:0|0:0,0:0:0:0:
314,302,29768,2,0,P|367:242|299:198,1,180
254,212,30537,2,0,P|237:157|244:72,1,135,2|0,0:0|0:0,0:0:0:0:
273,42,31153,6,0,P|195:61|90:41,1,180,4|2,0:0|0:0,0:0:0:0:
0,32,32076,1,8,0:0:0:0:
41,122,32384,2,0,L|70:289,1,135
90,297,32999,2,0,B|160:295|160:295|237:256,1,135,2|0,0:0|0:0,0:0:0:0:
248,226,33614,6,0,P|285:126|412:115,1,225,4|0,0:0|0:0,0:0:0:0:
471,164,34691,1,0,0:0:0:0:
415,246,34999,1,0,0:0:0:0:
359,328,35307,1,0,0:0:0:0:
260,334,35614,2,0,P|195:317|124:338,1,135,0|4,0:0|0:0,0:0:0:0:
41,157,36691,6,0,P|115:170|186:156,1,135
201,119,37307,2,0,P|271:107|365:139,2,135
183,216,38537,2,0,P|117:229|51:217,2,135
281,229,39768,2,0,P|292:293|270:364,2,135,0|0|2,0:0|0:0|0:0,0:0:0:0:
255,133,40999,5,0,0:0:0:0:
196,53,41307,2,0,P|132:41|20:97,1,180
71,176,42230,2,0,L|26:315,2,135
164,209,43460,2,0,L|209:70,2,135
183,306,44691,2,0,P|252:331|320:287,2,135,0|0|2,0:0|0:0|0:0,0:0:0:0:
148,213,45922,6,0,L|44:196,1,90,4|8,0:0|0:0,0:0:0:0:
29,112,46537,2,0,L|117:126,1,90,2|8,0:0|0:0,0:0:0:0:
217,131,47153,2,0,P|225:78|258:28,1,90,0|8,0:0|0:0,0:0:0:0:
328,95,47768,2,0,L|377:152,1,45,2|0,0:0|0:0,0:0:0:0:
421,205,48230,1,0,0:0:0:0:
399,301,48537,6,0,L|428:335,2,45,0|8|0,0:0|0:0|0:0,0:0:0:0:
354,279,48999,2,0,P|303:271|237:289,1,90,2|8,0:0|0:0,0:0:0:0:
177,322,49614,2,0,P|132:327|88:319,1,90,0|8,0:0|0:0,0:0:0:0:
40,232,50230,1,0,0:0:0:0:
40,232,50384,2,0,L|57:103,1,90,2|8,0:0|0:0,0:0:0:0:
74,98,50845,6,0,P|54:53|16:21,2,90
171,116,51768,2,0,P|171:160|190:201,2,90,8|0|8,0:0|0:0|0:0,0:0:0:0:
133,84,52537,2,0,L|102:117,2,45,0|2|0,0:0|0:0|0:0,0:0:0:0:
218,32,53153,6,0,B|291:15|424:51|462:197|418:293,1,360,0|4,0:0|0:0,0:0:0:0:
430,253,55768,6,0,P|390:280|332:286,1,90,4|8,0:0|0:0,0:0:0:0:
300,281,56230,1,0,0:0:0:0:
217,227,56537,2,0,P|201:263|218:344,2,90
240,130,57460,1,0,0:0:0:0:
240,130,57614,2,0,P|190:120|118:137,2,90,2|8|0,0:0|0:0|0:0,0:0:0:0:
324,78,58537,6,0,P|374:88|446:71,1,90,0|2,0:0|0:0,0:0:0:0:
458,64,58999,1,0,0:0:0:0:
471,162,59307,2,0,L|429:309,1,135,0|8,0:0|0:0,0:0:0:0:
339,321,60076,2,0,P|292:329|226:314,1,90,8|8,0:0|0:0,0:0:0:0:
164,274,60691,5,0,0:0:0:0:
122,184,60999,2,0,P|163:179|212:188,1,90,8|0,0:0|0:0,0:0:0:0:
300,228,61614,1,8,0:0:0:0:
361,149,61922,1,0,0:0:0:0:
316,60,62230,1,8,0:0:0:0:
316,60,62384,2,0,P|363:53|413:65,1,90
472,133,62999,6,0,L|456:233,1,90
440,268,63460,2,0,B|401:247|401:247|349:247,1,90,8|2,0:0|0:0,0:0:0:0:
273,302,64076,2,0,B|227:302|227:302|188:281,1,90,8|4,0:0|0:0,0:0:0:0:
118,211,64691,1,0,0:0:0:0:
136,113,64999,2,0,L|186:138,1,45,8|0,0:0|0:0,0:0:0:0:
296,221,65614,6,0,P|342:231|415:214,1,90,4|8,0:0|0:0,0:0:0:0:
429,204,66076,2,0,P|472:236|485:296,1,90
390,300,66691,1,0,0:0:0:0:
294,337,66999,1,0,0:0:0:0:
202,303,67307,2,0,P|156:295|105:302,1,90
64,305,67768,1,8,0:0:0:0:
38,209,68076,6,0,P|20:137|37:60,1,135
127,60,68845,1,0,0:0:0:0:
196,131,69153,2,0,P|267:141|345:126,1,135,0|8,0:0|0:0,0:0:0:0:
409,73,69922,2,0,P|428:114|424:169,1,90,2|8,0:0|0:0,0:0:0:0:
375,297,70691,6,0,P|338:323|283:330,1,90
252,305,71153,2,0,P|206:293|133:315,1,90,2|8,0:0|0:0,0:0:0:0:
85,239,71768,2,0,P|71:187|77:113,1,90,0|8,0:0|0:0,0:0:0:0:
97,109,72230,2,0,P|143:121|216:99,1,90
271,67,72845,6,0,P|315:61|358:73,1,90
399,102,73307,2,0,P|396:146|384:189,1,90,8|2,0:0|0:0,0:0:0:0:
300,242,73922,2,0,L|208:242,1,90,8|4,0:0|0:0,0:0:0:0:
123,193,74537,2,0,L|33:193,1,90,0|2,0:0|0:0,0:0:0:0:
16,240,74999,2,0,P|9:284|18:328,1,90
152,301,75768,6,0,P|199:293|276:320,1,90,0|2,0:0|0:0,0:0:0:0:
338,284,76384,1,8,0:0:0:0:
405,211,76691,2,0,P|418:145|407:72,2,135,0|0|8,0:0|0:0|0:0,0:0:0:0:
306,204,77922,2,0,P|234:191|154:208,2,135,0|0|8,0:0|0:0|0:0,0:0:0:0:
256,192,80230,12,0,85307,0:0:0:0:
