osu file format v14

[General]
AudioFilename: Wheee.mp3
AudioLeadIn: 0
PreviewTime: 55757
Countdown: 0
SampleSet: Soft
StackLeniency: 0.7
Mode: 0
LetterboxInBreaks: 0
WidescreenStoryboard: 0

[Editor]
Bookmarks: 12307,72532
DistanceSpacing: 1
BeatDivisor: 4
GridSize: 8
TimelineZoom: 4.299998

[Metadata]
Title:MIIRO
TitleUnicode:海色
Artist:AKINO from bless4
ArtistUnicode:AKINO from bless4
Creator:xChippy
Version:Easy
Source:艦隊これくしょん -艦これ-
Tags:Kantai Collection Kancolle opening op jonathanlfj nyquill oyatsu natsu kibbleru
BeatmapID:643921
BeatmapSetID:268851

[Difficulty]
HPDrainRate:2
CircleSize:3
OverallDifficulty:2
ApproachRate:3
SliderMultiplier:0.899999999999999
SliderTickRate:1

[Events]
//Background and Video events
0,0,"KancolleBG.jpg",0,0
//Break Periods
2,37187,42932
2,111033,116778
2,157803,158625
2,196988,205394
//Storyboard Layer 0 (Background)
//Storyboard Layer 1 (Fail)
//Storyboard Layer 2 (Pass)
//Storyboard Layer 3 (Foreground)
//Storyboard Sound Samples

[TimingPoints]
65,307.692307692308,4,2,1,40,1,0
1296,-100,4,2,1,40,0,0
6834,-100,4,2,1,40,0,0
7296,-100,4,2,2,80,0,0
7757,-100,4,2,2,80,0,0
17296,-100,4,2,1,40,0,0
27141,-100,4,2,2,70,0,0
36526,-100,4,2,2,60,0,0
36988,-100,4,2,2,40,0,0
44372,-100,4,2,1,40,0,0
45603,-100,4,2,2,40,0,0
46526,-100,4,2,2,40,0,0
46834,-100,4,2,2,70,0,0
51449,-100,4,2,2,50,0,0
51757,-100,4,2,2,70,0,0
56680,-100,4,2,2,90,0,1
76218,-100,4,2,2,90,0,0
78834,-100,4,2,2,50,0,0
79296,-100,4,2,2,70,0,0
79757,-100,4,2,2,90,0,0
80065,-100,4,2,1,50,0,0
81142,-100,4,2,2,50,0,0
86372,-100,4,2,2,70,0,0
91141,-100,4,2,2,80,0,0
110834,-100,4,2,2,40,0,0
113295,-100,4,2,1,40,0,0
115449,-100,4,2,2,40,0,0
117911,-100,4,2,1,40,0,0
119449,-100,4,2,2,40,0,0
120680,-100,4,2,2,70,0,0
125603,-100,4,2,2,70,0,0
130526,-100,4,2,2,90,0,1
150218,-100,4,2,2,90,0,0
152680,-100,4,2,2,50,0,0
153142,-100,4,2,2,70,0,0
153603,-100,4,2,2,90,0,0
153911,-100,4,2,1,50,0,0
154680,-100,4,2,1,50,0,0
154988,-100,4,2,1,70,0,0
163757,-100,4,2,2,70,0,0
164988,-100,4,2,2,70,0,0
184680,-100,4,2,2,70,0,0
189142,-100,4,2,2,70,0,0
189603,-100,4,2,2,70,0,0
194526,-100,4,2,2,30,0,0
194680,-100,4,2,2,5,0,0
206834,-100,4,2,2,35,0,0
209296,-100,4,2,1,35,0,0
209603,-100,4,2,2,35,0,0
211757,-100,4,2,2,65,0,0
214219,-100,4,2,2,25,0,0
216680,-100,4,2,2,95,0,1
230603,-100,4,2,1,65,0,1
230834,-100,4,2,2,95,0,1
236218,-100,4,2,2,75,0,0
238834,-100,4,2,2,50,0,0
239142,-100,4,2,2,70,0,0
239449,-100,4,2,2,90,0,0
239757,-100,4,2,2,95,0,0
240065,-100,4,2,1,55,0,0
240834,-100,4,2,1,65,0,0
241142,-100,4,2,2,75,0,0
246065,-100,4,2,2,75,0,0

[Colours]
Combo1 : 210,210,210
Combo2 : 121,121,255
Combo3 : 176,211,255

[HitObjects]
63,127,1295,6,0,P|108:119|157:102,1,89.9999999999999,2|0,0:0|0:0,0:0:0:0:
226,152,1911,2,0,P|271:140|330:131,1,89.9999999999999,0|0,0:0|0:0,0:0:0:0:
390,179,2526,6,0,P|401:251|361:305,2,135,2|0|2,0:0|0:0|0:0,0:0:0:0:
315,228,3757,2,0,P|248:232|174:248,2,135,2|0|0,0:0|0:0|0:0,0:0:0:0:
389,179,4988,6,0,P|436:180|478:189,2,89.9999999999999,0|2|2,0:0|0:0|0:0,0:0:0:0:
307,140,5911,1,0,0:0:0:0:
227,98,6218,2,0,P|215:53|223:6,1,89.9999999999999,2|2,0:0|0:0,0:0:0:0:
132,26,6834,2,0,L|74:19,1,45
23,84,7295,6,0,P|58:179|47:311,1,225,14|2,0:0|0:0,0:0:0:0:
117,360,8372,1,8,0:0:0:0:
180,296,8680,2,0,P|244:284|327:288,1,135,2|0,0:0|0:0,0:0:0:0:
399,313,9449,2,0,P|444:317|506:309,1,89.9999999999999,2|6,0:0|0:0,0:0:0:0:
382,225,10218,6,0,P|366:170|368:127,1,89.9999999999999,8|2,0:0|0:0,0:0:0:0:
366,46,10834,1,8,0:0:0:0:
288,90,11141,2,0,P|228:107|156:99,1,135,2|0,0:0|0:0,0:0:0:0:
73,62,11911,2,0,L|78:172,1,89.9999999999999,2|4,0:0|0:0,0:0:0:0:
110,282,12680,5,8,0:0:0:0:
186,234,12988,2,0,P|233:227|290:226,1,89.9999999999999,2|8,0:0|0:0,0:0:0:0:
339,289,13603,2,0,P|314:236|326:159,1,135,2|0,0:0|0:0,0:0:0:0:
388,98,14372,1,2,0:0:0:0:
252,109,14834,6,0,P|204:106|150:100,1,89.9999999999999,8|8,0:0|0:0,0:0:0:0:
119,180,15449,2,0,P|72:186|15:196,1,89.9999999999999,8|2,0:0|0:0,0:0:0:0:
4,279,16065,2,0,B|79:266|132:309|132:309|80:320,1,180,8|12,0:0|0:0,0:0:0:0:
256,251,17295,6,0,P|283:166|276:63,1,180,2|0,0:0|0:0,0:0:0:0:
151,203,18526,2,0,P|146:272|179:344,2,135,0|2|0,0:0|0:0|0:0,0:0:0:0:
193,123,19757,6,0,L|392:112,1,180,2|0,0:0|0:0,0:0:0:0:
215,25,20988,2,0,L|66:31,2,135,0|2|0,0:0|0:0|0:0,0:0:0:0:
254,105,22218,6,0,L|246:297,1,180,2|0,0:0|0:0,0:0:0:0:
408,206,23449,2,0,L|392:54,2,135,0|2|2,0:0|0:0|0:0,0:0:0:0:
387,293,24680,6,0,P|347:325|235:261,1,180,0|0,0:0|0:0,0:0:0:0:
156,312,25603,1,2,0:0:0:0:
75,271,25911,6,0,B|89:210|89:210|63:157|63:157|90:101|90:101|59:52|59:52|121:69|177:50,1,360,2|6,0:0|0:0,0:0:0:0:
256,88,27449,5,8,0:0:0:0:
341,53,27757,2,0,P|381:101|373:181,2,135,2|2|8,0:0|0:0|0:0,0:0:0:0:
296,131,28988,2,0,P|249:138|197:135,1,89.9999999999999,2|8,0:0|0:0,0:0:0:0:
142,198,29603,6,0,P|96:191|46:187,1,89.9999999999999,2|8,0:0|0:0,0:0:0:0:
0,264,30218,2,0,P|6:328|61:368,2,135,2|2|8,0:0|0:0|0:0,0:0:0:0:
87,285,31449,2,0,P|156:290|268:267,1,180,2|4,0:0|0:0,0:0:0:0:
345,230,32372,5,8,0:0:0:0:
281,166,32680,2,0,P|270:120|277:71,1,89.9999999999999,2|8,0:0|0:0,0:0:0:0:
186,93,33295,2,0,P|82:77|45:15,1,180,0|2,0:0|0:0,0:0:0:0:
6,194,34526,6,0,P|110:210|147:272,1,180,4|2,0:0|0:0,0:0:0:0:
260,346,35603,2,0,L|356:340,2,89.9999999999999,2|2|6,0:0|0:0|0:0,0:0:0:0:
171,328,36526,6,0,P|141:266|166:194,1,135,2|4,0:0|0:0,0:0:0:0:
211,258,44372,6,0,P|145:271|76:255,2,135,2|2|2,0:0|0:0|0:0,0:0:0:0:
274,194,45603,2,0,L|280:48,2,135,10|8|4,0:0|3:0|3:0,0:0:0:0:
210,257,46834,6,0,L|215:353,1,89.9999999999999,6|2,0:0|0:0,0:0:0:0:
304,346,47449,2,0,P|348:333|399:328,1,89.9999999999999,2|2,0:0|0:0,0:0:0:0:
473,289,48065,2,0,P|468:229|460:193,1,89.9999999999999,2|2,0:0|0:0,0:0:0:0:
376,170,48680,2,0,P|320:202|232:130,1,180,2|2,0:0|0:0,0:0:0:0:
170,78,49603,5,2,0:0:0:0:
106,141,49911,2,0,P|106:189|116:238,1,89.9999999999999,2|2,0:0|0:0,0:0:0:0:
177,293,50526,2,0,P|221:284|277:287,1,89.9999999999999,2|2,0:0|0:0,0:0:0:0:
329,348,51141,2,0,P|281:285|304:192,1,180,2|8,0:0|0:0,0:0:0:0:
256,115,52065,5,8,0:0:0:0:
192,178,52372,2,0,L|87:172,1,89.9999999999999,8|2,0:0|0:0,0:0:0:0:
63,254,52988,2,0,L|170:261,1,89.9999999999999,2|8,0:0|0:0,0:0:0:0:
216,323,53603,2,0,B|263:338|263:338|314:286|396:315,1,180,2|6,0:0|0:0,0:0:0:0:
256,192,54372,12,4,55295,0:0:0:0:
191,114,56680,6,0,L|50:104,2,135,6|0|8,0:0|0:0|0:0,0:0:0:0:
275,144,57911,2,0,L|371:136,1,89.9999999999999,2|8,0:0|0:0,0:0:0:0:
414,211,58526,2,0,P|414:259|426:306,1,89.9999999999999,2|8,0:0|0:0,0:0:0:0:
359,363,59141,6,0,P|305:348|210:363,1,135,6|0,0:0|0:0,0:0:0:0:
136,356,59911,1,0,0:0:0:0:
104,272,60218,2,0,P|112:224|96:120,1,135,0|8,0:0|0:0,0:0:0:0:
80,50,60988,2,0,P|128:48|181:38,1,89.9999999999999,2|8,0:0|0:0,0:0:0:0:
206,123,61603,6,0,P|296:109|404:111,1,180,6|2,0:0|0:0,0:0:0:0:
448,172,62526,1,8,0:0:0:0:
384,235,62834,2,0,P|368:275|468:364,1,180,2|8,0:0|3:0,0:0:0:0:
321,317,63911,6,0,P|249:306|177:301,1,135,4|8,0:0|0:0,0:0:0:0:
106,260,64680,2,0,P|97:222|101:166,1,89.9999999999999,8|2,0:0|0:0,0:0:0:0:
189,171,65295,2,0,P|234:176|295:162,1,89.9999999999999,8|8,0:0|0:0,0:0:0:0:
341,232,65911,2,0,P|387:223|447:221,1,89.9999999999999,8|10,0:0|0:0,0:0:0:0:
396,304,66526,6,0,P|300:314|269:289,2,135,6|0|8,0:0|0:0|0:0,0:0:0:0:
473,258,67757,2,0,P|478:191|484:160,1,89.9999999999999,2|8,0:0|0:0,0:0:0:0:
395,152,68372,2,0,P|384:80|378:53,1,89.9999999999999,2|8,0:0|0:0,0:0:0:0:
298,100,68988,6,0,P|232:120|156:88,1,135,6|0,0:0|0:0,0:0:0:0:
91,57,69757,1,0,0:0:0:0:
74,145,70065,2,0,B|72:200|72:200|81:226|81:226|79:289,1,135,2|8,0:0|0:0,0:0:0:0:
143,342,70834,2,0,P|188:332|237:320,1,89.9999999999999,2|10,0:0|0:0,0:0:0:0:
316,347,71449,6,0,P|395:349|500:364,1,180,4|2,0:0|0:0,0:0:0:0:
431,299,72372,1,8,0:0:0:0:
367,235,72680,2,0,P|341:167|377:70,1,180,2|2,0:0|0:0,0:0:0:0:
261,144,73757,6,0,P|196:160|116:147,1,135,6|8,0:0|0:0,0:0:0:0:
51,198,74526,2,0,P|41:161|39:94,1,89.9999999999999,8|2,0:0|0:0,0:0:0:0:
108,50,75141,2,0,P|166:48|210:35,1,89.9999999999999,2|8,0:0|0:0,0:0:0:0:
282,69,75757,2,0,P|351:70|422:81,1,135,2|6,0:0|0:0,0:0:0:0:
381,210,76680,6,0,P|389:259|389:314,1,89.9999999999999,8|2,0:0|0:0,0:0:0:0:
331,365,77295,1,8,0:0:0:0:
252,325,77603,2,0,P|188:314|105:313,2,135,2|0|8,0:0|0:0|0:0,0:0:0:0:
315,261,78834,6,0,P|283:215|228:157,2,135,12|8|8,0:0|0:0|0:0,0:0:0:0:
392,306,80065,1,2,0:0:0:0:
256,64,81141,1,14,0:0:0:0:
256,192,81295,12,4,86065,0:0:0:0:
176,128,87449,6,0,P|128:144|36:120,2,135,2|0|8,0:0|0:0|0:0,0:0:0:0:
253,82,88680,2,0,P|296:76|357:74,1,89.9999999999999,8|8,0:0|0:0,0:0:0:0:
406,137,89295,2,0,P|466:143|513:155,1,89.9999999999999,8|8,0:0|0:0,0:0:0:0:
494,239,89911,6,0,B|414:236|368:288|368:288|342:223|256:222,1,270,8|2,0:0|0:0,0:0:0:0:
183,184,91141,6,0,P|167:232|159:336,1,135,6|0,0:0|0:0,0:0:0:0:
76,354,91911,2,0,P|74:306|68:250,1,89.9999999999999,2|2,0:0|0:0,0:0:0:0:
87,176,92526,2,0,P|90:148|97:117,1,45,2|8,0:0|0:0,0:0:0:0:
172,88,92988,2,0,P|220:96|276:88,1,89.9999999999999,2|8,0:0|0:0,0:0:0:0:
324,28,93603,6,0,P|308:84|329:173,1,135,2|0,0:0|0:0,0:0:0:0:
384,222,94372,1,2,0:0:0:0:
298,249,94680,2,0,P|234:249|154:217,1,135,2|8,0:0|0:0,0:0:0:0:
87,184,95449,1,2,0:0:0:0:
41,105,95757,1,8,0:0:0:0:
125,73,96065,6,0,B|168:63|168:63|270:83,1,135,6|0,0:0|0:0,0:0:0:0:
334,126,96834,2,0,L|430:118,1,89.9999999999999,2|2,0:0|0:0,0:0:0:0:
487,182,97449,2,0,L|495:246,1,45,2|8,0:0|0:0,0:0:0:0:
428,290,97911,2,0,P|385:280|331:284,1,89.9999999999999,2|8,0:0|0:0,0:0:0:0:
254,246,98526,6,0,P|194:269|112:260,1,135,2|0,0:0|0:0,0:0:0:0:
38,231,99295,1,2,0:0:0:0:
38,140,99603,2,0,P|93:91|174:188,1,225,6|2,0:0|0:0,0:0:0:0:
303,55,100988,6,0,L|407:47,1,89.9999999999999,6|8,0:0|0:0,0:0:0:0:
445,121,101603,2,0,B|440:213|440:213|397:233,2,135,2|6|8,0:0|0:0|0:0,0:0:0:0:
358,147,102834,2,0,P|313:144|270:129,1,89.9999999999999,2|8,0:0|0:0,0:0:0:0:
193,175,103449,6,0,P|145:180|91:195,1,89.9999999999999,2|8,0:0|0:0,0:0:0:0:
60,268,104065,2,0,P|16:210|23:147,2,135,2|2|8,0:0|0:0|0:0,0:0:0:0:
146,293,105295,2,0,L|242:287,1,89.9999999999999,2|8,0:0|0:0,0:0:0:0:
296,352,105911,6,0,P|387:336|480:332,1,180,2|2,0:0|0:0,0:0:0:0:
318,242,107141,2,0,P|228:237|139:221,1,180,0|2,0:0|0:0,0:0:0:0:
62,175,108065,1,8,0:0:0:0:
93,91,108372,6,0,P|143:39|256:63,1,180,10|10,0:0|0:0,0:0:0:0:
338,146,109449,2,0,L|437:137,2,89.9999999999999,2|2|4,0:0|0:0|0:0,0:0:0:0:
258,187,110372,6,0,L|112:178,1,135,2|4,0:0|0:0,0:0:0:0:
213,209,118218,6,0,P|122:194|64:189,2,135,2|2|2,0:0|0:0|0:0,0:0:0:0:
297,241,119449,2,0,P|365:226|434:220,2,135,10|2|2,0:0|0:0|0:0,0:0:0:0:
220,289,120680,6,0,P|217:345|224:381,1,89.9999999999999,12|2,0:0|0:0,0:0:0:0:
135,359,121295,2,0,P|127:287|119:263,1,89.9999999999999,2|2,0:0|0:0,0:0:0:0:
47,218,121911,1,2,0:0:0:0:
78,134,122218,1,2,0:0:0:0:
155,180,122526,2,0,P|211:180|280:80,1,180,2|2,0:0|0:0,0:0:0:0:
343,24,123449,5,2,0:0:0:0:
392,99,123757,2,0,P|397:143|397:195,1,89.9999999999999,2|2,0:0|0:0,0:0:0:0:
363,272,124372,2,0,P|317:260|271:256,1,89.9999999999999,2|2,0:0|0:0,0:0:0:0:
184,256,124988,1,2,0:0:0:0:
135,331,125295,1,0,1:0:0:0:
71,267,125603,6,0,L|55:171,1,89.9999999999999,12|8,0:0|0:0,0:0:0:0:
141,150,126218,2,0,L|149:46,1,89.9999999999999,8|2,0:0|0:0,0:0:0:0:
230,96,126834,2,0,P|321:107|400:58,1,180,2|2,0:0|0:0,0:0:0:0:
331,233,128065,6,0,P|301:318|465:304,1,315,6|6,0:0|0:0,0:0:0:0:
381,300,129449,2,0,B|325:316|325:316|245:292,1,135,8|8,0:0|0:0,0:0:0:0:
172,250,130218,1,8,0:0:0:0:
211,168,130526,6,0,P|277:147|350:153,2,135,4|0|8,0:0|0:0|0:0,0:0:0:0:
123,146,131757,2,0,P|116:96|121:46,1,89.9999999999999,2|8,0:0|0:0,0:0:0:0:
33,85,132372,2,0,P|34:137|24:192,1,89.9999999999999,2|8,0:0|0:0,0:0:0:0:
51,261,132988,6,0,B|90:284|90:284|186:262,1,135,2|0,0:0|0:0,0:0:0:0:
265,244,133757,1,0,0:0:0:0:
328,180,134065,2,0,P|320:228|328:316,1,135,0|8,0:0|0:0,0:0:0:0:
411,281,134834,2,0,P|457:269|514:263,1,89.9999999999999,2|8,0:0|0:0,0:0:0:0:
450,187,135449,6,0,P|412:121|422:5,1,180,6|2,0:0|0:0,0:0:0:0:
327,38,136372,1,8,0:0:0:0:
247,79,136680,2,0,P|183:103|95:47,1,180,2|2,0:0|0:0,0:0:0:0:
18,158,137757,6,0,L|26:295,1,135,6|8,0:0|0:0,0:0:0:0:
99,345,138526,1,8,0:0:0:0:
185,320,138834,1,8,0:0:0:0:
269,288,139141,2,0,L|261:192,1,89.9999999999999,8|8,0:0|0:0,0:0:0:0:
171,198,139757,2,0,L|180:95,1,89.9999999999999,8|10,0:0|0:0,0:0:0:0:
263,76,140372,6,0,B|352:69|352:69|403:80,2,135,6|0|8,0:0|0:0|0:0,0:0:0:0:
177,105,141603,2,0,L|81:96,1,89.9999999999999,2|8,0:0|0:0,0:0:0:0:
23,160,142218,2,0,P|29:213|30:255,1,89.9999999999999,2|8,0:0|0:0,0:0:0:0:
93,313,142834,6,0,P|146:283|236:289,1,135,2|0,0:0|0:0,0:0:0:0:
296,328,143603,1,0,0:0:0:0:
359,264,143911,2,0,P|367:208|343:120,1,135,0|8,0:0|0:0,0:0:0:0:
262,157,144680,2,0,P|215:158|157:135,1,89.9999999999999,2|10,0:0|0:0,0:0:0:0:
147,59,145295,6,0,L|140:255,1,180,4|2,0:0|0:0,0:0:0:0:
76,302,146218,1,8,0:0:0:0:
27,226,146526,2,0,L|34:30,1,180,2|2,0:0|0:0,0:0:0:0:
164,78,147603,6,0,L|318:66,1,135,6|8,0:0|0:0,0:0:0:0:
375,114,148372,2,0,L|420:118|478:124,1,89.9999999999999,8|2,0:0|0:0,0:0:0:0:
489,209,148988,1,2,0:0:0:0:
405,241,149295,1,8,0:0:0:0:
318,266,149603,2,0,P|278:266|190:210,1,135,2|4,0:0|0:0,0:0:0:0:
64,244,150526,6,0,P|65:201|74:146,1,89.9999999999999,8|2,0:0|0:0,0:0:0:0:
136,88,151141,1,8,0:0:0:0:
215,130,151449,2,0,P|263:138|348:110,2,135,2|0|8,0:0|0:0|0:0,0:0:0:0:
136,88,152680,6,0,P|88:80|3:108,2,135,12|8|8,0:0|0:0|0:0,0:0:0:0:
256,280,154988,1,4,0:0:0:0:
256,192,155141,12,4,157603,0:0:0:0:
80,72,160065,6,0,L|90:257,1,180,4|0,0:0|0:0,0:0:0:0:
256,320,161295,2,0,L|246:135,1,180,4|0,0:0|0:0,0:0:0:0:
411,69,162526,6,0,L|420:248,1,180,4|4,0:0|0:0,0:0:0:0:
271,349,163757,2,0,P|207:365|119:285,1,180,2|8,0:0|0:0,0:0:0:0:
101,211,164680,1,8,0:0:0:0:
164,147,164988,6,0,L|348:130,1,180,4|8,0:0|0:0,0:0:0:0:
421,175,165911,2,0,L|421:231,1,45,2|2,0:0|0:0,0:0:0:0:
376,298,166372,2,0,P|329:301|237:259,1,135,2|2,0:0|0:0,0:0:0:0:
90,356,167449,6,0,P|65:293|82:174,1,180,2|8,0:0|0:0,0:0:0:0:
141,119,168372,2,0,L|192:120,1,45,2|2,0:0|0:0,0:0:0:0:
272,163,168834,2,0,B|322:162|322:162|359:177|359:177|413:178,1,135,2|2,0:0|0:0,0:0:0:0:
456,248,169603,1,8,0:0:0:0:
392,311,169911,6,0,P|303:327|220:287,1,180,2|8,0:0|0:0,0:0:0:0:
198,204,170834,2,0,L|196:159,1,45,2|2,0:0|0:0,0:0:0:0:
282,135,171295,2,0,L|285:-9,1,135,2|2,0:0|0:0,0:0:0:0:
196,159,172372,6,0,P|126:160|60:75,1,180,2|8,0:0|0:0,0:0:0:0:
0,150,173295,2,0,L|8:256,1,89.9999999999999,2|0,0:0|0:0,0:0:0:0:
74,301,173911,2,0,P|120:306|170:287,1,89.9999999999999,8|2,0:0|0:0,0:0:0:0:
323,212,174834,6,0,P|405:175|493:159,1,180,6|8,0:0|0:0,0:0:0:0:
452,79,175757,2,0,P|443:55|441:24,1,45,2|2,0:0|0:0,0:0:0:0:
362,80,176218,2,0,P|293:84|229:64,1,135,2|2,0:0|0:0,0:0:0:0:
57,15,177295,6,0,P|92:75|67:179,1,180,2|8,0:0|0:0,0:0:0:0:
4,241,178218,2,0,L|4:295,1,45,2|2,0:0|0:0,0:0:0:0:
67,349,178680,2,0,P|134:328|205:318,1,135,2|2,0:0|0:0,0:0:0:0:
286,300,179449,1,8,0:0:0:0:
349,363,179757,6,0,P|333:315|373:179,1,180,6|8,0:0|0:0,0:0:0:0:
282,149,180680,2,0,L|221:144,1,45,2|2,0:0|0:0,0:0:0:0:
156,184,181141,2,0,B|2:171,1,135,2|2,0:0|0:0,0:0:0:0:
61,91,181911,1,8,0:0:0:0:
147,68,182218,6,0,P|242:118|229:272,2,270,2|2|2,0:0|0:0|0:0,0:0:0:0:
19,195,184680,5,6,0:0:0:0:
166,294,185295,1,2,0:0:0:0:
346,294,185911,1,2,0:0:0:0:
493,195,186526,2,0,P|503:147|493:99,1,89.9999999999999,2|2,0:0|0:0,0:0:0:0:
432,43,187141,5,2,0:0:0:0:
251,43,187757,1,2,0:0:0:0:
251,222,188372,1,2,0:0:0:0:
431,222,188988,2,0,B|443:171|443:171|431:118,1,89.9999999999999,2|2,0:0|0:0,0:0:0:0:
370,70,189603,6,0,P|323:67|274:57,1,89.9999999999999,2|2,0:0|0:0,0:0:0:0:
257,145,190218,2,0,P|201:142|149:148,1,89.9999999999999,2|2,0:0|0:0,0:0:0:0:
79,166,190834,2,0,P|71:230|71:262,1,89.9999999999999,2|2,0:0|0:0,0:0:0:0:
157,230,191449,2,0,P|161:280|163:337,1,89.9999999999999,2|2,0:0|0:0,0:0:0:0:
246,353,192065,6,0,P|313:297|399:311,1,180,2|2,0:0|0:0,0:0:0:0:
482,276,192988,1,2,0:0:0:0:
435,201,193295,2,0,P|411:161|443:25,1,180,2|2,0:0|0:0,0:0:0:0:
258,82,194526,6,0,L|210:74,1,45
191,43,206834,6,0,L|184:140,1,89.9999999999999,8|2,3:0|0:0,0:0:0:0:
84,282,207757,1,2,0:0:0:0:
257,328,208372,1,2,0:0:0:0:
428,282,208988,1,2,0:0:0:0:
364,218,209295,6,0,L|368:122,1,89.9999999999999,2|2,0:0|0:0,0:0:0:0:
204,51,210218,1,2,0:0:0:0:
88,192,210834,1,2,0:0:0:0:
204,333,211449,1,2,0:0:0:0:
267,269,211757,6,0,L|361:263,1,89.9999999999999,2|2,0:0|0:0,0:0:0:0:
420,199,212372,2,0,P|417:151|414:104,1,89.9999999999999,2|2,0:0|0:0,0:0:0:0:
329,138,212988,2,0,P|265:144|226:141,1,89.9999999999999,2|2,0:0|0:0,0:0:0:0:
175,206,213603,2,0,P|127:207|83:211,1,89.9999999999999,2|2,0:0|0:0,0:0:0:0:
50,293,214218,6,0,B|255:373|255:197|484:302,1,449.999999999999,0|0,0:0|0:0,0:0:0:0:
338,75,216680,6,0,P|272:54|199:60,2,135,4|0|8,0:0|0:0|0:0,0:0:0:0:
386,150,217911,2,0,P|388:194|381:239,1,89.9999999999999,2|8,0:0|0:0,0:0:0:0:
298,204,218526,2,0,P|297:256|307:311,1,89.9999999999999,2|8,0:0|0:0,0:0:0:0:
226,342,219142,6,0,B|138:321|138:321|99:344,1,135,2|0,0:0|0:0,0:0:0:0:
35,281,219911,1,0,0:0:0:0:
98,217,220219,2,0,P|106:169|98:81,1,135,0|8,0:0|0:0,0:0:0:0:
185,61,220988,2,0,P|188:124|204:166,1,89.9999999999999,2|8,0:0|0:0,0:0:0:0:
234,230,221603,6,0,P|310:186|402:205,1,180,6|2,0:0|0:0,0:0:0:0:
438,282,222526,1,8,0:0:0:0:
352,309,222834,2,0,B|321:269|321:269|305:131,1,180,2|2,0:0|0:0,0:0:0:0:
210,44,223911,6,0,L|205:182,1,135,6|8,0:0|0:0,0:0:0:0:
141,242,224680,1,8,0:0:0:0:
204,305,224988,1,8,0:0:0:0:
271,242,225295,2,0,L|367:234,1,89.9999999999999,8|8,0:0|0:0,0:0:0:0:
400,153,225911,2,0,L|303:141,1,89.9999999999999,8|10,0:0|0:0,0:0:0:0:
220,141,226526,6,0,B|210:96|210:96|217:7,2,135,4|0|8,0:0|0:0|0:0,0:0:0:0:
177,220,227757,2,0,B|131:224|131:224|81:211,1,89.9999999999999,2|8,0:0|0:0,0:0:0:0:
24,276,228372,2,0,B|20:322|20:322|24:371,1,89.9999999999999,2|8,0:0|0:0,0:0:0:0:
113,365,228988,6,0,P|166:335|256:341,1,135,6|0,0:0|0:0,0:0:0:0:
327,352,229757,1,0,0:0:0:0:
394,291,230065,2,0,P|402:235|378:147,1,135,0|8,0:0|0:0,0:0:0:0:
313,106,230834,2,0,L|205:103,1,89.9999999999999,2|10,0:0|0:0,0:0:0:0:
189,19,231449,6,0,L|182:215,1,180,6|2,0:0|0:0,0:0:0:0:
232,273,232372,1,8,0:0:0:0:
295,209,232680,2,0,L|302:13,1,180,2|2,0:0|0:0,0:0:0:0:
425,82,233757,6,0,L|437:236,1,135,4|8,0:0|0:0,0:0:0:0:
385,291,234526,2,0,P|338:287|282:273,1,89.9999999999999,8|2,0:0|0:0,0:0:0:0:
214,315,235141,2,0,P|167:314|111:323,1,89.9999999999999,2|8,0:0|0:0,0:0:0:0:
54,376,235757,2,0,P|69:327|63:242,1,135,2|6,0:0|0:0,0:0:0:0:
2,123,236680,6,0,P|82:139|177:103,1,180,8|8,0:0|0:0,0:0:0:0:
216,27,237603,2,0,L|211:177,2,135,2|2|8,0:0|0:0|0:0,0:0:0:0:
299,60,238834,6,0,L|304:210,2,135,12|8|8,0:0|0:0|0:0,0:0:0:0:
381,22,240065,1,2,0:0:0:0:
256,304,241141,1,14,0:0:0:0:
256,192,241295,12,4,246065,0:0:0:0:
104,296,247449,6,0,P|91:233|104:152,1,135,2|0,0:0|0:0,0:0:0:0:
163,99,248218,1,2,0:0:0:0:
226,162,248526,6,0,L|274:158,1,45,0|8,0:0|0:0,0:0:0:0:
318,235,248988,2,0,L|464:238,2,135,8|8|2,0:0|0:0|0:0,0:0:0:0:
256,302,250218,1,8,0:0:0:0:
192,238,250526,2,0,L|146:243,1,45,12|12,0:0|0:0,0:0:0:0:
