osu file format v14

[General]
AudioFilename: miiro.mp3
AudioLeadIn: 0
PreviewTime: 59543
Countdown: 0
SampleSet: Soft
StackLeniency: 0.7
Mode: 0
LetterboxInBreaks: 0
WidescreenStoryboard: 0

[Editor]
DistanceSpacing: 1.5
BeatDivisor: 4
GridSize: 4
TimelineZoom: 3.199999

[Metadata]
Title:MIIRO
TitleUnicode:海色
Artist:AKINO from bless4
ArtistUnicode:AKINO from bless4
Creator:Sakaue Nachi
Version:Hime
Source:艦隊これくしょん -艦これ-
Tags:みいろ TV Size opening kantai collection kancolle moecho crystal -_e_n_j_u_- enju
BeatmapID:696783
BeatmapSetID:312042

[Difficulty]
HPDrainRate:6.5
CircleSize:4
OverallDifficulty:8.5
ApproachRate:9.5
SliderMultiplier:1.8
SliderTickRate:1

[Events]
//Background and Video events
0,0,"BG.jpg",0,0
//Break Periods
//Storyboard Layer 0 (Background)
//Storyboard Layer 1 (Fail)
//Storyboard Layer 2 (Pass)
//Storyboard Layer 3 (Foreground)
//Storyboard Sound Samples

[TimingPoints]
5082,307.692307692308,4,2,1,80,1,0
5082,-125,4,2,2,60,0,0
8774,-125,4,2,2,40,0,0
11082,-100,4,2,1,70,0,0
21082,-125,4,2,2,45,0,0
29620,-83.3333333333333,4,2,2,60,0,0
30928,-100,4,2,1,70,0,0
40312,-100,4,2,1,40,0,0
40774,-125,4,2,2,60,0,0
50620,-100,4,2,1,60,0,0
55543,-100,4,2,1,75,0,0
60466,-100,4,2,1,85,0,1
69851,-100,4,2,1,50,0,1
70312,-100,4,2,1,85,0,1
83851,-100,4,2,2,85,0,1
84928,-100,4,2,1,75,0,0

[Colours]
Combo1 : 204,198,29
Combo2 : 255,66,70
Combo3 : 148,171,92
Combo4 : 120,120,237

[HitObjects]
148,103,5082,6,0,P|190:150|157:222,1,144,2|0,0:0|0:0,0:0:0:0:
27,310,5697,2,0,L|180:294,1,144
263,221,6158,1,2,0:0:0:0:
335,284,6312,6,0,P|349:194|361:127,1,144,2|2,0:0|0:0,0:0:0:0:
396,40,6774,2,0,P|338:7|240:108,1,216,2|0,0:0|0:0,0:0:0:0:
139,80,7543,6,0,L|156:234,1,144,2|0,0:0|0:0,0:0:0:0:
154,223,8005,2,0,L|305:182,1,144,2|0,0:0|0:0,0:0:0:0:
209,326,8466,1,2,0:0:0:0:
209,326,8774,6,0,P|172:308|126:296,1,72
317,228,9082,1,2,0:0:0:0:
120,207,9235,6,0,P|90:235|63:274,1,72
329,185,9543,1,2,0:0:0:0:
191,114,9697,6,0,P|196:78|208:44,1,72
329,146,10005,1,2,0:0:0:0:
209,326,10158,6,0,P|235:357|272:387,1,72
317,105,10466,1,2,0:0:0:0:
127,228,11082,6,0,P|35:229|1:156,1,180,4|2,0:1|0:0,0:0:0:0:
213,97,11543,2,0,P|215:153|216:195,1,90,8|0,0:0|0:0,0:0:0:0:
237,18,11851,1,2,0:0:0:0:
80,166,12005,1,2,0:0:0:0:
299,193,12158,1,8,0:0:0:0:
213,97,12312,1,0,0:0:0:0:
113,265,12466,6,0,P|165:252|218:245,1,90,2|2,0:0|0:0,0:0:0:0:
372,342,12774,1,8,0:0:0:0:
423,211,12928,2,0,P|410:168|393:127,1,90,0|2,0:0|0:0,0:0:0:0:
208,182,13235,1,2,0:0:0:0:
355,261,13389,1,8,0:0:0:0:
171,102,13543,6,0,P|127:144|185:264,1,180,4|2,0:1|0:0,0:0:0:0:
297,318,14005,2,0,L|406:305,1,90,8|0,0:0|0:0,0:0:0:0:
282,71,14312,1,2,0:0:0:0:
328,182,14466,1,2,0:0:0:0:
426,27,14620,1,8,0:0:0:0:
171,103,14774,1,0,0:0:0:0:
171,103,14851,1,0,0:0:0:0:
171,103,14928,5,2,0:0:0:0:
269,274,15082,1,2,0:0:0:0:
304,130,15235,1,8,0:0:0:0:
136,211,15389,2,0,L|151:315,1,90,0|2,0:0|0:0,0:0:0:0:
304,130,15697,2,0,L|291:40,1,90,2|8,0:0|0:0,0:0:0:0:
56,183,16005,6,0,P|123:130|204:160,1,180,4|2,0:1|0:0,0:0:0:0:
362,296,16466,2,0,P|369:240|376:206,1,90,8|0,0:0|0:0,0:0:0:0:
189,272,16774,1,2,0:0:0:0:
304,130,16928,1,2,0:0:0:0:
189,272,17082,2,0,L|81:264,1,90,8|0,0:0|0:0,0:0:0:0:
124,141,17389,5,2,0:0:0:0:
276,263,17543,1,2,0:0:0:0:
321,60,17697,1,8,0:0:0:0:
205,168,17851,1,0,0:0:0:0:
205,168,17928,1,0,0:0:0:0:
205,168,18005,1,2,0:0:0:0:
361,295,18158,2,0,L|357:206,1,90,2|8,0:0|0:0,0:0:0:0:
236,83,18466,1,8,0:0:0:0:
236,83,18543,1,0,0:0:0:0:
236,83,18620,5,8,0:0:0:0:
139,226,18774,1,0,0:0:0:0:
361,295,18928,1,8,0:0:0:0:
109,214,19082,1,0,0:0:0:0:
364,185,19235,1,8,0:0:0:0:
118,63,19389,1,8,0:0:0:0:
251,300,19543,1,0,0:0:0:0:
353,61,19697,1,8,0:0:0:0:
247,217,19851,5,8,0:0:0:0:
424,120,20005,1,0,0:0:0:0:
177,70,20158,1,8,0:0:0:0:
253,344,20312,1,0,0:0:0:0:
253,344,20389,1,8,0:0:0:0:
253,344,20466,1,8,0:0:0:0:
364,123,20620,1,8,0:0:0:0:
149,151,21082,6,0,L|136:238,1,72,2|0,0:0|0:0,0:0:0:0:
138,222,21389,1,2,0:0:0:0:
217,92,21543,2,0,L|283:65,1,72,0|2,0:0|0:0,0:0:0:0:
136,67,21851,2,0,L|79:22,1,72,0|2,0:0|0:0,0:0:0:0:
183,219,22158,1,0,0:0:0:0:
323,153,22312,6,0,P|315:119|302:85,1,72,2|0,0:0|0:0,0:0:0:0:
303,248,22619,1,2,0:0:0:0:
149,151,22774,2,0,P|114:185|139:281,1,144,2|2,0:0|0:0,0:0:0:0:
303,248,23235,1,2,0:0:0:0:
237,96,23389,1,0,0:0:0:0:
303,248,23543,6,0,P|263:241|205:235,1,72,2|0,0:0|0:0,0:0:0:0:
114,342,23851,1,2,0:0:0:0:
114,342,24005,2,0,P|111:295|106:250,1,72,0|2,0:0|0:0,0:0:0:0:
168,109,24312,1,0,0:0:0:0:
53,212,24466,1,2,0:0:0:0:
154,205,24620,1,0,0:0:0:0:
66,47,24774,5,2,0:0:0:0:
226,167,24928,2,0,L|311:145,2,72,0|2|0,0:0|0:0|0:0,0:0:0:0:
403,273,25389,2,0,P|391:239|363:193,1,72,2|0,0:0|0:0,0:0:0:0:
252,337,25697,1,2,0:0:0:0:
377,122,25851,1,0,0:0:0:0:
226,167,26004,5,2,0:0:0:0:
226,167,26158,1,0,0:0:0:0:
332,232,26312,1,2,0:0:0:0:
332,232,26466,1,0,0:0:0:0:
287,62,26620,1,2,0:0:0:0:
287,62,26774,1,0,0:0:0:0:
332,232,26928,1,2,0:0:0:0:
505,168,27082,6,0,L|491:263,1,72,0|2,0:0|0:0,0:0:0:0:
373,341,27389,2,0,L|383:269,1,72,0|2,0:0|0:0,0:0:0:0:
265,157,27697,2,0,L|278:236,2,72,0|2|0,0:0|0:0|0:0,0:0:0:0:
205,301,28158,1,2,0:0:0:0:
104,135,28312,6,0,P|56:199|87:273,2,144,2|2|2,0:0|0:0|0:0,0:0:0:0:
254,229,29082,1,2,0:0:0:0:
137,210,29235,1,0,0:0:0:0:
213,121,29389,1,2,0:0:0:0:
117,235,29543,1,0,0:0:0:0:
296,144,29697,6,0,L|445:118,2,143.999995605469,2|2|2,0:0|0:0|0:0,0:0:0:0:
117,235,30312,2,0,L|92:79,2,143.999995605469,2|2|2,0:0|0:0|0:0,0:0:0:0:
397,201,30928,6,0,P|317:188|296:140,1,135,4|0,0:1|0:0,0:0:0:0:
292,102,31235,1,8,0:0:0:0:
260,264,31389,1,0,0:0:0:0:
369,133,31543,1,2,0:0:0:0:
194,224,31697,1,2,0:0:0:0:
407,116,31851,1,8,0:0:0:0:
294,277,32005,6,0,P|284:236|269:189,1,90,2|0,0:0|0:0,0:0:0:0:
164,57,32312,2,0,P|145:103|128:173,1,90,2|8,0:0|0:0,0:0:0:0:
170,286,32620,1,0,0:0:0:0:
77,199,32774,1,2,0:0:0:0:
118,355,32928,1,2,0:0:0:0:
247,182,33082,1,8,0:0:0:0:
71,83,33235,6,0,P|54:124|43:168,1,90,0|2,0:0|0:0,0:0:0:0:
350,108,33543,1,0,0:0:0:0:
253,273,33697,1,8,0:0:0:0:
187,108,33851,1,0,0:0:0:0:
253,273,34005,2,0,P|209:262|164:255,1,90,2|2,0:0|0:0,0:0:0:0:
352,341,34312,1,8,0:0:0:0:
247,182,34466,1,0,0:0:0:0:
405,53,34620,5,2,0:0:0:0:
247,182,34774,1,2,0:0:0:0:
247,182,34851,1,0,0:0:0:0:
247,182,34928,2,0,P|143:175|128:101,1,180,8|2,0:0|0:0,0:0:0:0:
87,352,35389,1,2,0:0:0:0:
87,352,35543,2,0,L|99:256,1,90,8|0,0:0|0:0,0:0:0:0:
313,253,35851,6,0,P|365:250|399:139,2,180,4|8|2,0:1|0:0|0:0,0:0:0:0:
208,230,36620,1,2,0:0:0:0:
333,178,36774,1,8,0:0:0:0:
364,46,36928,1,2,0:0:0:0:
333,178,37082,5,0,0:0:0:0:
178,245,37235,1,2,0:0:0:0:
373,300,37389,1,8,0:0:0:0:
373,300,37543,1,0,0:0:0:0:
178,245,37697,2,0,P|184:290|190:334,1,90,2|2,0:0|0:0,0:0:0:0:
306,256,38005,1,8,0:0:0:0:
125,145,38158,1,0,0:0:0:0:
125,145,38235,1,0,0:0:0:0:
125,145,38312,6,0,P|217:150|256:63,1,180,4|8,0:1|0:0,0:0:0:0:
306,256,38774,1,0,0:0:0:0:
175,80,38928,1,2,0:0:0:0:
86,239,39082,1,8,0:0:0:0:
86,239,39158,1,8,0:0:0:0:
86,239,39235,1,8,0:0:0:0:
269,335,39389,6,0,P|354:328|390:250,1,180,4|2,0:1|0:0,0:0:0:0:
287,39,39851,1,8,0:0:0:0:
170,236,40005,1,4,0:1:0:0:
170,236,40312,5,8,0:3:0:0:
218,256,40388,1,8,0:3:0:0:
270,246,40465,1,8,0:3:0:0:
309,210,40542,1,8,0:3:0:0:
352,179,40620,1,8,0:3:0:0:
406,173,40697,1,8,0:3:0:0:
455,191,40774,6,0,P|461:224|460:283,2,72,4|0|2,0:0|0:0|0:0,0:0:0:0:
276,297,41235,1,0,0:0:0:0:
276,297,41389,2,0,P|237:273|201:234,1,72,2|0,0:0|0:0,0:0:0:0:
309,210,41697,2,0,P|284:171|268:121,1,72,2|0,0:0|0:0,0:0:0:0:
383,147,42005,6,0,P|373:102|377:49,2,72,2|0|2,0:0|0:0|0:0,0:0:0:0:
309,210,42466,2,0,P|254:187|157:236,1,144,2|0,0:0|0:0,0:0:0:0:
73,300,42928,2,0,L|56:138,2,144,2|2|2,0:0|0:0|0:0,0:0:0:0:
176,212,43697,6,0,P|242:186|309:210,1,144,2|0,0:0|0:0,0:0:0:0:
421,98,44158,2,0,L|412:251,2,144,2|2|2,0:0|0:0|0:0,0:0:0:0:
251,28,44928,2,0,P|194:85|231:155,1,144,2|0,0:0|0:0,0:0:0:0:
318,229,45389,2,0,L|175:211,1,144,2|2,0:0|0:0,0:0:0:0:
421,98,46005,6,0,P|460:128|434:230,1,144,2|2,0:0|0:0,0:0:0:0:
187,300,46620,1,2,0:0:0:0:
187,300,46928,2,0,B|181:245|181:245|193:208|193:208|181:132,1,144,2|2,0:0|0:0,0:0:0:0:
89,21,47389,2,0,B|96:70|96:70|84:107|84:107|90:162,1,144,2|0,0:0|0:0,0:0:0:0:
0,257,47851,2,0,L|78:247,1,72,2|0,0:0|0:0,0:0:0:0:
331,208,48158,6,0,L|170:187,1,144,2|2,0:0|0:0,0:0:0:0:
61,70,48620,2,0,L|203:88,1,144,2|2,0:0|0:0,0:0:0:0:
213,276,49082,6,0,L|165:232,2,48,2|2|2,0:0|0:0|0:0,0:0:0:0:
289,246,49389,2,0,P|349:159|449:201,2,216,4|4|4,0:3|0:3|0:3,0:0:0:0:
144,88,50620,6,0,L|138:211,1,90,6|0,0:0|0:0,0:0:0:0:
265,331,50928,2,0,L|269:241,1,90,2|0,0:0|0:0,0:0:0:0:
363,51,51235,2,0,P|241:73|229:148,1,180,2|2,0:0|0:0,0:0:0:0:
232,299,51697,1,0,0:0:0:0:
324,211,51851,6,0,L|313:121,1,90,2|0,0:0|0:0,0:0:0:0:
147,275,52158,1,2,0:0:0:0:
239,183,52312,1,0,0:0:0:0:
388,270,52466,1,2,0:0:0:0:
212,166,52620,1,8,0:0:0:0:
412,129,52774,1,2,0:0:0:0:
232,299,52928,1,8,0:0:0:0:
328,117,53082,6,0,P|313:75|292:28,1,90,2|0,0:0|0:0,0:0:0:0:
232,299,53389,2,0,P|273:282|319:259,1,90,2|0,0:0|0:0,0:0:0:0:
227,82,53697,2,0,P|126:155|149:227,1,180,2|2,0:0|0:0,0:0:0:0:
232,299,54159,1,0,0:0:0:0:
129,195,54313,6,0,P|84:201|41:212,1,90,2|0,0:0|0:0,0:0:0:0:
232,299,54620,2,0,P|276:292|319:281,1,90,2|0,0:0|0:0,0:0:0:0:
391,153,54928,1,2,0:0:0:0:
319,280,55082,1,8,0:0:0:0:
227,82,55236,1,0,0:0:0:0:
410,277,55390,1,8,0:0:0:0:
469,93,55543,5,8,0:0:0:0:
319,280,55697,1,0,0:0:0:0:
227,82,55851,1,8,0:0:0:0:
391,153,56005,1,0,0:0:0:0:
232,299,56158,1,8,0:0:0:0:
404,239,56312,1,0,0:0:0:0:
225,40,56466,1,8,0:0:0:0:
471,148,56620,1,8,0:0:0:0:
231,215,56774,5,8,0:0:0:0:
424,355,56928,1,0,0:0:0:0:
303,123,57082,1,8,0:0:0:0:
165,288,57235,1,0,0:0:0:0:
326,218,57389,1,8,0:0:0:0:
164,93,57543,1,8,0:0:0:0:
255,360,57697,1,8,0:0:0:0:
390,95,57851,1,8,0:0:0:0:
207,295,58005,5,8,0:0:0:0:
163,303,58081,1,0,0:0:0:0:
118,295,58158,1,0,0:0:0:0:
80,273,58235,1,0,0:0:0:0:
51,239,58312,1,8,0:0:0:0:
36,196,58389,1,0,0:0:0:0:
37,152,58466,1,0,0:0:0:0:
54,110,58543,1,0,0:0:0:0:
88,139,58620,5,8,0:0:0:0:
134,173,58696,1,0,0:0:0:0:
191,188,58773,1,8,0:0:0:0:
249,182,58850,1,8,0:0:0:0:
300,156,58927,1,8,0:0:0:0:
339,113,59004,1,8,0:0:0:0:
357,56,59082,1,8,0:0:0:0:
415,273,59543,6,0,L|404:376,1,90
499,230,59851,1,0,0:0:0:0:
333,142,60005,1,0,0:0:0:0:
333,142,60312,1,0,0:0:0:0:
333,142,60466,6,0,P|279:123|221:224,1,180,4|8,0:1|0:0,0:0:0:0:
415,273,60928,1,0,0:0:0:0:
333,142,61082,1,2,0:0:0:0:
478,83,61235,2,0,P|461:125|447:168,1,90,0|8,0:0|0:0,0:0:0:0:
415,273,61543,1,0,0:0:0:0:
333,142,61697,5,2,0:0:0:0:
208,282,61851,1,0,0:0:0:0:
333,142,62005,2,0,L|319:54,1,90,8|8,0:0|0:0,0:0:0:0:
101,215,62312,1,2,0:0:0:0:
257,169,62466,1,0,0:0:0:0:
89,90,62620,1,8,0:0:0:0:
280,249,62774,1,8,0:0:0:0:
280,249,62851,1,8,0:0:0:0:
280,249,62928,6,0,P|339:186|310:106,1,180,4|8,0:1|0:0,0:0:0:0:
79,122,63389,2,0,P|67:173|57:223,1,90,0|2,0:0|0:0,0:0:0:0:
229,384,63697,2,0,P|223:339|214:293,1,90,0|8,0:0|0:0,0:0:0:0:
247,118,64005,1,0,0:0:0:0:
160,229,64158,5,2,0:0:0:0:
336,158,64312,1,0,0:0:0:0:
336,158,64389,1,0,0:0:0:0:
336,158,64466,1,8,0:0:0:0:
189,43,64620,1,0,0:0:0:0:
280,249,64774,2,0,P|325:241|372:233,1,90,2|0,0:0|0:0,0:0:0:0:
512,113,65082,2,0,P|493:60|468:5,1,90,8|8,0:0|0:0,0:0:0:0:
479,29,65312,1,8,0:0:0:0:
479,29,65389,5,4,0:1:0:0:
257,169,65543,1,0,0:0:0:0:
335,42,65697,1,8,0:0:0:0:
127,164,65851,1,0,0:0:0:0:
249,293,66005,2,0,B|317:278|317:278|377:292|377:292|456:273,1,180,2|8,0:0|0:0,0:0:0:0:
424,280,66466,1,0,0:0:0:0:
512,113,66620,5,2,0:0:0:0:
512,113,66774,1,0,0:0:0:0:
424,280,66928,1,8,0:0:0:0:
257,169,67082,1,0,0:0:0:0:
287,372,67235,1,4,0:3:0:0:
355,207,67389,1,8,0:0:0:0:
355,207,67466,1,8,0:0:0:0:
355,207,67543,1,8,0:0:0:0:
172,374,67697,6,0,P|90:364|54:281,1,180,4|0,0:1|0:0,0:0:0:0:
302,269,68158,1,8,0:0:0:0:
237,118,68312,1,0,0:0:0:0:
142,292,68466,5,8,0:0:0:0:
308,74,68620,1,0,0:0:0:0:
386,286,68774,5,8,0:0:0:0:
266,195,68928,1,8,0:0:0:0:
266,195,69005,1,8,0:0:0:0:
266,195,69082,5,8,0:0:0:0:
407,114,69235,1,0,0:0:0:0:
459,330,69389,1,8,0:0:0:0:
302,269,69543,1,0,0:0:0:0:
509,141,69697,1,8,0:0:0:0:
224,279,69851,1,8,0:3:0:0:
188,251,69927,1,8,0:3:0:0:
169,211,70004,1,8,0:3:0:0:
171,167,70081,1,8,0:3:0:0:
194,128,70158,1,8,0:3:0:0:
231,104,70235,1,8,0:3:0:0:
276,106,70312,6,0,L|456:150,1,180,4|8,0:1|0:0,0:0:0:0:
171,167,70774,2,0,P|183:123|199:81,1,90,0|2,0:0|0:0,0:0:0:0:
302,269,71082,2,0,P|290:313|274:355,1,90,0|8,0:0|0:0,0:0:0:0:
256,188,71389,1,0,0:0:0:0:
389,295,71543,5,2,0:0:0:0:
361,143,71697,1,0,0:0:0:0:
187,328,71851,1,8,0:0:0:0:
241,156,72005,2,0,P|257:187|277:238,1,90,0|2,0:0|0:0,0:0:0:0:
187,328,72312,1,0,0:0:0:0:
361,143,72466,1,8,0:0:0:0:
187,328,72620,1,8,0:0:0:0:
187,328,72697,1,8,0:0:0:0:
187,328,72774,6,0,P|107:287|32:353,1,180,4|8,0:1|0:0,0:0:0:0:
233,128,73235,1,0,0:0:0:0:
129,189,73389,1,2,0:0:0:0:
202,13,73543,1,0,0:0:0:0:
296,216,73697,1,8,0:0:0:0:
111,76,73851,1,8,0:0:0:0:
111,76,73928,1,8,0:0:0:0:
111,76,74005,6,0,P|54:126|95:217,1,180,4|8,0:1|0:0,0:0:0:0:
298,317,74466,1,0,0:0:0:0:
233,128,74620,1,2,0:0:0:0:
175,279,74774,2,0,L|232:268,1,45,8|8,0:0|0:0,0:0:0:0:
296,216,74928,1,8,0:0:0:0:
453,337,75082,1,8,0:0:0:0:
453,337,75158,1,8,0:0:0:0:
453,337,75235,6,0,P|459:288|466:240,1,90,4|0,0:1|0:0,0:0:0:0:
328,63,75543,1,8,0:0:0:0:
253,269,75697,1,0,0:0:0:0:
111,76,75851,2,0,P|129:168|145:258,1,180,2|8,0:0|0:0,0:0:0:0:
310,110,76312,1,0,0:0:0:0:
253,269,76466,6,0,P|298:255|349:244,1,90,2|0,0:0|0:0,0:0:0:0:
455,138,76774,1,8,0:0:0:0:
374,321,76928,1,0,0:0:0:0:
503,222,77082,1,2,0:0:0:0:
292,343,77235,1,8,0:0:0:0:
292,343,77312,1,8,0:0:0:0:
292,343,77389,1,8,0:0:0:0:
397,174,77543,6,0,P|376:86|350:0,1,180,4|0,0:1|0:0,0:0:0:0:
38,148,78005,1,8,0:0:0:0:
74,288,78158,1,0,0:0:0:0:
146,73,78312,5,8,0:0:0:0:
165,266,78466,1,0,0:0:0:0:
279,50,78620,5,8,0:0:0:0:
257,275,78774,1,8,0:0:0:0:
400,87,78928,5,8,0:0:0:0:
334,333,79082,1,0,0:0:0:0:
512,123,79235,1,8,0:0:0:0:
279,50,79389,1,0,0:0:0:0:
334,333,79543,1,8,0:0:0:0:
448,179,79697,1,8,0:0:0:0:
448,179,79774,1,8,0:0:0:0:
448,179,79851,1,8,0:0:0:0:
334,333,80005,6,0,B|270:322|270:322|217:337|217:337|126:324,1,180,4|0,0:1|0:0,0:0:0:0:
32,90,80466,2,0,P|49:134|58:177,1,90,8|0,0:0|0:0,0:0:0:0:
161,295,80774,1,2,0:0:0:0:
251,121,80928,1,0,0:0:0:0:
161,295,81082,2,0,P|93:287|37:281,1,90,8|0,0:0|0:0,0:0:0:0:
229,41,81389,6,0,P|172:101|230:202,1,180,2|8,0:0|0:0,0:0:0:0:
378,261,81851,1,0,0:0:0:0:
251,121,82005,1,2,0:0:0:0:
310,331,82158,1,2,0:0:0:0:
400,101,82312,1,8,0:0:0:0:
226,242,82466,1,8,0:0:0:0:
226,242,82543,1,8,0:0:0:0:
226,242,82620,6,0,P|182:230|107:217,1,90,4|0,0:1|0:0,0:0:0:0:
229,41,82928,1,8,0:0:0:0:
315,203,83082,1,8,0:0:0:0:
140,123,83235,1,8,0:0:0:0:
356,34,83389,1,8,0:0:0:0:
196,330,83543,1,8,0:0:0:0:
63,60,83697,1,8,0:0:0:0:
315,203,83851,6,0,P|341:166|372:134,1,90
245,355,84158,1,2,0:0:0:0:
418,198,84312,2,0,P|461:184|505:178,1,90
140,123,84619,1,2,0:0:0:0:
140,123,84928,6,0,P|94:167|159:263,1,180,4|2,0:1|0:0,0:0:0:0:
342,363,85389,2,0,P|347:308|355:253,1,90,8|0,0:0|0:0,0:0:0:0:
252,84,85697,1,2,0:0:0:0:
320,238,85851,1,2,0:0:0:0:
404,51,86005,1,8,0:0:0:0:
234,183,86158,1,0,0:0:0:0:
421,234,86312,5,2,0:0:0:0:
222,179,86466,1,2,0:0:0:0:
434,238,86620,2,0,L|425:148,1,90,8|0,0:0|0:0,0:0:0:0:
197,338,86928,1,2,0:0:0:0:
310,156,87082,1,2,0:0:0:0:
121,303,87235,1,8,0:0:0:0:
279,82,87389,6,0,B|302:170|306:261,1,180,4|2,0:1|0:0,0:0:0:0:
121,303,87851,2,0,P|76:289|20:275,1,90,8|0,0:0|0:0,0:0:0:0:
222,202,88158,1,2,0:0:0:0:
99,66,88312,1,2,0:0:0:0:
121,303,88466,1,8,0:0:0:0:
309,211,88620,1,0,0:0:0:0:
309,211,88697,1,0,0:0:0:0:
309,211,88774,6,0,P|305:170|295:119,1,90,2|2,0:0|0:0,0:0:0:0:
225,362,89082,1,8,0:0:0:0:
115,258,89235,2,0,P|126:301|132:345,1,90,0|2,0:0|0:0,0:0:0:0:
0,155,89543,2,0,P|11:111|27:69,1,90,2|8,0:0|0:0,0:0:0:0:
222,214,89851,1,8,0:0:0:0:
222,214,89928,1,8,0:0:0:0:
222,214,90005,5,8,0:0:0:0:
301,86,90158,1,0,0:0:0:0:
94,160,90312,1,8,0:0:0:0:
279,346,90466,1,0,0:0:0:0:
387,114,90620,1,8,0:0:0:0:
222,214,90774,1,8,0:0:0:0:
422,286,90928,1,2,0:0:0:0:
196,337,91082,1,2,0:0:0:0:
277,125,91235,5,8,0:0:0:0:
353,380,91389,1,0,0:0:0:0:
141,228,91543,1,8,0:0:0:0:
387,114,91697,1,8,0:0:0:0:
396,158,91774,1,8,0:0:0:0:
386,202,91851,1,8,0:0:0:0:
164,16,92005,1,8,0:0:0:0:
