osu file format v13

[General]
AudioFilename: Miiro.mp3
AudioLeadIn: 0
PreviewTime: 59542
Countdown: 0
SampleSet: Soft
StackLeniency: 0.3
Mode: 0
LetterboxInBreaks: 0
WidescreenStoryboard: 0

[Editor]
DistanceSpacing: 1
BeatDivisor: 4
GridSize: 8
TimelineZoom: 1

[Metadata]
Title:MIIRO
TitleUnicode:海色
Artist:AKINO from bless4
ArtistUnicode:AKINO from bless4
Creator:No_Gu
Version:Normal
Source:Kantai Collection -KanColle-
Tags:艦隊これくしょん -艦これ- みいろ KantoKun
BeatmapID:578611
BeatmapSetID:251251

[Difficulty]
HPDrainRate:3
CircleSize:3
OverallDifficulty:4
ApproachRate:5
SliderMultiplier:0.96
SliderTickRate:1

[Events]
//Background and Video events
0,0,"Kancolle.jpg",0,0
Video,4907,"video.flv"
//Break Periods
2,20818,29726
//Storyboard Layer 0 (Background)
//Storyboard Layer 1 (Fail)
//Storyboard Layer 2 (Pass)
//Storyboard Layer 3 (Foreground)
//Storyboard Sound Samples

[TimingPoints]
3850,307.692307692308,4,2,1,70,1,0
60465,-100,4,2,1,70,0,1
70234,-100,4,2,1,70,0,0
70311,-100,4,2,1,70,0,1
83850,-100,4,2,1,70,0,0

[Colours]
Combo1 : 128,255,128
Combo2 : 255,255,128
Combo3 : 255,128,128
Combo4 : 128,255,255

[HitObjects]
120,160,5080,5,2,0:0:0:0:
120,160,6157,2,0,L|112:96,2,48,2|0|2,0:0|0:0|0:0,0:0:0:0:
160,192,6619,2,0,P|200:200|256:192,1,95.9999999999999,0|2,0:0|0:0,0:0:0:0:
336,136,7234,1,0,0:0:0:0:
256,192,7542,12,2,10465,0:0:0:0:
160,96,11080,6,0,P|136:160|160:232,1,144,4|8,3:2|0:0,0:0:0:0:
240,280,11849,2,0,L|352:272,1,95.9999999999999,0|8,3:0|0:0,0:0:0:0:
432,296,12465,2,0,P|424:248|432:184,1,95.9999999999999,0|8,3:0|0:0,0:0:0:0:
392,168,12926,2,0,P|400:120|392:56,1,95.9999999999999,2|0,0:0|3:0,0:0:0:0:
360,40,13388,1,8,0:0:0:0:
312,24,13542,6,0,L|160:32,1,144,4|8,3:1|0:0,0:0:0:0:
144,128,14311,2,0,L|48:120,1,95.9999999999999,0|8,3:0|0:0,0:0:0:0:
72,216,14926,2,0,L|64:272,2,48,0|0|8,3:0|3:0|0:0,0:0:0:0:
152,264,15542,2,0,L|160:320,2,48,0|0|8,3:0|3:0|0:0,0:0:0:0:
184,224,16003,6,0,P|232:200|320:224,1,144,4|8,3:2|0:0,0:0:0:0:
376,296,16773,1,0,3:0:0:0:
408,208,17080,1,8,0:0:0:0:
352,136,17388,2,0,P|344:88|352:32,1,95.9999999999999,0|8,3:0|0:0,0:0:0:0:
392,16,17849,2,0,P|320:48|248:32,1,144,2|8,0:0|0:0,0:0:0:0:
160,40,18619,5,8,0:0:0:0:
80,96,18926,1,8,0:0:0:0:
56,192,19234,2,8,L|48:256,1,48
144,240,19696,2,8,L|136:304,1,48
216,344,20157,1,8,0:0:0:0:
304,312,20465,2,8,L|309:264,1,48
80,56,30926,6,0,L|72:168,1,95.9999999999999,4|8,3:2|0:0,0:0:0:0:
136,224,31542,1,0,3:0:0:0:
216,176,31849,1,8,0:0:0:0:
256,152,32003,2,0,P|296:144|352:160,1,95.9999999999999,0|0,3:0|3:0,0:0:0:0:
384,192,32465,1,8,0:0:0:0:
432,272,32773,2,0,L|424:336,2,48,0|0|8,3:0|3:0|0:0,0:0:0:0:
480,192,33388,6,0,L|472:80,1,95.9999999999999,0|8,3:0|0:0,0:0:0:0:
384,64,34003,2,0,L|388:0,2,48,0|0|8,3:0|3:0|0:0,0:0:0:0:
352,104,34465,2,0,P|304:80|216:104,1,144,0|8,3:0|0:0,0:0:0:0:
136,144,35234,2,0,L|80:136,2,48,0|0|8,3:0|3:0|0:0,0:0:0:0:
208,208,35849,6,0,P|216:264|200:320,1,95.9999999999999,4|8,3:2|0:0,0:0:0:0:
120,344,36465,2,0,L|16:336,1,95.9999999999999,0|8,3:0|0:0,0:0:0:0:
24,240,37080,2,0,L|128:248,1,95.9999999999999,0|8,3:0|0:0,0:0:0:0:
104,152,37696,2,0,L|112:96,2,48,0|0|8,3:0|3:0|0:0,0:0:0:0:
200,168,38311,6,0,L|304:176,1,95.9999999999999,4|8,3:2|0:0,0:0:0:0:
384,216,38926,1,0,3:0:0:0:
456,152,39234,2,0,L|464:96,1,48,8|0,0:0|3:0,0:0:0:0:
376,64,39696,2,0,L|384:8,2,48,0|8|0,3:0|0:0|3:0,0:0:0:0:
288,96,40311,2,0,P|232:112|160:64,1,144,0|4,3:0|0:0,0:0:0:0:
72,240,41388,5,2,0:0:0:0:
264,224,42003,2,0,P|336:224|384:280,2,144,0|2|0,0:0|0:0|0:0,0:0:0:0:
176,272,43234,6,0,P|140:334|67:347,2,144,0|0|0,0:0|0:0|0:0,0:0:0:0:
176,176,44465,2,0,P|140:113|164:44,2,144,0|2|0,0:0|0:0|0:0,0:0:0:0:
240,104,45696,6,0,B|296:88|296:88|432:112,1,192,0|2,0:0|0:0,0:0:0:0:
488,184,46619,1,0,0:0:0:0:
392,208,46926,2,0,B|408:264|384:304|384:304|416:320|424:352,2,144,0|2|0,0:0|0:0|0:0,0:0:0:0:
304,248,48157,6,0,B|247:233|224:193|224:193|195:212|163:203,2,144,0|0|0,0:0|0:0|0:0,0:0:0:0:
312,152,49388,2,0,B|352:110|399:110|399:110|396:75|420:52,2,144,4|4|4,3:0|3:0|3:0,0:0:0:0:
392,200,50619,6,0,L|384:304,1,95.9999999999999,4|0,3:2|3:0,0:0:0:0:
296,328,51234,2,0,L|303:232,1,95.9999999999999,0|0,3:0|3:0,0:0:0:0:
216,192,51849,2,0,L|208:296,1,95.9999999999999,0|0,3:0|3:0,0:0:0:0:
120,320,52465,2,0,L|123:272,1,48,0|8,3:0|0:0,0:0:0:0:
88,240,52773,2,0,L|91:192,1,48,0|8,3:0|0:0,0:0:0:0:
64,152,53080,6,0,L|72:56,1,95.9999999999999,0|0,3:0|3:0,0:0:0:0:
168,32,53696,2,0,L|160:128,1,95.9999999999999,0|0,3:0|3:0,0:0:0:0:
248,160,54311,2,0,L|256:64,1,95.9999999999999,0|0,3:0|3:0,0:0:0:0:
352,40,54927,2,0,L|344:136,1,95.9999999999999,0|0,3:0|3:0,0:0:0:0:
360,176,55388,1,4,3:0:0:0:
392,208,55542,6,8,P|440:224|496:208,2,95.9999999999999,8|8|8,0:0|0:0|0:0,0:0:0:0:
272,288,56619,2,0,L|112:296,2,144,8|8|8,0:0|0:0|0:0,0:0:0:0:
288,144,58003,6,0,P|304:88|208:160,1,336,8|2,0:0|0:0,0:0:0:0:
464,304,60465,6,0,L|360:296,1,96,4|8,3:2|0:0,0:0:0:0:
320,304,60926,1,0,0:0:0:0:
272,312,61080,2,0,L|168:304,1,96,0|8,3:0|0:0,0:0:0:0:
80,328,61696,1,0,3:0:0:0:
8,264,62003,2,0,P|0:216|8:160,1,96,8|0,0:0|3:0,0:0:0:0:
80,104,62619,2,0,L|72:56,2,48,8|8|4,0:0|0:0|3:2,0:0:0:0:
168,136,63234,6,0,L|280:128,1,96,8|0,0:0|3:0,0:0:0:0:
344,184,63849,1,8,0:0:0:0:
432,144,64157,2,0,P|440:96|432:48,2,96,0|8|0,3:0|0:0|3:0,0:0:0:0:
424,240,65080,1,8,0:0:0:0:
336,280,65388,6,0,L|232:288,1,96,4|8,3:2|0:0,0:0:0:0:
196,306,65849,1,0,0:0:0:0:
152,325,66003,1,0,3:0:0:0:
72,272,66311,2,0,P|64:224|72:168,1,96,8|0,0:0|3:0,0:0:0:0:
136,104,66926,1,8,0:0:0:0:
224,136,67234,2,0,L|328:128,1,96,0|8,3:0|0:0,0:0:0:0:
360,152,67696,6,0,P|392:216|368:280,1,144,4|8,3:2|0:0,0:0:0:0:
280,320,68465,1,8,0:0:0:0:
192,280,68773,2,0,L|136:288,1,48,0|0,3:0|0:0,0:0:0:0:
104,312,69080,2,8,L|96:216,1,96
32,144,69696,2,8,L|40:48,1,96
128,16,70311,5,4,3:2:0:0:
216,56,70619,2,0,P|264:64|320:48,1,96,8|0,0:0|3:0,0:0:0:0:
400,88,71234,2,0,P|448:80|504:96,1,96,8|0,0:0|3:0,0:0:0:0:
496,184,71849,1,8,0:0:0:0:
424,248,72157,2,0,L|432:352,1,96,0|8,3:0|0:0,0:0:0:0:
384,328,72619,1,8,0:0:0:0:
336,320,72773,6,0,P|288:312|232:336,1,96,4|8,3:2|0:0,0:0:0:0:
152,352,73388,1,0,3:0:0:0:
64,312,73696,2,0,L|56:216,1,96,8|0,0:0|3:0,0:0:0:0:
144,184,74311,2,0,L|152:88,1,96,8|0,0:0|3:0,0:0:0:0:
240,56,74926,2,0,L|232:0,2,48,8|8|4,0:0|0:0|3:2,0:0:0:0:
320,104,75542,5,8,0:0:0:0:
408,72,75849,2,0,P|456:64|504:72,1,95.9999999999999,0|8,3:0|0:0,0:0:0:0:
464,160,76465,2,0,L|472:272,1,96,0|8,3:0|0:0,0:0:0:0:
448,296,76926,2,0,P|400:312|344:304,1,96,0|8,0:0|0:0,0:0:0:0:
312,288,77388,1,8,0:0:0:0:
264,272,77542,6,0,P|216:256|160:264,1,96,4|0,3:2|0:0,0:0:0:0:
128,280,78003,2,8,L|120:176,1,96
184,112,78619,2,8,L|180:60,2,48,0|8|0,3:0|0:0|3:0,0:0:0:0:
272,144,79234,2,8,P|328:152|376:136,1,96,8|0,0:0|3:0,0:0:0:0:
400,104,79696,2,0,L|408:56,1,48,8|8,0:0|0:0,0:0:0:0:
256,192,80157,12,2,83850,0:0:0:0:
120,80,84926,6,0,P|104:152|120:224,1,144,4|8,3:2|0:0,0:0:0:0:
208,184,85696,2,0,L|304:192,1,96,0|8,3:0|0:0,0:0:0:0:
368,264,86311,2,0,L|464:256,1,96,0|8,3:0|0:0,0:0:0:0:
496,224,86773,2,0,P|504:176|496:128,1,96,2|0,0:0|3:0,0:0:0:0:
464,96,87234,1,8,0:0:0:0:
424,72,87388,6,0,L|280:80,1,144,4|8,3:2|0:0,0:0:0:0:
192,128,88157,2,0,L|138:125,2,48,0|0|8,3:2|3:0|0:0,0:0:0:0:
280,176,88773,2,0,P|272:224|280:272,1,96,0|8,3:0|0:0,0:0:0:0:
320,296,89234,2,0,L|432:288,1,96,2|0,0:0|3:0,0:0:0:0:
456,312,89696,1,8,0:0:0:0:
496,335,89849,6,0,L|504:191,1,144,8|8,0:2|0:0,0:0:0:0:
424,136,90619,2,0,L|429:35,1,96,8|0,0:2|3:0,0:0:0:0:
387,15,91080,2,8,P|339:6|278:19,1,95.9999999999999,8|0,0:0|3:0,0:0:0:0:
254,42,91542,2,8,P|206:51|145:38,1,95.9999999999999,8|8,0:0|0:0,0:0:0:0:
115,25,92003,1,8,0:0:0:0:
