osu file format v13

[General]
AudioFilename: Miiro.mp3
AudioLeadIn: 0
PreviewTime: 59542
Countdown: 0
SampleSet: Soft
StackLeniency: 0.3
Mode: 0
LetterboxInBreaks: 0
WidescreenStoryboard: 0

[Editor]
DistanceSpacing: 1.6
BeatDivisor: 6
GridSize: 8
TimelineZoom: 0.9

[Metadata]
Title:MIIRO
TitleUnicode:海色
Artist:AKINO from bless4
ArtistUnicode:AKINO from bless4
Creator:No_Gu
Version:Insane
Source:Kantai Collection -KanColle-
Tags:艦隊これくしょん -艦これ- みいろ KantoKun
BeatmapID:577139
BeatmapSetID:251251

[Difficulty]
HPDrainRate:7
CircleSize:4
OverallDifficulty:8
ApproachRate:9
SliderMultiplier:1.6
SliderTickRate:1

[Events]
//Background and Video events
0,0,"Kancolle.jpg",0,0
Video,4907,"video.flv"
//Break Periods
//Storyboard Layer 0 (Background)
//Storyboard Layer 1 (Fail)
//Storyboard Layer 2 (Pass)
//Storyboard Layer 3 (Foreground)
//Storyboard Sound Samples

[TimingPoints]
3850,307.692307692308,4,2,1,70,1,0
5080,-133.333333333333,4,2,1,70,0,0
7542,-133.333333333333,4,2,1,40,0,0
7850,-133.333333333333,4,2,1,25,0,0
8773,-133.333333333333,4,2,1,50,0,0
11080,-90.9090909090909,4,2,1,70,0,0
21080,-133.333333333333,4,2,1,70,0,0
29696,-133.333333333333,4,2,1,50,0,0
30926,-90.9090909090909,4,2,1,70,0,0
40773,-133.333333333333,4,2,1,70,0,0
50619,-90.9090909090909,4,2,1,70,0,0
58003,-90.9090909090909,4,1,1,40,0,0
60157,-90.9090909090909,4,2,1,70,0,0
60465,-90.9090909090909,4,2,1,70,0,1
70234,-90.9090909090909,4,2,1,70,0,0
70311,-90.9090909090909,4,2,1,70,0,1
83850,-90.9090909090909,4,2,1,70,0,0

[Colours]
Combo1 : 128,255,128
Combo2 : 255,255,128
Combo3 : 255,128,128
Combo4 : 128,255,255

[HitObjects]
68,90,4926,6,0,L|54:51,3,26.6666666666667,0|2|0|2,0:0|0:0|0:0|0:0,0:0:0:0:
80,120,6157,1,2,0:0:0:0:
168,64,6311,6,0,L|241:70,1,60.0000022888184,2|0,0:0|0:0,0:0:0:0:
323,47,6619,2,0,L|317:120,1,60.0000022888184,2|0,0:0|0:0,0:0:0:0:
336,202,6926,2,0,L|263:196,1,60.0000022888184,2|0,0:0|0:0,0:0:0:0:
181,219,7234,2,0,L|187:146,1,60.0000022888184,2|0,0:0|0:0,0:0:0:0:
104,232,7542,6,0,P|16:360|152:280,1,420.000016021729,2|2,0:0|0:0,0:0:0:0:
287,265,8773,6,0,L|292:202,1,60.0000022888184,0|2,0:0|0:0,0:0:0:0:
237,133,9080,1,0,0:0:0:0:
377,186,9234,2,0,L|443:182,1,60.0000022888184,0|2,0:0|0:0,0:0:0:0:
237,133,9542,1,0,0:0:0:0:
382,100,9696,2,0,P|386:59|379:27,1,60.0000022888184,0|2,0:0|0:0,0:0:0:0:
237,133,10003,5,0,0:0:0:0:
316,224,10157,2,0,L|321:161,1,60.0000022888184,0|2,0:0|0:0,0:0:0:0:
303,69,10465,1,0,0:0:0:0:
303,69,11080,6,0,P|220:55|128:72,1,176.000005371094,4|0,3:2|3:0,0:0:0:0:
152,295,11542,2,0,L|159:205,1,88.000002685547,8|0,0:0|0:0,0:0:0:0:
341,172,11849,2,0,L|348:262,1,88.000002685547,0|0,3:0|3:0,0:0:0:0:
490,88,12157,2,0,P|443:75|392:88,1,88.000002685547,8|0,0:0|0:0,0:0:0:0:
341,172,12465,5,0,3:0:0:0:
450,181,12619,1,0,3:0:0:0:
292,66,12773,1,8,0:0:0:0:
272,260,12926,2,0,P|268:308|272:353,1,88.000002685547,2|0,0:0|3:0,0:0:0:0:
398,156,13234,2,0,P|402:108|398:63,1,88.000002685547,2|8,3:0|0:0,0:0:0:0:
128,92,13542,6,0,B|170:118|170:118|299:108,1,176.000005371094,4|0,3:2|3:0,0:0:0:0:
359,284,14003,2,0,P|317:295|263:286,1,88.000002685547,8|0,0:0|0:0,0:0:0:0:
119,336,14311,2,0,L|112:246,1,88.000002685547,0|0,3:0|3:0,0:0:0:0:
52,43,14619,2,0,L|45:133,1,88.000002685547,8|0,0:0|0:0,0:0:0:0:
208,280,14926,5,0,3:0:0:0:
309,249,15080,1,0,3:0:0:0:
278,147,15234,1,8,0:0:0:0:
177,178,15388,2,0,L|173:266,1,88.000002685547,2|0,0:0|3:0,0:0:0:0:
278,147,15696,2,0,L|274:59,1,88.000002685547,2|8,3:0|0:0,0:0:0:0:
309,249,16003,6,0,P|396:259|488:244,1,176.000005371094,4|0,3:2|3:0,0:0:0:0:
441,78,16465,2,0,P|395:73|344:79,1,88.000002685547,8|0,0:0|0:0,0:0:0:0:
176,179,16773,2,0,P|130:184|79:178,1,88.000002685547,0|0,3:0|3:0,0:0:0:0:
244,18,17080,2,0,L|252:113,1,88.000002685547,8|0,0:0|0:0,0:0:0:0:
320,232,17388,6,0,L|328:137,1,88.000002685547,0|0,3:0|3:0,0:0:0:0:
213,250,17696,1,8,0:0:0:0:
305,369,17849,1,0,0:0:0:0:
305,369,17926,1,0,0:0:0:0:
305,369,18003,2,0,P|352:377|395:372,1,88.000002685547,0|0,3:0|3:0,0:0:0:0:
482,292,18311,1,8,0:0:0:0:
406,121,18465,1,0,3:0:0:0:
406,121,18542,1,0,3:0:0:0:
406,121,18619,6,0,L|401:221,1,88.000002685547,8|0,0:0|3:0,0:0:0:0:
262,279,18926,2,0,L|257:179,1,88.000002685547,8|0,0:0|3:0,0:0:0:0:
120,40,19234,1,8,0:0:0:0:
64,224,19388,1,8,0:0:0:0:
248,176,19542,1,0,3:0:0:0:
112,64,19696,1,8,0:0:0:0:
56,248,19850,5,8,0:0:0:0:
240,200,20004,1,0,3:0:0:0:
104,96,20157,1,8,0:0:0:0:
96,120,20234,1,0,0:0:0:0:
88,144,20311,1,0,3:0:0:0:
80,168,20388,1,0,0:0:0:0:
72,192,20465,1,8,0:0:0:0:
216,336,20619,1,8,0:0:0:0:
216,336,21080,6,0,L|304:328,1,60.0000022888184,2|0,0:0|0:0,0:0:0:0:
400,352,21388,1,0,0:0:0:0:
497,277,21542,2,0,P|501:242|497:205,1,60.0000022888184,2|0,0:0|0:0,0:0:0:0:
378,119,21849,2,0,P|374:154|378:191,1,60.0000022888184
277,156,22157,6,0,L|206:160,1,60.0000022888184,0|2,0:0|0:0,0:0:0:0:
176,284,22465,2,0,L|235:280,1,60.0000022888184
325,319,22773,1,2,0:0:0:0:
411,278,22926,1,0,0:0:0:0:
430,184,23080,2,0,P|434:155|432:122,1,60.0000022888184
359,55,23388,1,0,0:0:0:0:
229,125,23542,6,0,L|293:122,1,60.0000022888184,2|0,0:0|0:0,0:0:0:0:
314,240,23849,1,0,0:0:0:0:
193,269,24003,2,0,P|189:239|191:208,1,60.0000022888184,2|0,0:0|0:0,0:0:0:0:
111,82,24311,2,0,P|115:112|113:143,1,60.0000022888184
181,283,24619,6,0,P|177:253|179:222,1,60.0000022888184,0|2,0:0|0:0,0:0:0:0:
125,69,24926,2,0,P|129:99|127:130,1,60.0000022888184
48,235,25234,2,0,L|-15:229,1,60.0000022888184
181,283,25542,2,0,L|244:277,1,60.0000022888184
331,327,25849,1,0,0:0:0:0:
414,271,26003,6,0,P|417:243|416:208,1,60.0000022888184,2|0,0:0|0:0,0:0:0:0:
328,105,26311,2,0,P|325:77|326:42,1,60.0000022888184,0|0,0:0|0:0,0:0:0:0:
248,156,26619,2,0,P|222:144|192:126,1,60.0000022888184,0|0,0:0|0:0,0:0:0:0:
264,246,26926,2,0,P|241:262|210:279,1,60.0000022888184,0|0,0:0|0:0,0:3:0:0:
101,273,27234,6,0,L|37:271,1,60.0000022888184,2|0,0:0|0:0,0:0:0:0:
148,176,27542,2,0,L|84:174,1,60.0000022888184,0|2,0:0|0:0,0:0:0:0:
327,251,27849,1,0,0:0:0:0:
238,223,28003,1,0,0:0:0:0:
238,127,28157,1,0,0:0:0:0:
327,99,28311,1,0,0:0:0:0:
381,175,28465,6,0,L|448:169,1,60.0000022888184,2|0,0:0|0:0,0:0:0:0:
266,226,28773,2,0,L|198:220,1,60.0000022888184,0|0,0:0|0:0,0:0:0:0:
354,260,29080,2,0,L|359:327,1,60.0000022888184,0|0,0:0|0:0,0:0:0:0:
303,145,29388,2,0,L|308:77,1,60.0000022888184,0|0,0:0|0:0,0:0:0:0:
229,28,29696,5,0,1:0:0:0:
159,269,29901,5,0,1:0:0:0:
403,208,30106,5,0,1:0:0:0:
124,128,30311,5,0,1:0:0:0:
299,309,30517,5,0,1:0:0:0:
368,67,30721,5,0,1:0:0:0:
263,169,30926,6,0,P|256:256|266:344,1,176.000005371094,4|8,3:1|0:0,0:0:0:0:
446,310,31388,2,0,L|353:305,1,88.000002685547,0|0,0:0|3:0,0:0:0:0:
156,258,31696,2,0,L|63:263,1,88.000002685547,0|8,3:0|0:0,0:0:0:0:
256,240,32003,6,0,P|263:197|253:143,1,88.000002685547,0|0,3:0|0:0,0:0:0:0:
120,17,32311,2,0,P|113:60|123:114,1,88.000002685547,0|8,3:0|0:0,0:0:0:0:
299,61,32619,2,0,P|256:54|202:64,1,88.000002685547,0|0,0:0|3:0,0:0:0:0:
77,196,32927,2,0,P|120:203|174:193,1,88.000002685547,0|8,3:0|0:0,0:0:0:0:
371,108,33234,6,0,L|382:10,1,88.000002685547,0|0,0:0|3:0,0:0:0:0:
304,232,33542,2,0,L|315:330,1,88.000002685547,0|8,0:0|0:0,0:0:0:0:
393,127,33849,2,0,L|404:29,1,88.000002685547,0|0,0:0|3:0,0:0:0:0:
270,224,34157,2,0,L|281:322,1,88.000002685547,0|8,3:0|0:0,0:0:0:0:
418,150,34465,6,0,B|429:51|429:51|470:66|477:119,1,176.000005371094,0|0,3:0|3:0,0:0:0:0:
385,309,34926,2,0,P|341:315|296:302,1,88.000002685547,8|0,0:0|0:0,0:0:0:0:
235,121,35234,1,0,3:0:0:0:
312,195,35388,1,0,3:0:0:0:
212,227,35542,2,0,L|117:222,1,88.000002685547,8|0,0:0|0:0,0:0:0:0:
345,87,35849,6,0,B|416:127|483:82|483:82|441:63,1,176.000005371094,4|8,3:1|0:0,0:0:0:0:
237,35,36311,2,0,P|230:81|237:129,1,88.000002685547,0|0,0:0|3:0,0:0:0:0:
350,278,36619,2,0,P|357:232|350:184,1,88.000002685547,0|8,3:0|0:0,0:0:0:0:
249,230,36926,1,2,3:0:0:0:
455,242,37080,5,0,0:0:0:0:
249,230,37234,2,0,L|138:235,1,88.000002685547,2|8,3:0|0:0,0:0:0:0:
354,117,37542,1,0,0:0:0:0:
354,117,37619,1,8,0:0:0:0:
354,117,37696,2,0,L|465:112,1,88.000002685547,0|0,3:0|3:0,0:0:0:0:
268,37,38003,1,8,0:0:0:0:
249,230,38157,1,8,0:0:0:0:
249,230,38234,1,8,0:0:0:0:
249,230,38311,6,0,L|138:225,1,88.000002685547,4|0,3:1|3:0,0:0:0:0:
312,313,38619,1,8,0:0:0:0:
458,258,38773,2,0,P|468:214|459:164,1,88.000002685547,0|0,0:0|3:0,0:0:0:0:
311,64,39080,1,8,0:0:0:0:
311,64,39157,1,8,0:0:0:0:
311,64,39234,1,8,0:0:0:0:
250,140,39388,6,0,P|331:161|397:105,1,176.000005371094,0|0,3:0|3:0,0:0:0:0:
390,10,39849,1,8,0:0:0:0:
239,234,40003,2,0,P|158:255|92:199,1,176.000005371094,4|0,3:1|3:0,0:0:0:0:
95,154,40388,1,0,3:0:0:0:
119,113,40465,2,0,L|115:53,1,44.0000013427735,0|0,3:0|3:0,0:0:0:0:
213,26,40619,2,0,L|217:86,1,44.0000013427735,0|0,3:0|3:0,0:0:0:0:
228,155,40773,5,4,3:1:0:0:
228,155,41080,1,2,0:0:0:0:
313,136,41234,1,0,0:0:0:0:
374,198,41388,1,2,0:0:0:0:
374,198,41696,1,2,0:0:0:0:
374,198,42003,5,0,0:0:0:0:
456,147,42157,2,0,L|461:28,1,120.000004577637,2|0,0:0|0:0,0:0:0:0:
470,238,42619,2,0,P|457:308|470:361,1,120.000004577637,2|0,0:0|0:0,0:0:0:0:
280,296,43234,6,0,P|232:288|168:320,1,120.000004577637,2|0,0:0|0:0,0:0:0:0:
80,352,43696,1,0,0:0:0:0:
8,296,43849,2,0,L|16:176,1,120.000004577637,2|0,0:0|0:0,0:0:0:0:
192,32,44465,6,0,L|196:92,1,60.0000022888184,0|0,0:0|0:0,0:0:0:0:
272,144,44773,1,0,0:0:0:0:
456,88,44926,2,0,P|408:72|336:88,1,120.000004577637,2|0,0:0|0:0,0:0:0:0:
392,224,45388,2,0,L|400:152,1,60.0000022888184,2|0,0:0|0:0,0:0:0:0:
280,376,45696,5,2,0:0:0:0:
189,346,45849,1,0,0:0:0:0:
189,250,46003,1,0,0:0:0:0:
280,221,46157,1,0,0:0:0:0:
337,299,46311,5,2,0:0:0:0:
257,243,46465,1,0,0:0:0:0:
286,152,46619,1,0,0:0:0:0:
381,150,46773,1,0,0:0:0:0:
413,241,46926,6,0,P|432:304|408:368,1,120.000004577637,2|0,0:0|0:0,0:0:0:0:
217,306,47388,2,0,L|337:299,1,120.000004577637,2|0,0:0|0:0,0:0:0:0:
413,241,47849,1,0,0:0:0:0:
413,241,48157,5,0,0:0:0:0:
413,241,48773,2,0,L|490:245,2,40.000001525879,2|0|2,0:0|0:0|0:0,0:0:0:0:
287,201,49080,2,0,L|209:205,2,40.000001525879,2|0|2,0:0|0:0|0:0,0:0:0:0:
329,285,49388,6,0,L|324:362,2,40.000001525879,4|0|2,3:0|0:0|0:0,0:0:0:0:
369,160,49695,2,0,L|364:82,2,40.000001525879,2|0|2,0:0|0:0|0:0,0:0:0:0:
362,186,50003,5,2,0:0:0:0:
359,212,50105,1,0,0:0:0:0:
364,238,50208,1,2,0:0:0:0:
377,261,50310,1,4,3:0:0:0:
396,280,50413,1,2,0:0:0:0:
420,291,50515,1,0,0:0:0:0:
446,295,50619,6,0,L|456:208,1,88.000002685547,4|0,3:1|0:0,0:0:0:0:
341,47,50926,2,0,L|351:134,1,88.000002685547,0|0,3:0|0:0,0:0:0:0:
161,134,51234,2,0,L|171:47,1,88.000002685547,0|0,3:0|0:0,0:0:0:0:
56,208,51542,2,0,L|64:296,1,88.000002685547,0|0,3:0|0:0,0:0:0:0:
133,352,51773,1,8,0:0:0:0:
133,352,51849,6,0,P|177:358|229:346,1,88.000002685547,0|0,3:0|0:0,0:0:0:0:
340,207,52157,2,0,P|296:201|244:213,1,88.000002685547,0|0,3:0|0:0,0:0:0:0:
363,320,52465,1,0,3:0:0:0:
456,305,52619,1,8,0:0:0:0:
166,267,52773,1,0,3:0:0:0:
73,252,52927,1,8,0:0:0:0:
301,160,53080,6,0,P|308:120|302:69,1,88.000002685547,0|0,3:0|0:0,0:0:0:0:
249,255,53388,2,0,P|289:262|340:256,1,88.000002685547,0|0,3:0|0:0,0:0:0:0:
153,208,53696,2,0,P|146:248|152:299,1,88.000002685547,0|0,3:0|0:0,0:0:0:0:
205,113,54004,2,0,P|165:106|114:112,1,88.000002685547,0|0,3:0|0:0,0:0:0:0:
83,310,54311,5,0,3:0:0:0:
172,291,54465,1,0,3:0:0:0:
155,201,54619,1,0,3:0:0:0:
64,219,54773,1,0,3:0:0:0:
105,330,54926,5,4,3:0:0:0:
253,372,55080,1,4,3:0:0:0:
299,224,55234,1,4,3:0:0:0:
148,178,55388,1,4,3:0:0:0:
132,353,55542,6,0,L|235:348,1,88.000002685547,8|0,0:0|3:0,0:0:0:0:
443,282,55849,2,0,L|340:277,1,88.000002685547,8|0,0:0|3:0,0:0:0:0:
229,177,56157,2,0,P|224:135|231:90,1,88.000002685547,8|0,0:0|3:0,0:0:0:0:
317,35,56465,1,0,3:0:0:0:
320,136,56619,1,8,0:0:0:0:
128,104,56773,6,0,L|24:112,1,88.000002685547,0|0,3:0|3:0,0:0:0:0:
16,240,57080,1,8,0:0:0:0:
112,328,57234,1,0,3:0:0:0:
112,328,57311,1,0,0:0:0:0:
112,328,57388,1,0,3:0:0:0:
240,280,57542,2,0,P|329:250|393:298,1,176.000005371094,8|0,0:0|0:0,0:0:0:0:
445,362,58003,5,0,0:0:0:0:
417,376,58079,1,0,0:0:0:0:
386,380,58156,1,0,0:0:0:0:
356,372,58233,1,0,0:0:0:0:
331,353,58310,1,0,0:0:0:0:
314,327,58387,1,0,0:0:0:0:
309,296,58464,1,0,0:0:0:0:
315,265,58541,1,0,0:0:0:0:
333,239,58618,1,0,0:0:0:0:
358,222,58695,1,0,0:0:0:0:
389,215,58772,1,0,0:0:0:0:
420,219,58849,1,0,0:0:0:0:
447,235,58926,1,0,0:0:0:0:
466,260,59003,1,0,0:0:0:0:
475,290,59079,1,0,0:0:0:0:
475,290,60157,5,0,0:0:0:0:
473,257,60233,1,2,0:0:0:0:
471,224,60310,1,0,0:0:0:0:
469,191,60387,1,2,0:0:0:0:
468,158,60465,6,0,L|475:69,1,88.000002685547,4|0,3:2|0:0,0:0:0:0:
322,29,60773,1,8,0:0:0:0:
289,181,60926,2,0,P|333:185|377:176,1,88.000002685547,0|0,0:0|3:0,0:0:0:0:
152,140,61234,2,0,P|108:136|64:145,1,88.000002685547,0|8,0:0|0:0,0:0:0:0:
195,230,61542,6,0,L|203:322,1,88.000002685547,0|0,0:0|3:0,0:0:0:0:
248,93,61849,2,0,L|240:1,1,88.000002685547,0|8,0:0|0:0,0:0:0:0:
361,86,62157,1,0,0:0:0:0:
371,230,62311,1,0,3:0:0:0:
252,312,62465,2,0,P|207:321|164:313,1,88.000002685547,0|8,0:0|0:0,0:0:0:0:
306,233,62773,1,8,0:0:0:0:
306,233,62849,1,8,0:0:0:0:
306,233,62926,6,0,P|348:285|322:386,1,176.000005371094,0|8,3:0|0:0,0:0:0:0:
210,215,63388,2,0,P|203:173|209:124,1,88.000002685547,0|0,0:0|3:0,0:0:0:0:
382,40,63696,2,0,P|389:82|383:131,1,88.000002685547,0|8,0:0|0:0,0:0:0:0:
291,80,64003,1,0,0:0:0:0:
490,94,64157,5,2,3:0:0:0:
480,193,64311,1,2,0:0:0:0:
316,326,64465,1,8,0:0:0:0:
306,227,64619,2,0,L|299:137,1,88.000002685547,2|0,0:0|3:0,0:0:0:0:
207,82,64926,1,2,0:0:0:0:
104,116,65080,1,8,0:0:0:0:
82,222,65234,1,8,0:0:0:0:
82,222,65311,1,8,0:0:0:0:
82,222,65388,5,4,3:2:0:0:
152,371,65542,2,0,P|161:329|155:284,1,88.000002685547,0|8,0:0|0:0,0:0:0:0:
62,324,65849,1,0,0:0:0:0:
257,324,66003,2,0,L|350:322,1,88.000002685547,0|0,3:0|0:0,0:0:0:0:
496,178,66311,2,0,L|403:180,1,88.000002685547,8|0,0:0|0:0,0:0:0:0:
252,171,66619,6,0,P|207:113|237:19,1,176.000005371094,0|8,3:0|0:0,0:0:0:0:
310,91,67080,1,0,0:0:0:0:
199,258,67234,1,0,3:0:0:0:
93,88,67388,1,0,3:0:0:0:
93,88,67465,1,8,0:0:0:0:
93,88,67542,1,8,0:0:0:0:
333,215,67696,6,0,P|414:238|494:187,1,176.000005371094,4|0,3:2|3:0,0:0:0:0:
414,57,68157,2,0,L|407:148,1,88.000002685547,8|0,0:0|3:0,0:0:0:0:
226,103,68465,2,0,L|219:12,1,88.000002685547,8|0,0:0|3:0,0:0:0:0:
263,292,68773,1,0,3:0:0:0:
166,320,68926,1,0,3:0:0:0:
77,271,69080,6,0,P|73:229|76:180,1,88.000002685547,8|0,0:0|3:0,0:0:0:0:
277,91,69388,2,0,P|281:133|278:182,1,88.000002685547,8|0,0:0|3:0,0:0:0:0:
179,135,69696,1,8,0:0:0:0:
394,140,69849,1,0,3:0:0:0:
394,140,69926,1,8,0:0:0:0:
394,140,70003,1,8,0:0:0:0:
293,333,70157,1,8,0:0:0:0:
293,333,70234,1,8,0:0:0:0:
293,333,70311,6,0,P|282:246|292:158,1,176.000005371094,4|8,3:2|0:0,0:0:0:0:
418,47,70773,2,0,L|510:51,1,88.000002685547,0|0,0:0|3:0,0:0:0:0:
235,99,71080,2,0,L|143:95,1,88.000002685547,0|8,0:0|0:0,0:0:0:0:
424,126,71388,6,0,L|516:130,1,88.000002685547,0|0,0:0|3:0,0:0:0:0:
246,21,71696,2,0,L|154:17,1,88.000002685547,0|8,0:0|0:0,0:0:0:0:
76,153,72003,1,0,0:0:0:0:
172,340,72157,2,0,P|194:278|174:210,1,132.00000402832,0|2,3:0|0:0,0:0:0:0:
177,215,72465,1,8,0:0:0:0:
335,328,72619,1,8,0:0:0:0:
335,328,72696,1,8,0:0:0:0:
335,328,72773,6,0,P|416:343|479:282,1,176.000005371094,4|8,3:2|0:0,0:0:0:0:
396,167,73234,2,0,L|392:255,1,88.000002685547,0|0,0:0|3:0,0:0:0:0:
271,100,73542,2,0,L|275:12,1,88.000002685547,0|8,0:0|0:0,0:0:0:0:
138,152,73849,2,0,L|134:240,1,88.000002685547,0|0,0:0|3:0,0:0:0:0:
222,307,74157,5,0,0:0:0:0:
406,272,74311,2,0,P|359:260|316:267,1,88.000002685547,8|0,0:0|0:0,0:0:0:0:
363,356,74619,1,0,3:0:0:0:
456,189,74773,1,8,0:0:0:0:
456,189,74849,1,8,0:0:0:0:
456,189,74926,1,8,0:0:0:0:
266,195,75080,1,8,0:0:0:0:
266,195,75157,1,8,0:0:0:0:
266,195,75234,6,0,P|229:260|265:349,1,176.000005371094,4|8,3:2|0:0,0:0:0:0:
325,275,75696,1,0,0:0:0:0:
135,271,75849,2,0,L|46:279,1,88.000002685547,0|0,3:0|0:0,0:0:0:0:
0,125,76157,2,0,L|89:133,1,88.000002685547,8|0,0:0|0:0,0:0:0:0:
187,107,76465,5,0,3:0:0:0:
230,19,76619,1,0,0:0:0:0:
316,181,76773,1,8,0:0:0:0:
310,84,76927,1,0,0:0:0:0:
466,178,77080,1,0,3:0:0:0:
412,97,77234,1,0,3:0:0:0:
412,97,77311,1,8,0:0:0:0:
412,97,77388,1,8,0:0:0:0:
413,264,77542,6,0,P|368:294|255:261,1,176.000005371094,4|0,3:2|3:0,0:0:0:0:
338,123,78003,2,0,P|342:170|336:218,1,88.000002685547,8|0,0:0|3:0,0:0:0:0:
140,130,78311,2,0,P|136:83|142:35,1,88.000002685547,8|0,0:0|3:0,0:0:0:0:
232,90,78619,1,0,3:0:0:0:
35,96,78773,1,8,0:0:0:0:
232,90,78926,6,0,L|321:97,1,88.000002685547,0|0,3:0|3:0,0:0:0:0:
486,181,79234,2,0,L|397:188,1,88.000002685547,8|0,0:0|3:0,0:0:0:0:
306,326,79542,1,0,3:0:0:0:
471,333,79696,1,0,3:0:0:0:
471,333,79773,1,8,0:0:0:0:
471,333,79849,1,8,0:0:0:0:
298,229,80003,6,0,P|209:214|125:232,1,176.000005371094,4|0,3:2|0:0,0:0:0:0:
43,366,80465,2,0,L|33:274,1,88.000002685547,8|0,0:0|0:0,0:0:0:0:
220,89,80773,2,0,L|210:181,1,88.000002685547,0|0,3:0|0:0,0:0:0:0:
380,320,81080,1,8,0:0:0:0:
405,229,81234,1,0,0:0:0:0:
317,252,81388,6,0,L|498:262,1,176.000005371094,0|8,3:0|0:0,0:0:0:0:
466,151,81849,2,0,P|463:107|470:58,1,88.000002685547,0|0,0:0|3:0,0:0:0:0:
334,8,82157,2,0,P|337:52|330:101,1,88.000002685547,0|8,3:0|0:0,0:0:0:0:
237,143,82465,2,0,L|240:86,1,44.0000013427735,0|0,3:0|3:0,0:0:0:0:
242,47,82619,5,8,0:0:0:0:
326,198,82773,1,8,0:0:0:0:
242,47,82926,1,8,0:0:0:0:
238,253,83080,1,8,0:0:0:0:
242,47,83234,1,8,0:0:0:0:
117,254,83388,1,8,0:0:0:0:
242,47,83542,1,8,0:0:0:0:
0,181,83696,1,8,0:0:0:0:
90,137,83849,6,0,L|178:147,1,88.000002685547,2|0,0:0|0:0,0:0:0:0:
297,285,84157,1,0,0:0:0:0:
125,122,84311,2,0,L|213:132,1,88.000002685547,2|0,0:0|0:0,0:0:0:0:
297,285,84619,1,0,0:0:0:0:
164,107,84773,1,2,0:0:0:0:
297,285,84926,6,0,P|235:333|147:304,1,176.000005371094,4|0,3:2|3:0,0:0:0:0:
219,162,85388,2,0,L|217:253,1,88.000002685547,8|0,0:0|0:0,0:0:0:0:
340,103,85696,2,0,L|342:12,1,88.000002685547,0|0,3:0|3:0,0:0:0:0:
465,161,86003,2,0,L|463:252,1,88.000002685547,8|0,0:0|0:0,0:0:0:0:
359,337,86311,6,0,P|313:344|272:335,1,88.000002685547,0|0,3:0|3:0,0:0:0:0:
197,263,86619,1,8,0:0:0:0:
266,90,86773,2,0,L|263:179,1,88.000002685547,2|0,0:0|3:0,0:0:0:0:
399,108,87080,2,0,L|396:19,1,88.000002685547,2|8,3:0|0:0,0:0:0:0:
487,192,87388,6,0,P|416:240|334:216,1,176.000005371094,4|0,3:2|3:2,0:0:0:0:
260,107,87849,2,0,L|248:5,1,88.000002685547,8|0,0:0|0:0,0:0:0:0:
76,66,88157,2,0,L|64:168,1,88.000002685547,0|0,3:0|3:0,0:0:0:0:
128,240,88465,1,8,0:0:0:0:
168,144,88619,1,0,0:0:0:0:
32,264,88773,5,0,3:0:0:0:
208,320,88926,2,0,L|307:312,1,88.000002685547,0|8,3:0|0:0,0:0:0:0:
442,163,89234,2,0,P|447:120|438:77,1,88.000002685547,2|0,0:0|3:0,0:0:0:0:
408,268,89542,2,0,P|403:311|412:354,1,88.000002685547,2|8,3:0|0:0,0:0:0:0:
496,304,89850,1,2,0:0:0:0:
496,304,89926,1,0,3:0:0:0:
496,304,90003,5,8,0:0:0:0:
312,288,90157,2,0,L|224:296,1,88.000002685547,2|8,3:0|0:0,0:0:0:0:
416,144,90465,2,0,P|424:104|416:56,1,88.000002685547,2|8,3:0|0:0,0:0:0:0:
336,8,90773,1,2,3:0:0:0:
320,96,90926,1,0,3:0:0:0:
488,216,91080,1,8,0:0:0:0:
304,296,91234,5,2,3:0:0:0:
282,294,91310,1,0,0:0:0:0:
260,292,91387,1,2,3:0:0:0:
238,290,91464,1,0,0:0:0:0:
216,288,91541,1,8,0:0:0:0:
194,286,91618,1,0,0:0:0:0:
172,285,91695,1,2,3:0:0:0:
150,283,91772,1,0,0:0:0:0:
128,281,91849,1,8,0:0:0:0:
56,104,92003,1,8,0:0:0:0:
