osu file format v13

[General]
AudioFilename: Miiro.mp3
AudioLeadIn: 0
PreviewTime: 59542
Countdown: 0
SampleSet: Soft
StackLeniency: 0.3
Mode: 0
LetterboxInBreaks: 0
WidescreenStoryboard: 0

[Editor]
DistanceSpacing: 1.2
BeatDivisor: 4
GridSize: 8
TimelineZoom: 1

[Metadata]
Title:MIIRO
TitleUnicode:海色
Artist:AKINO from bless4
ArtistUnicode:AKINO from bless4
Creator:No_Gu
Version:Easy
Source:Kantai Collection -KanColle-
Tags:艦隊これくしょん -艦これ- みいろ KantoKun
BeatmapID:578161
BeatmapSetID:251251

[Difficulty]
HPDrainRate:2
CircleSize:3
OverallDifficulty:1
ApproachRate:3
SliderMultiplier:0.8
SliderTickRate:1

[Events]
//Background and Video events
0,0,"Kancolle.jpg",0,0
Video,4907,"video.flv"
//Break Periods
2,20818,29486
//Storyboard Layer 0 (Background)
//Storyboard Layer 1 (Fail)
//Storyboard Layer 2 (Pass)
//Storyboard Layer 3 (Foreground)
//Storyboard Sound Samples

[TimingPoints]
3850,307.692307692308,4,2,1,70,1,0
60465,-100,4,2,1,70,0,1
70234,-100,4,2,1,70,0,0
70311,-100,4,2,1,70,0,1
83850,-100,4,2,1,70,0,0

[Colours]
Combo1 : 128,255,128
Combo2 : 255,255,128
Combo3 : 255,128,128
Combo4 : 128,255,255

[HitObjects]
208,152,5080,5,2,0:0:0:0:
208,152,6311,2,0,P|256:240|304:152,1,240,2|0,0:0|0:0,0:0:0:0:
256,192,7542,12,2,10465,0:0:0:0:
104,48,12465,6,0,P|96:112|104:176,1,120,2|0,0:0|0:0,0:0:0:0:
176,232,13234,1,2,0:0:0:0:
272,208,13542,6,0,L|392:216,1,120,4|8,3:2|0:0,0:0:0:0:
416,312,14311,2,0,L|336:306,1,80,0|8,3:0|0:0,0:0:0:0:
248,352,14926,2,0,P|192:336|128:352,1,120,0|2,3:0|0:0,0:0:0:0:
40,320,15696,1,0,0:0:0:0:
8,232,16003,6,0,L|16:112,1,120,4|8,3:2|0:0,0:0:0:0:
104,160,16773,2,0,L|110:64,1,80,0|8,3:0|0:0,0:0:0:0:
192,40,17388,2,0,P|248:56|312:40,1,120,0|2,3:0|0:0,0:0:0:0:
400,48,18157,1,0,0:0:0:0:
440,136,18465,6,0,L|432:256,1,120,2|8,0:0|0:0,0:0:0:0:
368,328,19234,2,0,P|317:348|252:328,2,120,8|8|8,0:0|0:0|0:0,0:0:0:0:
312,248,20465,2,0,L|304:192,1,40,8|8,0:0|0:0,0:0:0:0:
128,56,30926,6,0,L|120:136,1,80,4|8,3:2|0:0,0:0:0:0:
256,272,31849,1,8,0:0:0:0:
392,136,32465,2,0,L|384:56,2,80,8|0|8,0:0|3:0|0:0,0:0:0:0:
464,200,33388,5,0,3:0:0:0:
376,232,33696,2,8,B|336:272|352:336|352:336|328:336|312:312,1,160
256,232,34619,1,0,3:0:0:0:
200,312,34926,2,8,B|184:336|160:336|160:336|176:272|136:232,1,160
48,200,35849,6,0,L|64:120,1,80,4|8,3:1|0:0,0:0:0:0:
256,160,36773,1,8,0:0:0:0:
448,121,37388,2,0,L|464:200,2,80,8|0|8,0:0|3:0|0:0,0:0:0:0:
256,192,38311,12,4,40773,3:2:0:0:
232,144,42003,6,0,L|224:24,2,120,0|2|0,0:0|0:0|0:0,0:0:0:0:
304,208,43234,6,0,P|368:224|432:200,2,120,0|0|0,0:0|0:0|0:0,0:0:0:0:
216,240,44465,2,0,P|152:224|88:248,2,120,0|2|0,0:0|0:0|0:0,0:0:0:0:
264,320,45696,5,0,0:0:0:0:
336,144,46311,1,2,0:0:0:0:
360,336,46926,2,0,L|480:328,2,120,0|2|0,0:0|0:0|0:0,0:0:0:0:
264,320,48157,6,0,L|144:328,2,120,0|0|2,0:0|0:0|0:0,0:0:0:0:
248,224,49388,2,0,P|232:176|240:104,2,120,4|4|4,3:0|3:0|3:0,0:0:0:0:
336,264,50619,6,0,P|424:280|336:184,1,320,0|0,3:0|3:0,0:0:0:0:
248,176,52157,2,0,P|232:128|248:56,1,120,0|8,3:0|0:0,0:0:0:0:
152,72,52926,6,0,L|24:80,1,120,8|0,0:0|3:0,0:0:0:0:
64,168,53696,2,0,L|56:248,1,80,0|0,3:0|3:0,0:0:0:0:
128,312,54311,1,0,3:0:0:0:
224,288,54619,2,0,P|304:280|360:344,1,160,0|0,3:0|3:0,0:0:0:0:
424,264,55542,6,0,L|520:272,2,80,8|8|8,0:0|0:0|0:0,0:0:0:0:
328,152,56619,2,8,P|320:88|328:24,2,120,8|8|8,0:0|0:0|0:0,0:0:0:0:
280,288,58003,6,0,P|176:336|224:240,1,280,8|2,0:0|0:0,0:0:0:0:
480,32,60465,6,0,L|400:40,1,80,4|8,3:2|0:0,0:0:0:0:
256,160,61388,1,8,0:0:0:0:
112,32,62003,2,0,L|32:24,2,80,8|0|8,0:0|3:0|0:0,0:0:0:0:
192,88,62926,5,0,3:0:0:0:
184,184,63234,2,8,P|176:264|184:344,1,160
256,280,64157,1,0,3:0:0:0:
328,342,64465,2,8,P|335:263|328:184,1,160
416,144,65388,5,4,3:1:0:0:
336,88,65696,2,8,L|168:88,1,160
96,144,66619,1,0,3:0:0:0:
80,240,66926,2,0,P|40:232|8:200,2,80,8|0|8,0:0|3:0|0:0,0:0:0:0:
256,312,68157,6,8,L|256:232,1,80
256,40,69080,2,8,L|256:120,1,80
504,264,70311,5,4,3:2:0:0:
416,224,70619,2,8,P|352:264|352:352,1,160
256,320,71542,1,0,3:0:0:0:
165,342,71849,2,8,P|160:265|96:224,1,160
8,264,72772,5,0,3:0:0:0:
16,168,73080,2,8,B|24:88|24:88|48:48|104:56,1,160
152,128,74003,1,0,3:0:0:0:
184,40,74311,2,8,B|232:48|256:72|256:72|280:48|336:40,1,160
360,128,75234,5,4,3:2:0:0:
420,54,75542,2,8,B|464:48|488:88|488:88|496:168,1,160
448,248,76465,2,0,L|456:328,1,80,0|8,3:0|0:0,0:0:0:0:
360,352,77080,2,0,L|352:272,1,80,0|8,3:0|0:0,0:0:0:0:
240,112,78003,5,8,0:0:0:0:
184,192,78311,2,0,L|56:184,2,120,8|8|8,0:0|0:0|0:0,0:0:0:0:
280,208,79542,2,0,L|408:200,1,120,8|4,0:0|3:1,0:0:0:0:
256,192,80157,12,2,83850,0:0:0:0:
129,180,85388,5,8,0:0:0:0:
56,240,85696,1,0,3:0:0:0:
144,272,86003,2,0,L|224:264,1,80,8|0,0:0|3:0,0:0:0:0:
312,296,86619,2,0,P|368:280|432:304,1,120,8|2,0:0|0:0,0:0:0:0:
512,344,87388,6,0,L|504:216,1,120,4|8,3:2|0:0,0:0:0:0:
424,168,88157,2,0,P|392:160|336:160,1,80,0|8,3:0|0:0,0:0:0:0:
256,192,88773,2,0,P|200:208|136:200,1,120,0|2,3:0|0:0,0:0:0:0:
80,128,89542,1,0,0:0:0:0:
128,48,89849,6,0,P|184:32|248:40,1,120,8|8,0:2|0:0,0:0:0:0:
328,88,90619,2,0,L|450:80,2,120,8|8|8,0:0|0:0|0:0,0:0:0:0:
243,133,91850,2,8,L|237:180,1,40
