osu file format v13

[General]
AudioFilename: miiro.mp3
AudioLeadIn: 0
PreviewTime: 59543
Countdown: 0
SampleSet: Soft
StackLeniency: 0.7
Mode: 0
LetterboxInBreaks: 0
WidescreenStoryboard: 0

[Editor]
Bookmarks: 46846
DistanceSpacing: 1.1
BeatDivisor: 4
GridSize: 4
TimelineZoom: 1.7

[Metadata]
Title:MIIRO
TitleUnicode:海色
Artist:AKINO from bless4
ArtistUnicode:AKINO from bless4
Creator:HabiHolic
Version:Normal
Source:艦隊これくしょん -艦これ-
Tags:みいろ TV Size opening kantai collection kancolle Laurier
BeatmapID:590595
BeatmapSetID:257623

[Difficulty]
HPDrainRate:3
CircleSize:3
OverallDifficulty:3
ApproachRate:5
SliderMultiplier:1.1
SliderTickRate:1

[Events]
//Background and Video events
0,0,"BG.jpg",0,0
Video,4732,"Video.avi"
//Break Periods
//Storyboard Layer 0 (Background)
//Storyboard Layer 1 (Fail)
//Storyboard Layer 2 (Pass)
//Storyboard Layer 3 (Foreground)
//Storyboard Sound Samples

[TimingPoints]
5082,307.692307692308,4,2,3,50,1,0
11082,-100,4,2,1,70,0,0
21082,-100,4,2,0,50,0,0
30928,-100,4,2,1,70,0,0
40774,-100,4,2,0,70,0,0
49389,-100,4,2,1,50,0,0
60466,-100,4,2,1,70,0,1
83851,-100,4,2,0,50,0,0
84928,-100,4,2,1,70,0,0

[Colours]
Combo1 : 255,128,128
Combo2 : 128,255,128
Combo3 : 0,128,192
Combo4 : 255,98,21

[HitObjects]
68,224,5082,6,0,P|68:280|96:328,1,110,4|2,0:0|0:0,0:0:0:0:
216,328,5697,2,0,P|242:280|242:226,1,110,2|2,0:0|0:0,0:0:0:0:
216,172,6158,1,0,0:0:0:0:
184,120,6312,6,0,L|352:104,2,165,2|2|2,0:0|0:0|0:0,0:0:0:0:
88,192,7543,2,0,P|56:120|88:32,2,165,2|2|2,0:0|0:0|0:0,0:0:0:0:
256,192,8774,12,4,11082,1:0:0:0:
264,336,12158,5,8,0:0:0:0:
264,336,12466,2,0,P|343:352|415:316,1,165,2|2,0:0|0:0,0:0:0:0:
484,216,13235,2,0,L|480:152,1,55,2|8,0:0|0:0,0:0:0:0:
476,100,13543,6,0,P|424:116|364:108,1,110,6|0,0:0|0:0,0:0:0:0:
316,84,14005,2,0,L|324:196,2,110,8|2|8,0:0|0:0|0:0,0:0:0:0:
200,52,14928,2,0,P|148:34|96:49,1,110,2|8,0:0|0:0,0:0:0:0:
44,84,15389,2,0,L|48:204,2,110,2|2|4,0:0|0:0|0:0,0:0:0:0:
151,135,16312,5,2,0:0:0:0:
151,135,16466,2,0,P|205:148|257:133,1,110,8|2,0:0|0:0,0:0:0:0:
364,76,17082,1,8,0:0:0:0:
472,128,17389,2,0,L|468:240,1,110,2|8,0:0|0:0,0:0:0:0:
456,299,17851,2,0,P|403:312|351:296,1,110,2|2,0:0|0:0,0:0:0:0:
316,248,18312,1,8,0:0:0:0:
216,180,18620,6,0,P|164:168|104:184,1,110,8|8,0:0|0:0,0:0:0:0:
4,216,19235,2,0,L|0:100,1,110,8|8,0:0|0:0,0:0:0:0:
100,36,19851,2,0,P|156:24|208:36,1,110,8|8,0:0|0:0,0:0:0:0:
300,112,20466,2,0,L|296:184,1,55,8|8,0:0|0:0,0:0:0:0:
296,348,21082,6,0,P|240:360|184:340,1,110,2|2,0:0|0:0,0:0:0:0:
156,296,21543,2,0,L|152:184,1,110
148,124,22005,1,2,0:0:0:0:
244,48,22312,2,0,P|300:36|364:52,1,110,0|2,0:0|0:0,0:0:0:0:
460,100,22928,2,0,L|456:216,1,110,0|2,0:0|0:0,0:0:0:0:
360,284,23543,6,0,P|304:300|248:280,1,110,0|2,0:0|0:0,0:0:0:0:
212,244,24005,2,0,L|220:364,2,110,0|0|0,0:0|0:0|0:0,0:0:0:0:
184,124,24928,2,0,L|248:120,1,55,0|2,0:0|0:0,0:0:0:0:
292,152,25235,2,0,P|364:172|440:120,1,165,0|2,0:0|0:0,0:0:0:0:
492,232,26005,6,0,L|488:344,1,110,0|2,0:0|0:0,0:0:0:0:
372,368,26620,2,0,P|320:372|264:356,1,110,0|2,0:0|0:0,0:0:0:0:
216,320,27082,2,0,L|212:204,2,110,0|0|0,0:0|0:0|0:0,0:0:0:0:
96,336,28005,2,0,L|36:340,1,55,0|2,0:0|0:0,0:0:0:0:
20,284,28312,2,0,P|28:228|24:168,1,110,0|0,0:0|0:0,0:0:0:0:
12,116,28774,1,2,0:0:0:0:
12,116,28928,2,0,L|184:108,1,165,0|2,0:0|0:0,0:0:0:0:
248,208,29697,6,0,P|384:215|326:91,1,330,2|2,0:0|0:0,0:0:0:0:
204,100,30928,6,0,P|151:87|98:103,1,110,4|8,1:0|0:0,0:0:0:0:
24,196,31543,2,0,L|28:312,1,110,2|8,0:0|0:0,0:0:0:0:
72,348,32005,2,0,P|132:356|188:332,1,110,2|2,0:0|0:0,0:0:0:0:
224,300,32466,1,8,0:0:0:0:
224,300,32620,2,0,L|216:116,1,165,2|8,0:0|0:0,0:0:0:0:
300,48,33389,6,0,P|356:36|420:52,1,110,2|8,0:0|0:0,0:0:0:0:
452,88,33851,2,0,L|448:204,1,110,2|2,0:0|0:0,0:0:0:0:
444,260,34312,1,8,0:0:0:0:
348,336,34620,2,0,P|292:352|240:340,1,110,2|8,0:0|0:0,0:0:0:0:
148,264,35235,2,0,L|144:152,1,110,2|8,0:0|0:0,0:0:0:0:
88,44,35851,6,0,P|140:32|204:48,1,110,4|8,0:0|0:0,0:0:0:0:
244,76,36312,1,2,0:0:0:0:
244,76,36466,2,0,L|240:192,1,110,2|8,0:0|0:0,0:0:0:0:
292,296,37082,2,0,L|352:292,1,55,2|2,0:0|0:0,0:0:0:0:
400,324,37389,2,0,P|388:272|400:212,1,110,8|2,0:0|0:0,0:0:0:0:
488,136,38005,1,8,0:0:0:0:
392,64,38312,6,0,P|340:44|288:56,1,110,4|8,0:0|0:0,0:0:0:0:
220,160,38928,2,0,L|216:232,2,55,2|2|8,0:0|0:0|0:0,0:0:0:0:
180,112,39389,2,0,P|120:100|68:116,1,110,2|2,0:0|0:0,0:0:0:0:
24,148,39851,1,8,0:0:0:0:
24,148,40005,2,0,L|32:316,1,165,2|8,0:0|0:0,0:0:0:0:
144,356,40774,6,0,P|200:364|256:352,1,110,4|2,0:0|0:0,0:0:0:0:
348,280,41389,2,0,L|344:160,1,110,0|2,0:0|0:0,0:0:0:0:
340,48,42005,2,0,P|284:40|224:56,1,110,0|2,0:0|0:0,0:0:0:0:
192,96,42466,2,0,P|138:108|84:99,1,110
36,60,42928,1,2,0:0:0:0:
8,176,43235,6,0,L|12:288,1,110,0|2,0:0|0:0,0:0:0:0:
32,344,43697,2,0,P|88:356|144:336,1,110
188,308,44158,1,2,0:0:0:0:
288,240,44466,2,0,P|344:228|396:244,1,110,0|2,0:0|0:0,0:0:0:0:
448,268,44928,2,0,L|456:148,1,110,0|0,0:0|0:0,0:0:0:0:
460,96,45389,1,2,0:0:0:0:
352,40,45697,6,0,P|296:28|244:48,1,110,0|2,0:0|0:0,0:0:0:0:
192,152,46312,2,0,L|196:268,1,110,0|2,0:0|0:0,0:0:0:0:
120,360,46928,2,0,P|60:360|12:324,1,110,0|2,0:0|0:0,0:0:0:0:
4,276,47389,2,0,L|8:160,1,110
12,104,47851,1,2,0:0:0:0:
116,44,48158,6,0,P|172:32|228:52,1,110,0|2,0:0|0:0,0:0:0:0:
272,80,48620,2,0,P|324:95|377:83,1,110,0|0,0:0|0:0,0:0:0:0:
428,52,49082,1,2,0:0:0:0:
492,156,49389,2,0,L|488:336,2,165,8|2|4,0:0|0:0|3:0,0:0:0:0:
384,208,50620,6,0,P|336:220|272:208,1,110,6|2,0:0|0:0,0:0:0:0:
188,128,51235,2,0,L|192:12,1,110,2|2,0:0|0:0,0:0:0:0:
72,12,51851,2,0,L|68:121,1,110,2|2,0:0|0:0,0:0:0:0:
40,240,52466,2,0,L|100:236,1,55,2|8,0:0|0:0,0:0:0:0:
148,268,52774,2,0,L|202:264,1,55,8|8,0:0|0:0,0:0:0:0:
256,232,53082,6,0,P|308:216|368:232,1,110,2|2,0:0|0:0,0:0:0:0:
472,272,53697,2,0,L|476:152,1,110,2|2,0:0|0:0,0:0:0:0:
403,63,54312,2,0,P|353:44|300:55,1,110,2|2,0:0|0:0,0:0:0:0:
192,108,54928,2,0,L|196:172,1,55,8|2,0:0|0:0,0:0:0:0:
148,196,55235,2,0,L|152:260,1,55,8|2,0:0|0:0,0:0:0:0:
160,312,55543,6,0,P|216:320|280:308,1,110,8|8,0:0|0:0,0:0:0:0:
380,260,56158,2,0,L|376:140,1,110,8|8,0:0|0:0,0:0:0:0:
404,32,56774,2,0,P|460:24|512:48,2,110,8|8|8,0:0|0:0|0:0,0:0:0:0:
288,64,57697,1,8,0:0:0:0:
256,192,58005,12,8,59082,0:0:0:0:
40,92,60466,6,0,L|44:208,1,110,4|8,1:0|0:0,0:0:0:0:
44,264,60928,2,0,P|96:280|152:256,1,110,2|2,0:0|0:0,0:0:0:0:
196,228,61389,1,8,0:0:0:0:
276,140,61697,6,0,P|328:124|388:144,1,110,2|8,0:0|0:0,0:0:0:0:
432,176,62158,1,0,0:0:0:0:
432,176,62312,2,0,L|440:64,2,110,2|8|2,0:0|0:0|0:0,0:0:0:0:
412,300,63235,5,8,0:0:0:0:
412,300,63389,2,0,P|332:296|240:324,1,165,2|8,0:0|0:0,0:0:0:0:
132,344,64158,2,0,L|124:228,1,110,2|8,0:0|0:0,0:0:0:0:
64,128,64774,2,0,P|116:108|172:124,1,110,2|8,0:0|0:0,0:0:0:0:
280,172,65389,6,0,P|332:184|383:164,1,110,4|8,0:0|0:0,0:0:0:0:
428,124,65851,1,0,0:0:0:0:
428,124,66005,2,0,L|424:240,1,110,2|8,0:0|0:0,0:0:0:0:
364,340,66620,2,0,P|308:348|252:336,1,110,2|8,0:0|0:0,0:0:0:0:
148,284,67235,2,0,L|144:168,1,110,2|8,0:0|0:0,0:0:0:0:
119,119,67697,6,0,P|195:148|267:113,1,165,4|8,0:0|0:0,0:0:0:0:
364,40,68466,2,0,P|420:40|472:64,1,110,8|8,0:0|0:0,0:0:0:0:
492,180,69082,2,0,P|492:240|496:300,1,110,8|8,0:0|0:0,0:0:0:0:
392,348,69697,2,0,P|336:360|284:348,1,110,8|8,0:0|0:0,0:0:0:0:
236,240,70312,6,0,L|240:128,1,110,4|8,0:0|0:0,0:0:0:0:
244,68,70774,2,0,P|192:48|132:60,1,110,2|2,0:0|0:0,0:0:0:0:
84,80,71235,1,8,0:0:0:0:
12,180,71543,6,0,L|16:292,1,110,2|8,0:0|0:0,0:0:0:0:
124,352,72158,2,0,P|180:360|236:344,1,110,2|8,0:0|0:0,0:0:0:0:
272,304,72620,1,2,0:0:0:0:
272,304,72774,6,0,L|260:184,1,110,6|8,0:0|0:0,0:0:0:0:
292,76,73389,2,0,P|344:64|408:80,1,110,2|8,0:0|0:0,0:0:0:0:
488,160,74005,2,0,L|484:276,1,110,2|8,0:0|0:0,0:0:0:0:
384,336,74620,6,0,P|324:348|272:332,1,110,2|8,0:0|0:0,0:0:0:0:
236,292,75082,1,0,0:0:0:0:
236,292,75235,2,0,L|240:168,1,110,4|8,0:0|0:0,0:0:0:0:
244,60,75851,2,0,P|188:44|136:60,1,110,2|8,0:0|0:0,0:0:0:0:
40,140,76466,6,0,P|44:196|40:252,1,110,2|8,0:0|0:0,0:0:0:0:
20,308,76928,2,0,L|132:304,1,110,2|2,0:0|0:0,0:0:0:0:
188,320,77389,2,0,L|184:256,1,55,8|4,0:0|0:0,0:0:0:0:
172,84,78005,5,8,0:0:0:0:
280,28,78312,1,8,0:0:0:0:
400,52,78620,1,8,0:0:0:0:
476,148,78928,2,0,P|472:208|484:260,1,110,8|8,0:0|0:0,0:0:0:0:
400,344,79543,2,0,L|288:348,1,110,8|8,0:0|0:0,0:0:0:0:
228,352,80005,6,0,P|236:292|224:228,1,110,4|2,0:0|0:0,0:0:0:0:
196,192,80466,1,8,0:0:0:0:
140,80,80774,2,0,L|28:84,2,110,2|8|2,0:0|0:0|0:0,0:0:0:0:
260,80,81697,1,8,0:0:0:0:
260,80,81851,2,0,L|372:84,1,110,2|2,0:0|0:0,0:0:0:0:
432,88,82312,1,8,0:0:0:0:
464,203,82620,6,0,P|455:285|470:366,2,165,2|8|4,0:0|3:0|3:0,0:0:0:0:
256,192,83851,12,4,84928,1:0:0:0:
336,252,86005,5,8,0:0:0:0:
248,336,86312,2,0,P|169:352|97:316,1,165,2|2,0:0|0:0,0:0:0:0:
36,212,87082,2,0,L|40:148,1,55,2|8,0:0|0:0,0:0:0:0:
44,96,87389,6,0,P|96:112|156:104,1,110,6|0,0:0|0:0,0:0:0:0:
200,72,87851,2,0,L|192:184,2,110,8|2|8,0:0|0:0|0:0,0:0:0:0:
316,44,88774,2,0,P|368:26|420:41,1,110,2|8,0:0|0:0,0:0:0:0:
464,80,89235,2,0,L|460:200,2,110,2|2|2,0:0|0:0|0:0,0:0:0:0:
356,132,90158,5,2,0:0:0:0:
356,132,90312,2,0,P|304:144|256:120,1,110,8|8,0:0|0:0,0:0:0:0:
144,68,90928,1,8,0:0:0:0:
40,128,91235,2,0,L|44:240,1,110,8|8,0:0|0:0,0:0:0:0:
156,284,91851,2,0,L|160:224,1,55,8|8,0:0|0:0,0:0:0:0:
