osu file format v13

[General]
AudioFilename: miiro.mp3
AudioLeadIn: 0
PreviewTime: 59543
Countdown: 0
SampleSet: Soft
StackLeniency: 0.7
Mode: 0
LetterboxInBreaks: 0
WidescreenStoryboard: 0

[Editor]
Bookmarks: 46846
DistanceSpacing: 1.4
BeatDivisor: 4
GridSize: 4
TimelineZoom: 1.7

[Metadata]
Title:MIIRO
TitleUnicode:海色
Artist:AKINO from bless4
ArtistUnicode:AKINO from bless4
Creator:HabiHolic
Version:Insane
Source:艦隊これくしょん -艦これ-
Tags:みいろ TV Size opening kantai collection kancolle Laurier
BeatmapID:589693
BeatmapSetID:257623

[Difficulty]
HPDrainRate:7
CircleSize:4
OverallDifficulty:7
ApproachRate:9
SliderMultiplier:2
SliderTickRate:1

[Events]
//Background and Video events
0,0,"BG.jpg",0,0
Video,4732,"Video.avi"
//Break Periods
//Storyboard Layer 0 (Background)
//Storyboard Layer 1 (Fail)
//Storyboard Layer 2 (Pass)
//Storyboard Layer 3 (Foreground)
//Storyboard Sound Samples

[TimingPoints]
5082,307.692307692308,4,2,3,50,1,0
5082,-133.333333333333,4,2,3,50,0,0
8774,-133.333333333333,4,2,3,30,0,0
11082,-100,4,2,1,70,0,0
21082,-133.333333333333,4,2,0,50,0,0
30928,-100,4,2,1,70,0,0
40774,-133.333333333333,4,2,0,70,0,0
49389,-133.333333333333,4,2,1,50,0,0
55543,-100,4,2,1,50,0,0
59543,-200,4,2,0,30,0,0
60466,-100,4,2,1,70,0,1
83851,-100,4,2,0,50,0,0
84928,-100,4,2,1,70,0,0

[Colours]
Combo1 : 255,128,128
Combo2 : 128,255,128
Combo3 : 0,128,192
Combo4 : 255,98,21

[HitObjects]
52,204,5082,6,0,L|48:124,1,75.0000028610231,4|0,0:0|0:0,0:0:0:0:
100,48,5389,1,2,0:0:0:0:
100,48,5697,6,0,P|144:44|188:52,1,75.0000028610231,0|0,0:0|0:0,0:0:0:0:
264,88,6005,2,0,L|268:12,1,75.0000028610231,2|0,0:0|0:0,0:0:0:0:
188,144,6312,2,0,L|196:300,1,150.000005722046,0|2,0:0|0:0,0:0:0:0:
296,368,6774,2,0,L|303:218,1,150.000005722046,0|0,0:0|0:0,0:0:0:0:
376,152,7235,1,2,0:0:0:0:
376,152,7543,6,0,P|452:156|504:92,1,150.000005722046,2|0,0:0|0:0,0:0:0:0:
300,84,8005,2,0,L|308:248,1,150.000005722046,2|0,0:0|0:0,0:0:0:0:
316,328,8466,1,2,0:0:0:0:
316,328,8774,5,4,0:0:0:0:
208,352,8928,1,0,0:0:0:0:
104,304,9082,2,0,L|100:224,1,75.0000028610231,2|0,0:0|0:0,0:0:0:0:
96,144,9389,5,2,0:0:0:0:
16,260,9543,1,0,0:0:0:0:
184,192,9697,2,0,P|224:192|264:176,1,75.0000028610231,2|0,0:0|0:0,0:0:0:0:
324,124,10005,6,0,P|344:89|350:46,1,75.0000028610231,2|0,0:0|0:0,0:0:0:0:
260,60,10312,1,2,0:0:0:0:
288,216,10466,1,0,0:0:0:0:
420,136,10620,5,2,0:0:0:0:
208,136,10774,1,4,0:0:0:0:
207,136,11082,6,0,P|113:142|63:60,1,200,4|0,1:0|0:0,0:0:0:0:
156,64,11543,1,8,0:0:0:0:
152,244,11697,1,0,0:0:0:0:
288,180,11851,2,0,P|300:132|284:84,1,100,2|2,0:0|0:0,0:0:0:0:
232,20,12158,1,8,0:0:0:0:
232,244,12312,1,0,0:0:0:0:
116,132,12466,6,0,L|8:128,1,100,2|2,0:0|0:0,0:0:0:0:
64,44,12774,1,8,0:0:0:0:
56,212,12928,1,0,0:0:0:0:
216,144,13082,2,0,P|212:92|180:48,1,100,2|2,0:0|0:0,0:0:0:0:
116,132,13389,1,8,0:0:0:0:
128,276,13543,6,0,P|214:317|296:267,1,200,4|0,0:0|0:0,0:0:0:0:
312,168,14005,2,0,L|304:60,1,100,8|0,0:0|0:0,0:0:0:0:
228,24,14312,1,2,0:0:0:0:
392,108,14466,1,2,0:0:0:0:
184,104,14620,2,0,P|148:68|140:8,1,100,8|0,0:0|0:0,0:0:0:0:
228,24,14928,5,2,0:0:0:0:
392,108,15082,2,0,L|496:104,1,100,2|8,0:0|0:0,0:0:0:0:
375,244,15389,2,0,P|282:263|217:193,1,200,2|2,0:0|0:0,0:0:0:0:
184,104,15851,1,8,0:0:0:0:
472,144,16005,6,0,B|476:220|476:220|464:264|464:264|468:344,1,200,4|2,0:0|0:0,0:0:0:0:
307,295,16466,2,0,P|283:253|290:204,1,100,8|0,0:0|0:0,0:0:0:0:
376,244,16774,1,2,0:0:0:0:
200,200,16928,2,0,P|218:152|266:114,1,100,2|8,0:0|0:0,0:0:0:0:
348,96,17235,1,0,0:0:0:0:
360,304,17389,5,2,0:0:0:0:
428,160,17543,2,0,L|528:156,1,100,2|8,0:0|0:0,0:0:0:0:
464,60,17851,1,0,0:0:0:0:
484,256,18005,1,2,0:0:0:0:
328,180,18158,2,0,P|280:160|256:112,1,100,2|8,0:0|0:0,0:0:0:0:
160,28,18466,5,2,0:0:0:0:
161,42,18543,1,2,0:0:0:0:
162,57,18620,1,8,0:0:0:0:
100,168,18774,1,2,0:0:0:0:
24,120,18928,2,0,L|20:16,1,100,8|2,0:0|0:0,0:0:0:0:
64,252,19235,2,0,P|112:260|164:232,1,100,8|8,0:0|0:0,0:0:0:0:
192,152,19543,1,2,0:0:0:0:
4,196,19697,1,8,0:0:0:0:
192,152,19851,6,0,L|188:52,1,100,8|2,0:0|0:0,0:0:0:0:
320,160,20158,2,0,L|324:260,1,100,8|2,0:0|0:0,0:0:0:0:
332,356,20466,1,8,0:0:0:0:
332,356,20620,1,8,0:0:0:0:
396,128,21082,6,0,P|342:79|271:93,1,150.000005722046,0|2,0:0|0:0,0:0:0:0:
399,212,21543,2,0,P|463:176|474:104,1,150.000005722046,0|0,0:0|0:0,0:0:0:0:
324,172,22005,2,0,P|316:212|324:248,1,75.0000028610231,2|0,0:0|0:0,0:0:0:0:
388,300,22312,2,0,L|472:296,1,75.0000028610231,0|0,0:0|0:0,0:0:0:0:
316,348,22620,2,0,L|232:352,1,75.0000028610231,2|0,0:0|0:0,0:0:0:0:
160,300,22928,2,0,P|152:264|156:224,1,75.0000028610231
236,172,23235,2,0,P|244:208|240:248,1,75.0000028610231,2|0,0:0|0:0,0:0:0:0:
159,132,23543,6,0,P|216:86|286:103,1,150.000005722046,0|2,0:0|0:0,0:0:0:0:
456,151,24005,2,0,P|399:197|329:180,1,150.000005722046,0|0,0:0|0:0,0:0:0:0:
380,116,24466,1,2,0:0:0:0:
456,152,24620,2,0,L|452:304,1,150.000005722046,0|0,0:0|0:0,0:0:0:0:
376,360,25082,1,2,0:0:0:0:
296,304,25235,2,0,P|228:288|164:328,1,150.000005722046
72,356,25697,2,0,L|68:281,1,75.0000028610231,2|0,0:0|0:0,0:0:0:0:
136,228,26005,6,0,P|72:193|4:219,2,150.000005722046,0|2|0,0:0|0:0|0:0,0:0:0:0:
224,272,26774,2,0,L|232:180,1,75.0000028610231,0|2,0:0|0:0,0:0:0:0:
200,104,27082,2,0,P|240:108|280:108,1,75.0000028610231,0|0,0:0|0:0,0:0:0:0:
368,68,27389,2,0,L|364:148,1,75.0000028610231,0|2,0:0|0:0,0:0:0:0:
383,231,27697,2,0,P|455:245|508:196,1,150.000005722046,0|0,0:0|0:0,0:0:0:0:
288,196,28158,1,2,0:0:0:0:
288,196,28312,6,0,L|296:356,1,150.000005722046,0|0,0:0|0:0,0:0:0:0:
295,345,28774,1,2,0:0:0:0:
204,248,28928,2,0,P|168:248|124:228,1,75.0000028610231,0|0,0:0|0:0,0:0:0:0:
80,152,29235,1,0,0:0:0:0:
40,292,29389,1,2,0:0:0:0:
204,248,29543,1,0,0:0:0:0:
256,192,29697,12,0,30774,0:0:0:0:
64,292,30928,6,0,L|56:136,1,150,4|0,1:0|0:0,0:0:0:0:
48,92,31235,1,8,0:0:0:0:
164,144,31389,1,0,0:0:0:0:
240,96,31543,2,0,P|204:64|148:60,1,100,2|2,0:0|0:0,0:0:0:0:
164,144,31851,1,8,0:0:0:0:
320,136,32005,6,0,L|324:32,1,100,0|0,0:0|0:0,0:0:0:0:
323,36,32312,1,2,0:0:0:0:
344,224,32466,1,8,0:0:0:0:
408,160,32620,2,0,P|464:160|508:192,1,100,0|2,0:0|0:0,0:0:0:0:
440,240,32928,1,2,0:0:0:0:
456,76,33082,1,8,0:0:0:0:
320,136,33235,6,0,L|216:132,1,100,0|2,0:0|0:0,0:0:0:0:
100,36,33543,2,0,L|204:40,1,100,2|8,0:0|0:0,0:0:0:0:
52,112,33851,2,0,P|12:76|4:24,1,100,0|2,0:0|0:0,0:0:0:0:
144,116,34158,2,0,L|140:228,1,100,2|8,0:0|0:0,0:0:0:0:
136,304,34466,1,0,0:0:0:0:
272,220,34620,5,2,0:0:0:0:
68,232,34774,1,2,0:0:0:0:
324,152,34928,2,0,P|280:136|220:152,1,100,8|0,0:0|0:0,0:0:0:0:
168,212,35235,1,2,0:0:0:0:
168,212,35389,1,2,0:0:0:0:
408,204,35543,2,0,L|411:104,1,100,8|0,0:0|0:0,0:0:0:0:
348,36,35851,6,0,B|240:20|264:80|152:60,1,200,4|8,0:0|0:0,0:0:0:0:
56,24,36312,1,0,0:0:0:0:
192,164,36466,2,0,L|196:264,1,100,2|2,0:0|0:0,0:0:0:0:
340,320,36774,2,0,L|336:220,1,100,8|0,0:0|0:0,0:0:0:0:
228,84,37082,6,0,P|180:76|132:96,1,100,2|2,0:0|0:0,0:0:0:0:
328,120,37389,2,0,L|324:20,1,100,8|0,0:0|0:0,0:0:0:0:
308,212,37697,1,2,0:0:0:0:
324,20,37851,1,2,0:0:0:0:
396,184,38005,2,0,P|456:184|496:160,1,100,8|0,0:0|0:0,0:0:0:0:
328,120,38312,6,0,P|240:104|144:172,1,200,4|8,0:0|0:0,0:0:0:0:
112,244,38774,1,0,0:0:0:0:
29,190,38928,1,2,0:0:0:0:
28,156,39005,1,2,0:0:0:0:
26,121,39082,1,2,0:0:0:0:
24,86,39158,1,2,0:0:0:0:
22,51,39235,1,8,0:0:0:0:
156,24,39389,6,0,L|160:124,1,100,0|0,0:0|0:0,0:0:0:0:
212,208,39697,1,2,0:0:0:0:
28,156,39851,1,8,0:0:0:0:
280,140,40005,2,0,P|328:128|380:144,1,100,4|2,0:0|0:0,0:0:0:0:
468,200,40312,5,2,0:0:0:0:
468,200,40389,1,2,0:0:0:0:
468,200,40466,1,8,0:0:0:0:
468,200,40543,1,2,0:0:0:0:
468,200,40620,2,0,L|464:148,1,50,2|2,0:0|0:0,0:0:0:0:
496,79,40774,6,0,P|423:90|359:52,1,150.000005722046,4|2,0:0|0:0,0:0:0:0:
204,32,41389,2,0,L|216:184,1,150.000005722046,0|2,0:0|0:0,0:0:0:0:
151,304,42005,2,0,P|48:319|9:223,2,225.000008583069,0|0|2,0:0|0:0|0:0,0:0:0:0:
360,304,43235,2,0,P|463:319|502:223,2,225.000008583069,0|0|2,0:0|0:0|0:0,0:0:0:0:
308,76,44466,6,0,L|316:232,1,150.000005722046,0|2,0:0|0:0,0:0:0:0:
252,288,44928,2,0,P|187:303|111:251,1,150.000005722046
192,144,45389,2,0,L|196:228,1,75.0000028610231,2|0,0:0|0:0,0:0:0:0:
316,220,45697,6,0,P|380:204|456:256,2,150.000005722046,0|2|0,0:0|0:0|0:0,0:0:0:0:
344,88,46620,1,2,0:0:0:0:
168,56,46928,2,0,P|70:93|1:12,2,225.000008583069,0|0|2,0:0|0:0|0:0,0:0:0:0:
344,56,48158,2,0,P|442:93|511:12,2,225.000008583069,2|2|2,0:0|0:0|0:0,0:0:0:0:
256,208,49389,5,8,0:0:0:0:
92,336,49851,1,8,3:0:0:0:
420,336,50312,1,4,3:0:0:0:
340,168,50620,6,0,L|432:160,1,75.0000028610231,2|0,0:0|0:0,0:0:0:0:
380,76,50928,2,0,L|472:68,1,75.0000028610231,2|0,0:0|0:0,0:0:0:0:
132,76,51235,2,0,L|40:68,1,75.0000028610231,2|0,0:0|0:0,0:0:0:0:
172,168,51543,2,0,L|80:160,1,75.0000028610231,2|0,0:0|0:0,0:0:0:0:
16,232,51851,5,2,0:0:0:0:
16,232,52005,1,0,0:0:0:0:
144,336,52158,1,2,0:0:0:0:
144,336,52312,1,0,0:0:0:0:
268,176,52466,2,0,P|260:132|240:96,1,75.0000028610231,2|8,0:0|0:0,0:0:0:0:
172,168,52774,1,8,0:0:0:0:
196,28,52928,1,2,0:0:0:0:
340,112,53082,6,0,L|424:112,1,75.0000028610231,2|0,0:0|0:0,0:0:0:0:
480,184,53389,2,0,P|488:224|480:264,1,75.0000028610231,2|0,0:0|0:0,0:0:0:0:
400,304,53697,2,0,P|392:264|400:224,1,75.0000028610231,2|0,0:0|0:0,0:0:0:0:
308,200,54005,2,0,L|220:204,1,75.0000028610231,2|0,0:0|0:0,0:0:0:0:
156,148,54312,1,2,0:0:0:0:
156,148,54466,1,0,0:0:0:0:
128,63,54620,6,0,P|200:66|246:122,1,150.000005722046,2|8,0:0|0:0,0:0:0:0:
48,112,55082,2,0,L|40:16,1,75.0000028610231,2|8,0:0|0:0,0:0:0:0:
0,192,55389,1,2,0:0:0:0:
60,268,55543,6,0,P|116:272|160:240,1,100,8|2,0:0|0:0,0:0:0:0:
248,192,55851,2,0,L|256:296,1,100,8|2,0:0|0:0,0:0:0:0:
196,360,56158,1,8,0:0:0:0:
248,192,56312,1,2,0:0:0:0:
304,124,56466,2,0,P|256:104|204:116,1,100,8|2,0:0|0:0,0:0:0:0:
35,151,56774,6,0,P|81:171|129:163,1,100,8|2,0:0|0:0,0:0:0:0:
92,88,57082,1,8,0:0:0:0:
248,192,57235,1,2,0:0:0:0:
388,144,57389,2,0,P|384:92|356:56,1,100,8|2,0:0|0:0,0:0:0:0:
248,192,57697,5,8,0:0:0:0:
355,55,57851,1,2,0:0:0:0:
172,32,58005,2,0,L|176:132,1,100,8|2,0:0|0:0,0:0:0:0:
20,256,58312,2,0,L|16:156,1,100,8|2,0:0|0:0,0:0:0:0:
160,280,58620,5,8,0:0:0:0:
201,307,58697,1,2,0:0:0:0:
250,312,58774,1,2,0:0:0:0:
297,295,58851,1,2,0:0:0:0:
331,260,58928,1,2,0:0:0:0:
345,212,59005,1,2,0:0:0:0:
337,163,59082,1,8,0:0:0:0:
208,104,59543,5,2,0:0:0:0:
208,104,59851,1,2,0:0:0:0:
144,44,60005,2,0,P|96:31|51:52,1,100,2|0,0:0|0:0,0:0:0:0:
40,136,60466,6,0,B|48:212|48:212|40:256|40:256|48:340,1,200,4|8,1:0|0:0,0:0:0:0:
144,264,60928,2,0,P|196:264|240:228,1,100,0|2,0:0|0:0,0:0:0:0:
168,64,61235,2,0,P|164:116|172:176,1,100,2|8,0:0|0:0,0:0:0:0:
272,148,61543,1,0,0:0:0:0:
248,328,61697,5,2,0:0:0:0:
356,136,61851,2,0,P|336:88|280:64,1,100,2|8,0:0|0:0,0:0:0:0:
272,148,62158,1,0,0:0:0:0:
408,208,62312,2,0,P|439:166|432:106,1,100,2|2,0:0|0:0,0:0:0:0:
412,36,62620,1,8,0:0:0:0:
316,224,62774,5,2,0:0:0:0:
316,224,62851,1,8,0:0:0:0:
315,224,62928,2,0,P|220:219|179:133,1,200,2|8,0:0|0:0,0:0:0:0:
64,36,63389,2,0,B|72:92|72:92|68:140,1,100,0|2,0:0|0:0,0:0:0:0:
28,220,63697,1,2,0:0:0:0:
160,116,63851,1,8,0:0:0:0:
84,300,64005,2,0,L|188:296,1,100,0|2,0:0|0:0,0:0:0:0:
280,220,64312,1,2,0:0:0:0:
376,276,64466,2,0,P|396:324|384:376,1,100,8|0,0:0|0:0,0:0:0:0:
280,220,64774,6,0,L|284:112,1,100,2|2,0:0|0:0,0:0:0:0:
288,28,65082,1,8,0:0:0:0:
196,172,65235,1,0,0:0:0:0:
372,184,65389,2,0,P|424:184|468:160,1,100,4|2,0:0|0:0,0:0:0:0:
496,76,65697,1,8,0:0:0:0:
312,124,65851,1,0,0:0:0:0:
312,124,66005,6,0,L|308:24,1,100,2|2,0:0|0:0,0:0:0:0:
180,152,66312,2,0,L|184:252,1,100,8|0,0:0|0:0,0:0:0:0:
216,76,66620,1,2,0:0:0:0:
384,168,66774,2,0,P|396:116|380:68,1,100,2|8,0:0|0:0,0:0:0:0:
320,16,67082,1,0,0:0:0:0:
304,204,67235,5,2,0:0:0:0:
338,239,67312,1,2,0:0:0:0:
386,249,67389,1,2,0:0:0:0:
432,232,67466,1,2,0:0:0:0:
462,193,67543,1,8,0:0:0:0:
288,108,67697,6,0,P|240:96|184:112,1,100,4|0,0:0|0:0,0:0:0:0:
112,172,68005,1,2,0:0:0:0:
20,128,68158,2,0,L|16:20,1,100,8|0,0:0|0:0,0:0:0:0:
112,172,68466,1,8,0:0:0:0:
16,28,68620,1,2,0:0:0:0:
64,252,68774,2,0,P|112:265|160:253,1,100,8|2,0:0|0:0,0:0:0:0:
208,164,69082,6,0,L|200:60,1,100,8|2,0:0|0:0,0:0:0:0:
304,196,69389,2,0,L|312:300,1,100,8|2,0:0|0:0,0:0:0:0:
352,112,69697,1,8,0:0:0:0:
220,260,69851,1,2,0:0:0:0:
220,260,69928,1,2,0:0:0:0:
220,260,70005,1,8,0:0:0:0:
408,320,70158,5,2,0:0:0:0:
408,320,70235,1,0,0:0:0:0:
408,320,70312,2,0,P|496:285|504:190,1,200,4|8,1:0|0:0,0:0:0:0:
312,72,70774,2,0,L|316:176,1,100,0|2,0:0|0:0,0:0:0:0:
328,320,71082,1,2,0:0:0:0:
224,164,71235,1,8,0:0:0:0:
448,164,71389,6,0,P|480:204|480:264,1,100,0|2,0:0|0:0,0:0:0:0:
448,328,71697,1,2,0:0:0:0:
448,164,71851,1,8,0:0:0:0:
256,208,72005,2,0,L|355:204,1,100,0|2,0:0|0:0,0:0:0:0:
372,64,72312,1,2,0:0:0:0:
355,204,72466,1,8,0:0:0:0:
176,144,72620,5,2,0:0:0:0:
176,144,72697,1,8,0:0:0:0:
175,144,72774,2,0,P|81:159|16:88,1,200,2|8,0:0|0:0,0:0:0:0:
256,88,73235,2,0,P|350:73|415:144,1,200,2|2,0:0|0:0,0:0:0:0:
404,244,73697,1,8,0:0:0:0:
264,280,73851,2,0,L|260:172,1,100,0|2,0:0|0:0,0:0:0:0:
256,28,74158,1,2,0:0:0:0:
352,128,74312,6,0,P|404:124|440:92,1,100,8|0,0:0|0:0,0:0:0:0:
368,48,74620,1,2,0:0:0:0:
196,96,74774,1,2,0:0:0:0:
196,96,74851,1,2,0:0:0:0:
196,96,74928,1,8,0:0:0:0:
292,184,75082,1,2,0:0:0:0:
292,184,75158,1,2,0:0:0:0:
292,184,75235,6,0,L|296:284,1,100,4|0,0:0|0:0,0:0:0:0:
300,368,75543,1,8,0:0:0:0:
376,216,75697,1,0,0:0:0:0:
196,308,75851,2,0,P|152:312|104:288,1,100,2|2,0:0|0:0,0:0:0:0:
16,152,76158,2,0,L|20:268,1,100,8|0,0:0|0:0,0:0:0:0:
80,76,76466,5,2,0:0:0:0:
172,112,76620,2,0,P|224:120|268:96,1,100,2|8,0:0|0:0,0:0:0:0:
208,32,76928,1,2,0:0:0:0:
356,20,77082,2,0,L|360:120,1,100,2|2,0:0|0:0,0:0:0:0:
359,119,77312,1,2,0:0:0:0:
359,119,77389,1,8,0:0:0:0:
448,312,77543,6,0,B|460:208|460:208|508:180|500:120,1,200,4|2,0:0|0:0,0:0:0:0:
288,200,78005,2,0,P|240:200|192:180,1,100,8|0,0:0|0:0,0:0:0:0:
96,20,78312,2,0,L|104:124,1,100,8|2,0:0|0:0,0:0:0:0:
80,212,78620,1,8,0:0:0:0:
96,20,78774,1,2,0:0:0:0:
184,72,78928,6,0,P|240:80|288:60,1,100,8|2,0:0|0:0,0:0:0:0:
396,24,79235,2,0,L|392:128,1,100,8|2,0:0|0:0,0:0:0:0:
388,228,79543,1,8,0:0:0:0:
260,176,79697,1,2,0:0:0:0:
261,151,79774,1,2,0:0:0:0:
263,126,79851,1,8,0:0:0:0:
7,168,80005,6,0,P|13:262|102:291,1,200,4|0,1:0|0:0,0:0:0:0:
140,120,80466,2,0,L|136:16,1,100,8|0,0:0|0:0,0:0:0:0:
196,192,80774,1,2,0:0:0:0:
136,20,80928,1,2,0:0:0:0:
12,204,81082,2,0,L|112:208,1,100,8|0,0:0|0:0,0:0:0:0:
375,161,81389,6,0,P|316:86|224:107,1,200,2|8,0:0|0:0,0:0:0:0:
372,248,81851,2,0,P|424:236|456:196,1,100,0|2,0:0|0:0,0:0:0:0:
456,112,82158,1,2,0:0:0:0:
280,224,82312,2,0,L|288:328,1,100,8|0,0:0|0:0,0:0:0:0:
287,323,82543,1,2,0:0:0:0:
287,323,82620,1,2,0:0:0:0:
316,140,82774,5,2,0:0:0:0:
192,232,82928,2,0,L|184:132,1,100,2|2,0:0|0:0,0:0:0:0:
176,36,83235,1,4,3:0:0:0:
192,232,83389,1,4,3:0:0:0:
88,136,83543,2,0,P|36:136|-4:108,1,100,4|4,3:0|3:0,0:0:0:0:
64,56,83851,5,2,0:0:0:0:
24,220,84005,1,0,0:0:0:0:
192,152,84158,1,2,0:0:0:0:
64,56,84312,1,0,0:0:0:0:
124,232,84466,5,2,0:0:0:0:
160,56,84620,1,2,0:0:0:0:
160,55,84928,6,0,P|255:38|328:101,1,200,4|0,0:0|0:0,0:0:0:0:
456,152,85389,2,0,L|460:40,1,100,8|0,0:0|0:0,0:0:0:0:
396,228,85697,1,2,0:0:0:0:
459,52,85851,1,2,0:0:0:0:
324,164,86005,2,0,P|272:160|232:184,1,100,8|0,0:0|0:0,0:0:0:0:
164,364,86312,2,0,L|156:260,1,100,2|2,0:0|0:0,0:0:0:0:
144,108,86620,1,8,0:0:0:0:
292,184,86774,6,0,L|284:80,1,100,0|2,0:0|0:0,0:0:0:0:
220,20,87082,1,2,0:0:0:0:
376,132,87235,1,8,0:0:0:0:
180,144,87389,2,0,P|88:152|28:64,1,200,4|2,0:0|0:0,0:0:0:0:
268,64,87851,2,0,L|372:60,1,100,8|0,0:0|0:0,0:0:0:0:
436,200,88158,1,2,0:0:0:0:
496,96,88312,1,2,0:0:0:0:
220,120,88466,2,0,L|324:116,1,100,8|0,0:0|0:0,0:0:0:0:
160,184,88774,6,0,P|132:136|136:88,1,100,2|2,0:0|0:0,0:0:0:0:
196,20,89082,1,8,0:0:0:0:
160,184,89235,1,0,0:0:0:0:
308,144,89389,1,2,0:0:0:0:
104,84,89543,2,0,P|52:76|4:96,1,100,2|8,0:0|0:0,0:0:0:0:
12,216,89851,5,2,0:0:0:0:
12,216,89928,1,2,0:0:0:0:
12,216,90005,2,0,L|16:324,1,100,8|2,0:0|0:0,0:0:0:0:
84,160,90312,1,8,0:0:0:0:
16,316,90466,1,2,0:0:0:0:
172,204,90620,2,0,P|220:224|272:216,1,100,8|2,0:0|0:0,0:0:0:0:
324,152,90928,1,8,0:0:0:0:
204,28,91082,2,0,L|208:132,1,100,2|8,0:0|0:0,0:0:0:0:
172,204,91389,1,0,0:0:0:0:
408,212,91543,5,8,0:0:0:0:
409,197,91620,1,2,0:0:0:0:
411,182,91697,1,2,0:0:0:0:
380,64,91851,1,8,0:0:0:0:
368,296,92005,1,8,0:0:0:0:
