osu file format v14

[General]
AudioFilename: Miiro.mp3
AudioLeadIn: 2
PreviewTime: 54560
Countdown: 0
SampleSet: Normal
StackLeniency: 0.7
Mode: 3
LetterboxInBreaks: 0
EpilepsyWarning: 1
SpecialStyle: 0
WidescreenStoryboard: 1

[Editor]
DistanceSpacing: 0.8
BeatDivisor: 6
GridSize: 8
TimelineZoom: 2.799999

[Metadata]
Title:MIIRO
TitleUnicode:海色
Artist:AKINO from bless4
ArtistUnicode:AKINO from bless4
Creator:-Troke-
Version:MX
Source:艦隊これくしょん -艦これ-
Tags:みいろ opening kantai collection -kancolle-
BeatmapID:631697
BeatmapSetID:268325

[Difficulty]
HPDrainRate:9
CircleSize:7
OverallDifficulty:8
ApproachRate:10
SliderMultiplier:1.4
SliderTickRate:1

[Events]
//Background and Video events
Video,0,"KanColle OP.avi"
0,0,"u60_by_arceon-d6rdwfq.jpg",0,0
//Break Periods
//Storyboard Layer 0 (Background)
//Storyboard Layer 1 (Fail)
//Storyboard Layer 2 (Pass)
//Storyboard Layer 3 (Foreground)
//Storyboard Sound Samples

[TimingPoints]
180,307.6923,4,1,1,40,1,0
35846,-133.333333333333,4,1,1,40,0,0
45692,-100,4,1,1,40,0,0
55538,-100,4,1,1,40,0,1
78769,-100,4,1,1,40,0,0

[HitObjects]
402,192,77,5,0,0:0:0:0:
256,192,128,1,0,0:0:0:0:
109,192,180,1,0,0:0:0:0:
320,0,436,128,0,692:1:0:0:0:
256,192,436,1,0,0:0:0:0:
192,0,795,128,0,1103:1:0:0:0:
109,192,1103,1,0,0:0:0:0:
36,192,1256,1,0,0:0:0:0:
182,192,1410,1,0,0:0:0:0:
448,0,1410,128,0,1872:1:0:0:0:
329,192,1564,1,0,0:0:0:0:
256,192,1718,1,0,0:0:0:0:
402,192,1872,1,0,0:0:0:0:
109,192,1872,128,0,2333:0:0:0:0:
256,192,2026,1,0,0:0:0:0:
402,192,2179,1,0,0:0:0:0:
448,0,2333,128,0,2641:1:0:0:0:
256,192,2487,1,0,0:0:0:0:
36,0,2641,128,0,3103:1:0:0:0:
448,0,3103,128,0,3564:1:0:0:0:
256,0,3564,128,0,3872:1:0:0:0:
475,192,3872,1,0,0:0:0:0:
329,192,4026,1,0,0:0:0:0:
182,192,4179,1,0,0:0:0:0:
402,192,4333,1,0,0:0:0:0:
256,192,4487,1,0,0:0:0:0:
109,192,4641,1,0,0:0:0:0:
320,192,4795,1,0,0:0:0:0:
192,192,4949,1,0,0:0:0:0:
64,192,5103,1,0,0:0:0:0:
475,192,5256,1,0,0:0:0:0:
329,192,5410,1,0,0:0:0:0:
182,192,5564,1,0,0:0:0:0:
402,192,5718,1,0,0:0:0:0:
36,192,5718,1,0,0:0:0:0:
64,192,5872,1,0,0:0:0:0:
256,192,5872,1,0,0:0:0:0:
109,192,6179,1,0,0:0:0:0:
402,192,6179,1,0,0:0:0:0:
256,192,6179,1,0,0:0:0:0:
320,192,6487,1,0,0:0:0:0:
36,192,6641,1,0,0:0:0:0:
448,192,6641,1,0,0:0:0:0:
256,192,6641,1,0,0:0:0:0:
320,192,6795,1,0,0:0:0:0:
109,192,6949,1,0,0:0:0:0:
402,192,6949,1,0,0:0:0:0:
448,192,7103,1,0,0:0:0:0:
64,192,7256,1,0,0:0:0:0:
109,192,7256,1,0,0:0:0:0:
256,192,7410,1,0,0:0:0:0:
64,192,7564,1,0,0:0:0:0:
192,192,7718,1,0,0:0:0:0:
320,192,7872,1,0,0:0:0:0:
448,192,7872,1,0,0:0:0:0:
256,192,8026,1,0,0:0:0:0:
109,192,8179,1,0,0:0:0:0:
192,192,8333,1,0,0:0:0:0:
320,192,8333,1,0,0:0:0:0:
64,192,8487,1,0,0:0:0:0:
448,192,8487,1,0,0:0:0:0:
256,192,8487,1,0,0:0:0:0:
192,192,8641,1,0,0:0:0:0:
448,192,8641,1,0,0:0:0:0:
109,192,8795,1,0,0:0:0:0:
256,192,8949,1,0,0:0:0:0:
402,192,9103,1,0,0:0:0:0:
448,192,9103,1,0,0:0:0:0:
192,192,9256,1,0,0:0:0:0:
402,192,9410,1,0,0:0:0:0:
256,192,9564,1,0,0:0:0:0:
64,192,9718,1,0,0:0:0:0:
109,192,9718,1,0,0:0:0:0:
402,192,9872,1,0,0:0:0:0:
448,192,10026,1,0,0:0:0:0:
256,192,10179,1,0,0:0:0:0:
64,192,10333,1,0,0:0:0:0:
475,192,10333,1,0,0:0:0:0:
256,192,10487,1,0,0:0:0:0:
402,192,10641,1,0,0:0:0:0:
320,192,10795,1,0,0:0:0:0:
192,192,10949,1,0,0:0:0:0:
448,192,10949,1,0,0:0:0:0:
64,192,11103,1,0,0:0:0:0:
320,192,11103,1,0,0:0:0:0:
109,192,11256,1,0,0:0:0:0:
64,192,11410,1,0,0:0:0:0:
402,192,11564,1,0,0:0:0:0:
448,192,11564,1,0,0:0:0:0:
192,192,11718,1,0,0:0:0:0:
402,192,11872,1,0,0:0:0:0:
256,192,12026,1,0,0:0:0:0:
64,192,12179,1,0,0:0:0:0:
109,192,12179,1,0,0:0:0:0:
256,192,12333,1,0,0:0:0:0:
402,192,12487,1,0,0:0:0:0:
256,192,12641,1,0,0:0:0:0:
402,192,12795,1,0,0:0:0:0:
448,192,12795,1,0,0:0:0:0:
256,192,12949,1,0,0:0:0:0:
109,192,13103,1,0,0:0:0:0:
320,192,13256,1,0,0:0:0:0:
192,192,13410,1,0,0:0:0:0:
448,192,13410,1,0,0:0:0:0:
320,192,13564,1,0,0:0:0:0:
64,192,13718,1,0,0:0:0:0:
448,192,13718,1,0,0:0:0:0:
329,192,13872,1,0,0:0:0:0:
182,192,14026,1,0,0:0:0:0:
448,192,14026,1,0,0:0:0:0:
109,192,14179,1,0,0:0:0:0:
192,192,14333,1,0,0:0:0:0:
448,192,14333,1,0,0:0:0:0:
402,192,14487,1,0,0:0:0:0:
448,192,14487,1,0,0:0:0:0:
64,192,14641,1,0,0:0:0:0:
402,192,14795,1,0,0:0:0:0:
448,192,14795,1,0,0:0:0:0:
192,192,14949,1,0,0:0:0:0:
320,192,14949,1,0,0:0:0:0:
64,192,15103,1,0,0:0:0:0:
192,192,15256,1,0,0:0:0:0:
448,192,15256,1,0,0:0:0:0:
320,192,15410,1,0,0:0:0:0:
64,192,15564,1,0,0:0:0:0:
448,192,15564,1,0,0:0:0:0:
64,192,15718,1,0,0:0:0:0:
448,192,15718,1,0,0:0:0:0:
256,192,15872,128,0,16179:0:0:0:0:
36,192,16179,1,0,0:0:0:0:
448,192,16179,1,0,0:0:0:0:
182,192,16333,1,0,0:0:0:0:
402,192,16487,1,0,0:0:0:0:
448,192,16487,1,0,0:0:0:0:
256,192,16641,1,0,0:0:0:0:
448,192,16641,1,0,0:0:0:0:
109,192,16795,1,0,0:0:0:0:
256,192,16949,1,0,0:0:0:0:
320,192,16949,1,0,0:0:0:0:
402,192,17103,1,0,0:0:0:0:
109,192,17256,1,0,0:0:0:0:
256,0,17256,128,0,17872:1:0:0:0:
402,192,17410,1,0,0:0:0:0:
182,192,17564,1,0,0:0:0:0:
36,192,17718,1,0,0:0:0:0:
475,192,17872,1,0,0:0:0:0:
329,192,18026,1,0,0:0:0:0:
192,192,18179,1,0,0:0:0:0:
402,192,18333,1,0,0:0:0:0:
448,192,18333,1,0,0:0:0:0:
192,192,18487,1,0,0:0:0:0:
256,192,18487,1,0,0:0:0:0:
64,192,18641,1,0,0:0:0:0:
109,192,18641,1,0,0:0:0:0:
320,192,18795,1,0,0:0:0:0:
64,192,18949,1,0,0:0:0:0:
109,192,18949,1,0,0:0:0:0:
182,192,19103,1,0,0:0:0:0:
475,192,19103,1,0,0:0:0:0:
320,192,19256,1,0,0:0:0:0:
192,192,19410,1,0,0:0:0:0:
448,192,19410,1,0,0:0:0:0:
109,192,19564,1,0,0:0:0:0:
256,192,19718,1,0,0:0:0:0:
109,192,19718,1,0,0:0:0:0:
402,192,19718,1,0,0:0:0:0:
448,192,19872,1,0,0:0:0:0:
64,192,20026,1,0,0:0:0:0:
109,192,20026,1,0,0:0:0:0:
329,192,20179,1,0,0:0:0:0:
402,192,20333,1,0,0:0:0:0:
256,0,20333,128,0,20641:1:0:0:0:
109,192,20487,1,0,0:0:0:0:
182,192,20641,1,0,0:0:0:0:
320,192,20795,1,0,0:0:0:0:
402,192,20795,1,0,0:0:0:0:
192,192,20949,1,0,0:0:0:0:
256,192,20949,1,0,0:0:0:0:
402,192,21103,1,0,0:0:0:0:
256,192,21256,1,0,0:0:0:0:
64,192,21410,1,0,0:0:0:0:
109,192,21410,1,0,0:0:0:0:
320,192,21564,1,0,0:0:0:0:
192,192,21718,1,0,0:0:0:0:
448,192,21718,1,0,0:0:0:0:
320,192,21872,1,0,0:0:0:0:
109,192,22026,1,0,0:0:0:0:
182,192,22026,1,0,0:0:0:0:
256,192,22179,1,0,0:0:0:0:
320,192,22179,1,0,0:0:0:0:
109,192,22333,1,0,0:0:0:0:
402,192,22487,1,0,0:0:0:0:
448,192,22487,1,0,0:0:0:0:
192,192,22641,1,0,0:0:0:0:
256,192,22795,1,0,0:0:0:0:
320,0,22795,128,0,23103:1:0:0:0:
402,192,22949,1,0,0:0:0:0:
182,192,23103,1,0,0:0:0:0:
64,192,23256,1,0,0:0:0:0:
256,192,23256,1,0,0:0:0:0:
256,192,23410,1,0,0:0:0:0:
448,192,23410,1,0,0:0:0:0:
109,192,23564,1,0,0:0:0:0:
256,192,23718,1,0,0:0:0:0:
109,192,23718,1,0,0:0:0:0:
402,192,23718,1,0,0:0:0:0:
402,192,23872,1,0,0:0:0:0:
64,192,24026,1,0,0:0:0:0:
448,192,24026,1,0,0:0:0:0:
109,192,24179,1,0,0:0:0:0:
182,192,24333,1,0,0:0:0:0:
256,192,24487,1,0,0:0:0:0:
320,192,24487,1,0,0:0:0:0:
329,192,24795,1,0,0:0:0:0:
36,192,24795,1,0,0:0:0:0:
182,192,25000,1,0,0:0:0:0:
402,192,25000,1,0,0:0:0:0:
182,192,25205,1,0,0:0:0:0:
402,192,25205,1,0,0:0:0:0:
109,192,25410,1,0,0:0:0:0:
256,192,25410,1,0,0:0:0:0:
109,192,25615,1,0,0:0:0:0:
192,192,25615,1,0,0:0:0:0:
256,192,25756,1,0,0:0:0:0:
320,192,25756,1,0,0:0:0:0:
402,192,25872,1,0,0:0:0:0:
448,192,25872,1,0,0:0:0:0:
64,192,26026,1,4,0:0:0:0:
448,192,26026,1,4,0:0:0:0:
256,192,26026,1,4,0:0:0:0:
320,192,26179,1,0,0:0:0:0:
192,192,26333,1,0,0:0:0:0:
448,192,26333,1,0,0:0:0:0:
320,192,26487,1,0,0:0:0:0:
109,192,26641,1,0,0:0:0:0:
256,192,26795,1,0,0:0:0:0:
402,192,26949,1,0,0:0:0:0:
448,192,26949,1,0,0:0:0:0:
256,192,27103,1,0,0:0:0:0:
109,192,27256,1,0,0:0:0:0:
256,192,27410,1,0,0:0:0:0:
64,192,27564,1,0,0:0:0:0:
402,192,27564,1,0,0:0:0:0:
402,192,27718,1,0,0:0:0:0:
256,192,27872,1,0,0:0:0:0:
109,192,28026,1,0,0:0:0:0:
256,192,28179,1,0,0:0:0:0:
448,192,28179,1,0,0:0:0:0:
192,192,28333,1,0,0:0:0:0:
402,192,28487,1,0,0:0:0:0:
256,192,28641,1,0,0:0:0:0:
192,192,28795,1,0,0:0:0:0:
448,192,28795,1,0,0:0:0:0:
109,192,28949,1,0,0:0:0:0:
256,192,29103,1,0,0:0:0:0:
192,192,29256,1,0,0:0:0:0:
64,192,29410,1,0,0:0:0:0:
320,192,29410,1,0,0:0:0:0:
402,192,29564,1,0,0:0:0:0:
192,192,29718,1,0,0:0:0:0:
256,192,29872,1,0,0:0:0:0:
64,192,30026,1,0,0:0:0:0:
448,192,30026,1,0,0:0:0:0:
402,192,30179,1,0,0:0:0:0:
256,192,30333,1,0,0:0:0:0:
320,192,30487,1,0,0:0:0:0:
192,192,30641,1,0,0:0:0:0:
448,192,30641,1,0,0:0:0:0:
402,192,30795,1,0,0:0:0:0:
64,192,30949,1,0,0:0:0:0:
320,192,30949,1,0,0:0:0:0:
192,192,31103,1,0,0:0:0:0:
320,192,31256,1,0,0:0:0:0:
448,192,31256,1,0,0:0:0:0:
109,192,31410,1,0,0:0:0:0:
402,192,31564,1,0,0:0:0:0:
192,192,31718,1,0,0:0:0:0:
64,192,31872,1,0,0:0:0:0:
320,192,31872,1,0,0:0:0:0:
192,192,32026,1,0,0:0:0:0:
402,192,32179,1,0,0:0:0:0:
256,192,32333,1,0,0:0:0:0:
402,192,32487,1,0,0:0:0:0:
448,192,32487,1,0,0:0:0:0:
109,192,32641,1,0,0:0:0:0:
402,192,32795,1,0,0:0:0:0:
192,192,32949,1,0,0:0:0:0:
64,192,33103,1,0,0:0:0:0:
448,192,33103,1,0,0:0:0:0:
192,192,33256,1,0,0:0:0:0:
320,192,33410,1,0,0:0:0:0:
109,192,33564,1,0,0:0:0:0:
256,192,33718,1,0,0:0:0:0:
448,192,33718,1,0,0:0:0:0:
320,192,33872,1,0,0:0:0:0:
182,192,34026,1,0,0:0:0:0:
36,192,34179,1,0,0:0:0:0:
182,192,34282,1,0,0:0:0:0:
320,192,34333,1,0,0:0:0:0:
402,192,34333,1,0,0:0:0:0:
64,192,34487,1,0,0:0:0:0:
109,192,34487,1,0,0:0:0:0:
402,192,34795,1,0,0:0:0:0:
448,192,34795,1,0,0:0:0:0:
192,192,34949,1,0,0:0:0:0:
402,192,35103,1,0,0:0:0:0:
448,192,35103,1,0,0:0:0:0:
109,192,35256,1,0,0:0:0:0:
256,192,35333,1,0,0:0:0:0:
402,192,35410,1,0,0:0:0:0:
448,192,35410,1,0,0:0:0:0:
256,192,35487,1,0,0:0:0:0:
109,192,35564,1,0,0:0:0:0:
475,192,35641,1,0,0:0:0:0:
329,192,35718,1,0,0:0:0:0:
182,192,35795,1,0,0:0:0:0:
36,192,35872,1,0,0:0:0:0:
448,192,35872,1,0,0:0:0:0:
320,192,36026,1,0,0:0:0:0:
192,192,36179,1,0,0:0:0:0:
109,192,36333,1,0,0:0:0:0:
402,192,36487,1,0,0:0:0:0:
448,192,36487,1,0,0:0:0:0:
109,192,36641,1,0,0:0:0:0:
64,192,36795,1,0,0:0:0:0:
109,192,36795,1,0,0:0:0:0:
320,192,36949,1,0,0:0:0:0:
256,192,37103,1,0,0:0:0:0:
320,192,37103,1,0,0:0:0:0:
402,192,37256,1,0,0:0:0:0:
256,192,37410,1,0,0:0:0:0:
192,192,37564,1,0,0:0:0:0:
448,192,37564,1,0,0:0:0:0:
109,192,37718,1,0,0:0:0:0:
192,192,37872,1,0,0:0:0:0:
64,192,38026,1,0,0:0:0:0:
256,192,38026,1,0,0:0:0:0:
329,192,38179,1,0,0:0:0:0:
182,192,38333,1,0,0:0:0:0:
402,192,38333,1,0,0:0:0:0:
320,192,38487,1,0,0:0:0:0:
256,192,38641,1,0,0:0:0:0:
64,192,38795,1,0,0:0:0:0:
192,192,38795,1,0,0:0:0:0:
256,192,38949,1,0,0:0:0:0:
329,192,39103,1,0,0:0:0:0:
64,192,39256,1,0,0:0:0:0:
256,192,39256,1,0,0:0:0:0:
329,192,39410,1,0,0:0:0:0:
256,192,39564,1,0,0:0:0:0:
448,192,39564,1,0,0:0:0:0:
192,192,39718,1,0,0:0:0:0:
109,192,39872,1,0,0:0:0:0:
182,192,40026,1,0,0:0:0:0:
402,192,40026,1,0,0:0:0:0:
256,192,40179,1,0,0:0:0:0:
192,192,40333,1,0,0:0:0:0:
256,192,40487,1,0,0:0:0:0:
448,192,40487,1,0,0:0:0:0:
192,192,40641,1,0,0:0:0:0:
256,192,40795,1,0,0:0:0:0:
192,192,40949,1,0,0:0:0:0:
64,192,41103,1,0,0:0:0:0:
256,192,41103,1,0,0:0:0:0:
329,192,41256,1,0,0:0:0:0:
192,192,41410,1,0,0:0:0:0:
402,192,41410,1,0,0:0:0:0:
475,192,41564,1,0,0:0:0:0:
109,192,41718,1,0,0:0:0:0:
402,192,41718,1,0,0:0:0:0:
329,192,41872,1,0,0:0:0:0:
64,192,42026,1,0,0:0:0:0:
256,192,42026,1,0,0:0:0:0:
320,192,42179,1,0,0:0:0:0:
402,192,42333,1,0,0:0:0:0:
64,192,42487,1,0,0:0:0:0:
475,192,42487,1,0,0:0:0:0:
402,192,42641,1,0,0:0:0:0:
329,192,42795,1,0,0:0:0:0:
36,192,42949,1,0,0:0:0:0:
256,192,42949,1,0,0:0:0:0:
182,192,43103,1,0,0:0:0:0:
109,192,43256,1,0,0:0:0:0:
448,192,43256,1,0,0:0:0:0:
192,192,43410,1,0,0:0:0:0:
256,192,43564,1,0,0:0:0:0:
36,192,43718,1,0,0:0:0:0:
320,192,43718,1,0,0:0:0:0:
402,192,43872,1,0,0:0:0:0:
329,192,43974,1,0,0:0:0:0:
256,192,44077,1,0,0:0:0:0:
64,192,44179,1,0,0:0:0:0:
475,192,44179,1,0,0:0:0:0:
329,192,44282,1,0,0:0:0:0:
182,192,44385,1,0,0:0:0:0:
109,192,44487,1,0,0:0:0:0:
402,192,44487,1,0,0:0:0:0:
256,192,44487,1,0,0:0:0:0:
36,192,44590,1,0,0:0:0:0:
109,192,44692,1,0,0:0:0:0:
182,192,44795,1,0,0:0:0:0:
256,192,44897,1,0,0:0:0:0:
192,192,45000,1,0,0:0:0:0:
109,192,45103,1,0,0:0:0:0:
182,192,45205,1,0,0:0:0:0:
256,192,45308,1,0,0:0:0:0:
64,192,45410,1,0,0:0:0:0:
320,192,45410,1,0,0:0:0:0:
402,192,45513,1,0,0:0:0:0:
320,192,45615,1,0,0:0:0:0:
109,192,45615,1,0,0:0:0:0:
36,192,45718,1,0,0:0:0:0:
475,192,45718,1,0,0:0:0:0:
109,192,45872,1,0,0:0:0:0:
329,192,45872,1,0,0:0:0:0:
64,192,46026,1,0,0:0:0:0:
448,192,46026,1,0,0:0:0:0:
109,192,46179,1,0,0:0:0:0:
402,192,46179,1,0,0:0:0:0:
256,192,46179,1,0,0:0:0:0:
402,192,46333,1,0,0:0:0:0:
448,192,46333,1,0,0:0:0:0:
329,192,46487,1,0,0:0:0:0:
256,192,46641,1,0,0:0:0:0:
64,192,46795,1,0,0:0:0:0:
109,192,46795,1,0,0:0:0:0:
192,192,46949,1,0,0:0:0:0:
256,192,46949,1,0,0:0:0:0:
320,192,47103,1,0,0:0:0:0:
402,192,47103,1,0,0:0:0:0:
192,192,47256,1,0,0:0:0:0:
320,192,47256,1,0,0:0:0:0:
448,192,47410,1,0,0:0:0:0:
109,192,47564,1,0,0:0:0:0:
192,192,47564,1,0,0:0:0:0:
329,192,47718,1,0,0:0:0:0:
402,192,47718,1,0,0:0:0:0:
64,192,47872,1,0,0:0:0:0:
64,192,48026,1,0,0:0:0:0:
109,192,48026,1,0,0:0:0:0:
448,192,48179,1,0,0:0:0:0:
192,192,48333,1,0,0:0:0:0:
256,192,48333,1,0,0:0:0:0:
320,192,48487,1,0,0:0:0:0:
402,192,48487,1,0,0:0:0:0:
192,192,48641,1,0,0:0:0:0:
256,192,48641,1,0,0:0:0:0:
64,192,48795,1,0,0:0:0:0:
109,192,48795,1,0,0:0:0:0:
320,192,48949,1,0,0:0:0:0:
448,192,49103,1,0,0:0:0:0:
256,192,49256,1,0,0:0:0:0:
320,192,49256,1,0,0:0:0:0:
329,192,49410,1,0,0:0:0:0:
402,192,49410,1,0,0:0:0:0:
192,192,49564,1,0,0:0:0:0:
256,192,49564,1,0,0:0:0:0:
64,192,49718,1,0,0:0:0:0:
109,192,49718,1,0,0:0:0:0:
256,192,49872,1,0,0:0:0:0:
256,192,50026,1,0,0:0:0:0:
448,192,50026,1,0,0:0:0:0:
192,192,50179,1,0,0:0:0:0:
256,192,50179,1,0,0:0:0:0:
402,192,50333,1,0,0:0:0:0:
64,192,50487,1,0,0:0:0:0:
109,192,50487,1,0,0:0:0:0:
402,192,50641,1,0,0:0:0:0:
448,192,50641,1,0,0:0:0:0:
109,192,50795,1,0,0:0:0:0:
256,192,50949,1,0,0:0:0:0:
320,192,50949,1,0,0:0:0:0:
109,192,51103,1,0,0:0:0:0:
256,192,51256,1,0,0:0:0:0:
448,192,51256,1,0,0:0:0:0:
192,192,51410,1,0,0:0:0:0:
64,192,51564,1,0,0:0:0:0:
256,192,51564,1,0,0:0:0:0:
64,192,51718,1,0,0:0:0:0:
320,192,51872,1,0,0:0:0:0:
402,192,51872,1,0,0:0:0:0:
192,192,52026,1,0,0:0:0:0:
64,192,52179,1,0,0:0:0:0:
320,192,52179,1,0,0:0:0:0:
192,192,52333,1,0,0:0:0:0:
320,192,52487,1,0,0:0:0:0:
448,192,52487,1,0,0:0:0:0:
320,192,52641,1,0,0:0:0:0:
64,192,52795,1,0,0:0:0:0:
448,192,52795,1,0,0:0:0:0:
192,192,52949,1,0,0:0:0:0:
320,192,53103,1,0,0:0:0:0:
448,0,53103,128,0,53872:1:0:0:0:
256,192,53256,1,0,0:0:0:0:
182,192,53410,1,0,0:0:0:0:
109,192,53564,1,0,0:0:0:0:
256,192,53718,1,0,0:0:0:0:
402,192,53872,1,0,0:0:0:0:
64,192,54026,1,0,0:0:0:0:
192,192,54128,1,0,0:0:0:0:
320,0,54179,128,0,54333:1:0:0:0:
448,0,54179,128,0,54333:1:0:0:0:
109,192,54641,1,0,0:0:0:0:
329,192,54641,1,0,0:0:0:0:
402,192,54949,1,0,0:0:0:0:
182,192,54949,1,0,0:0:0:0:
256,192,55154,1,0,0:0:0:0:
475,192,55154,1,0,0:0:0:0:
109,192,55564,1,0,0:0:0:0:
402,192,55564,1,0,0:0:0:0:
256,192,55564,1,0,0:0:0:0:
448,192,55718,1,0,0:0:0:0:
64,192,55872,1,0,0:0:0:0:
109,192,55872,1,0,0:0:0:0:
64,192,56026,1,0,0:0:0:0:
402,192,56026,1,0,0:0:0:0:
320,192,56179,1,0,0:0:0:0:
192,192,56333,1,0,0:0:0:0:
448,192,56333,1,0,0:0:0:0:
256,192,56487,1,0,0:0:0:0:
64,192,56641,1,0,0:0:0:0:
192,192,56641,1,0,0:0:0:0:
402,192,56795,1,0,0:0:0:0:
64,192,56949,1,0,0:0:0:0:
320,192,56949,1,0,0:0:0:0:
256,192,57103,1,0,0:0:0:0:
192,192,57256,1,0,0:0:0:0:
448,192,57256,1,0,0:0:0:0:
109,192,57410,1,0,0:0:0:0:
320,192,57410,1,0,0:0:0:0:
64,192,57564,1,0,0:0:0:0:
448,192,57564,1,0,0:0:0:0:
109,192,57718,1,0,0:0:0:0:
64,192,57872,1,0,0:0:0:0:
448,192,57872,1,0,0:0:0:0:
64,192,58026,1,0,0:0:0:0:
256,192,58026,1,0,0:0:0:0:
192,192,58179,1,0,0:0:0:0:
402,192,58333,1,0,0:0:0:0:
448,192,58333,1,0,0:0:0:0:
64,192,58487,1,0,0:0:0:0:
109,192,58487,1,0,0:0:0:0:
256,192,58641,1,0,0:0:0:0:
256,192,58795,1,0,0:0:0:0:
448,192,58795,1,0,0:0:0:0:
402,192,58949,1,0,0:0:0:0:
256,192,59103,1,0,0:0:0:0:
192,0,59103,128,0,59872:1:0:0:0:
109,192,59256,1,0,0:0:0:0:
402,192,59410,1,0,0:0:0:0:
256,192,59564,1,0,0:0:0:0:
402,192,59718,1,0,0:0:0:0:
448,192,59872,1,0,0:0:0:0:
109,0,59872,128,0,60179:1:0:0:0:
320,192,60026,1,0,0:0:0:0:
192,192,60179,1,0,0:0:0:0:
448,192,60179,1,0,0:0:0:0:
320,192,60333,1,0,0:0:0:0:
64,192,60487,1,0,0:0:0:0:
448,192,60487,1,0,0:0:0:0:
256,192,60641,1,0,0:0:0:0:
320,192,60641,1,0,0:0:0:0:
402,192,60795,1,0,0:0:0:0:
448,192,60795,1,0,0:0:0:0:
64,192,60949,1,0,0:0:0:0:
256,192,60949,1,0,0:0:0:0:
192,192,61103,1,0,0:0:0:0:
402,192,61103,1,0,0:0:0:0:
256,192,61256,1,0,0:0:0:0:
109,192,61410,1,0,0:0:0:0:
402,192,61410,1,0,0:0:0:0:
192,192,61564,1,0,0:0:0:0:
448,192,61564,1,0,0:0:0:0:
256,192,61718,1,0,0:0:0:0:
475,192,61718,1,0,0:0:0:0:
448,192,61872,1,0,0:0:0:0:
64,192,62026,1,0,0:0:0:0:
109,192,62026,1,0,0:0:0:0:
192,0,62179,128,0,62538:1:0:0:0:
329,0,62179,128,0,62538:1:0:0:0:
256,192,62179,128,0,62538:0:0:0:0:
402,192,62333,1,0,0:0:0:0:
109,192,62385,1,0,0:0:0:0:
448,192,62538,1,0,0:0:0:0:
320,192,62590,1,0,0:0:0:0:
192,192,62641,1,0,0:0:0:0:
64,192,62692,1,0,0:0:0:0:
192,192,62795,1,0,0:0:0:0:
329,192,62795,1,0,0:0:0:0:
256,192,62795,1,0,0:0:0:0:
448,192,62949,1,0,0:0:0:0:
64,192,63103,1,0,0:0:0:0:
192,192,63256,1,0,0:0:0:0:
320,192,63256,1,0,0:0:0:0:
402,192,63410,1,0,0:0:0:0:
182,192,63564,1,0,0:0:0:0:
329,192,63564,1,0,0:0:0:0:
448,192,63718,1,0,0:0:0:0:
109,192,63872,1,0,0:0:0:0:
402,192,63872,1,0,0:0:0:0:
64,192,64026,1,0,0:0:0:0:
109,192,64179,1,0,0:0:0:0:
402,192,64179,1,0,0:0:0:0:
448,192,64333,1,0,0:0:0:0:
64,192,64487,1,0,0:0:0:0:
109,192,64487,1,0,0:0:0:0:
448,192,64641,1,0,0:0:0:0:
256,192,64795,1,0,0:0:0:0:
320,192,64795,1,0,0:0:0:0:
36,192,64872,1,0,0:0:0:0:
402,192,64949,1,0,0:0:0:0:
448,192,64949,1,0,0:0:0:0:
192,192,64987,1,0,0:0:0:0:
320,192,65064,1,0,0:0:0:0:
448,192,65141,1,0,0:0:0:0:
192,192,65256,1,0,0:0:0:0:
64,192,65333,1,0,0:0:0:0:
402,192,65410,1,0,0:0:0:0:
448,192,65410,1,0,0:0:0:0:
109,192,65564,1,0,0:0:0:0:
64,192,65718,1,0,0:0:0:0:
402,192,65718,1,0,0:0:0:0:
192,192,65872,1,0,0:0:0:0:
448,192,65872,1,0,0:0:0:0:
256,192,66026,1,0,0:0:0:0:
64,192,66179,1,0,0:0:0:0:
109,192,66179,1,0,0:0:0:0:
320,192,66333,1,0,0:0:0:0:
109,192,66487,1,0,0:0:0:0:
256,192,66487,1,0,0:0:0:0:
64,192,66641,1,0,0:0:0:0:
402,192,66795,1,0,0:0:0:0:
448,192,66795,1,0,0:0:0:0:
329,192,66949,1,0,0:0:0:0:
109,192,67103,1,0,0:0:0:0:
256,192,67103,1,0,0:0:0:0:
64,192,67256,1,0,0:0:0:0:
109,192,67256,1,0,0:0:0:0:
64,192,67410,1,0,0:0:0:0:
109,192,67410,1,0,0:0:0:0:
448,192,67564,1,0,0:0:0:0:
192,192,67718,1,0,0:0:0:0:
329,192,67718,1,0,0:0:0:0:
64,192,67795,1,0,0:0:0:0:
320,192,67872,1,0,0:0:0:0:
448,192,67872,1,0,0:0:0:0:
192,192,68026,1,0,0:0:0:0:
64,192,68179,1,0,0:0:0:0:
402,192,68333,1,0,0:0:0:0:
448,192,68333,1,0,0:0:0:0:
329,192,68487,1,0,0:0:0:0:
192,192,68641,1,0,0:0:0:0:
320,192,68641,1,0,0:0:0:0:
320,192,68795,1,0,0:0:0:0:
109,192,68949,1,0,0:0:0:0:
64,0,68949,128,0,69564:1:0:0:0:
256,192,69103,1,0,0:0:0:0:
182,192,69256,1,0,0:0:0:0:
329,192,69410,1,0,0:0:0:0:
320,192,69564,1,0,0:0:0:0:
448,0,69564,128,0,69949:1:0:0:0:
182,192,69718,1,0,0:0:0:0:
402,192,69795,1,0,0:0:0:0:
256,192,69872,1,0,0:0:0:0:
109,192,69949,1,0,0:0:0:0:
320,192,70026,1,0,0:0:0:0:
448,192,70026,1,0,0:0:0:0:
109,192,70103,1,0,0:0:0:0:
256,192,70179,1,0,0:0:0:0:
36,192,70256,1,0,0:0:0:0:
402,192,70333,1,0,0:0:0:0:
448,192,70333,1,0,0:0:0:0:
192,192,70487,1,0,0:0:0:0:
256,192,70487,1,0,0:0:0:0:
64,192,70641,1,0,0:0:0:0:
320,192,70641,1,0,0:0:0:0:
192,192,70795,1,0,0:0:0:0:
402,192,70795,1,0,0:0:0:0:
402,192,70949,1,0,0:0:0:0:
256,192,70949,1,0,0:0:0:0:
109,192,70949,1,0,0:0:0:0:
448,192,71103,1,0,0:0:0:0:
64,192,71256,1,0,0:0:0:0:
109,192,71256,1,0,0:0:0:0:
192,192,71410,1,0,0:0:0:0:
256,192,71410,1,0,0:0:0:0:
402,192,71564,1,0,0:0:0:0:
448,192,71564,1,0,0:0:0:0:
109,192,71718,1,0,0:0:0:0:
192,192,71872,1,0,0:0:0:0:
329,192,71872,1,0,0:0:0:0:
256,192,71872,1,0,0:0:0:0:
64,0,72026,128,0,72231:1:0:0:0:
448,0,72026,128,0,72231:1:0:0:0:
320,192,72179,1,0,0:0:0:0:
192,192,72333,1,0,0:0:0:0:
320,192,72410,1,0,0:0:0:0:
448,192,72487,1,0,0:0:0:0:
192,192,72564,1,0,0:0:0:0:
64,192,72641,1,0,0:0:0:0:
320,192,72641,1,0,0:0:0:0:
256,192,72795,1,0,0:0:0:0:
256,192,72949,1,0,0:0:0:0:
448,192,72949,1,0,0:0:0:0:
192,192,73103,1,0,0:0:0:0:
320,192,73103,1,0,0:0:0:0:
448,192,73256,1,0,0:0:0:0:
64,192,73410,1,0,0:0:0:0:
109,192,73410,1,0,0:0:0:0:
402,192,73564,1,0,0:0:0:0:
192,192,73718,1,0,0:0:0:0:
256,192,73718,1,0,0:0:0:0:
402,192,73872,1,0,0:0:0:0:
448,192,73872,1,0,0:0:0:0:
192,192,74026,1,0,0:0:0:0:
256,192,74026,1,0,0:0:0:0:
402,192,74179,1,0,0:0:0:0:
64,192,74333,1,0,0:0:0:0:
256,192,74333,1,0,0:0:0:0:
109,192,74487,1,0,0:0:0:0:
192,192,74641,1,0,0:0:0:0:
320,192,74641,1,0,0:0:0:0:
192,192,74795,1,0,0:0:0:0:
320,192,74795,1,0,0:0:0:0:
448,192,74872,1,0,0:0:0:0:
64,192,74949,1,0,0:0:0:0:
192,192,75026,1,0,0:0:0:0:
320,192,75103,1,0,0:0:0:0:
448,192,75103,1,0,0:0:0:0:
109,192,75256,1,0,0:0:0:0:
256,192,75410,1,0,0:0:0:0:
402,192,75564,1,0,0:0:0:0:
448,192,75564,1,0,0:0:0:0:
192,192,75718,1,0,0:0:0:0:
320,192,75872,1,0,0:0:0:0:
192,192,76026,1,0,0:0:0:0:
64,192,76179,1,0,0:0:0:0:
448,192,76179,1,0,0:0:0:0:
192,192,76333,1,0,0:0:0:0:
402,192,76487,1,0,0:0:0:0:
256,192,76641,1,0,0:0:0:0:
64,192,76795,1,0,0:0:0:0:
448,192,76795,1,0,0:0:0:0:
256,192,76949,1,0,0:0:0:0:
109,192,77103,1,0,0:0:0:0:
256,192,77256,1,0,0:0:0:0:
192,192,77410,1,0,0:0:0:0:
448,192,77410,1,0,0:0:0:0:
402,192,77564,1,0,0:0:0:0:
64,192,77718,1,0,0:0:0:0:
329,192,77718,1,0,0:0:0:0:
256,192,77872,1,0,0:0:0:0:
329,192,78026,1,0,0:0:0:0:
64,192,78179,1,0,0:0:0:0:
402,192,78179,1,0,0:0:0:0:
192,192,78333,1,0,0:0:0:0:
320,192,78487,1,0,0:0:0:0:
64,192,78641,1,0,0:0:0:0:
448,192,78641,1,0,0:0:0:0:
192,192,78795,1,0,0:0:0:0:
448,192,78949,1,0,0:0:0:0:
320,192,79103,1,0,0:0:0:0:
192,192,79256,1,0,0:0:0:0:
448,192,79410,1,0,0:0:0:0:
320,192,79564,1,0,0:0:0:0:
182,192,79564,1,0,0:0:0:0:
64,192,79718,1,0,0:0:0:0:
109,192,79718,1,0,0:0:0:0:
402,192,79718,1,0,0:0:0:0:
475,192,79718,1,0,0:0:0:0:
192,192,80026,1,0,0:0:0:0:
320,0,80026,128,0,84949:1:0:0:0:
256,192,80026,1,0,0:0:0:0:
256,192,80333,1,0,0:0:0:0:
64,192,80487,1,0,0:0:0:0:
448,192,80487,1,0,0:0:0:0:
256,192,80641,1,0,0:0:0:0:
402,192,80795,1,0,0:0:0:0:
256,192,80949,1,0,0:0:0:0:
64,192,81103,1,0,0:0:0:0:
448,192,81103,1,0,0:0:0:0:
109,192,81256,1,0,0:0:0:0:
182,192,81410,1,0,0:0:0:0:
256,192,81564,1,0,0:0:0:0:
64,192,81718,1,0,0:0:0:0:
448,192,81718,1,0,0:0:0:0:
256,192,81872,1,0,0:0:0:0:
402,192,82026,1,0,0:0:0:0:
256,192,82179,1,0,0:0:0:0:
64,192,82333,1,0,0:0:0:0:
448,192,82333,1,0,0:0:0:0:
192,192,82487,1,0,0:0:0:0:
448,192,82641,1,0,0:0:0:0:
192,192,82795,1,0,0:0:0:0:
64,192,82949,1,0,0:0:0:0:
448,192,82949,1,0,0:0:0:0:
109,192,83103,1,0,0:0:0:0:
64,192,83256,1,0,0:0:0:0:
109,192,83410,1,0,0:0:0:0:
64,192,83564,1,0,0:0:0:0:
448,192,83564,1,0,0:0:0:0:
256,192,83718,1,0,0:0:0:0:
402,192,83872,1,0,0:0:0:0:
192,192,84026,1,0,0:0:0:0:
64,192,84179,1,0,0:0:0:0:
448,192,84179,1,0,0:0:0:0:
192,192,84333,1,0,0:0:0:0:
448,192,84487,1,0,0:0:0:0:
256,192,84641,1,0,0:0:0:0:
109,192,84795,1,0,0:0:0:0:
256,192,84949,1,0,0:0:0:0:
448,192,85026,1,0,0:0:0:0:
64,192,85103,1,0,0:0:0:0:
109,192,85103,1,0,0:0:0:0:
256,192,85256,1,0,0:0:0:0:
402,192,85410,1,0,0:0:0:0:
448,192,85410,1,0,0:0:0:0:
192,192,85564,1,0,0:0:0:0:
64,192,85718,1,0,0:0:0:0:
448,192,85718,1,0,0:0:0:0:
192,192,85872,1,0,0:0:0:0:
402,192,86026,1,0,0:0:0:0:
448,192,86026,1,0,0:0:0:0:
192,192,86179,1,0,0:0:0:0:
256,192,86179,1,0,0:0:0:0:
256,192,86487,1,0,0:0:0:0:
402,192,86641,1,0,0:0:0:0:
448,192,86641,1,0,0:0:0:0:
64,192,86795,1,0,0:0:0:0:
256,192,86949,1,0,0:0:0:0:
475,192,86949,1,0,0:0:0:0:
36,192,86949,1,0,0:0:0:0:
192,192,87103,1,0,0:0:0:0:
320,192,87103,1,0,0:0:0:0:
256,192,87103,1,0,0:0:0:0:
