osu file format v14

[General]
AudioFilename: OP.mp3
AudioLeadIn: 0
PreviewTime: 55547
Countdown: 0
SampleSet: Soft
StackLeniency: 0.7
Mode: 3
LetterboxInBreaks: 0
SpecialStyle: 0
WidescreenStoryboard: 0

[Editor]
DistanceSpacing: 1.5
BeatDivisor: 4
GridSize: 32
TimelineZoom: 2.5

[Metadata]
Title:MIIRO
TitleUnicode:海色
Artist:AKINO from bless4
ArtistUnicode:AKINO from bless4
Creator:[ S a k u r a ]
Version:NM
Source:艦隊これくしょん -艦これ-
Tags:Kantai Collection -KanColle- Julie Opening yuyul minatoku WEST GROUND
BeatmapID:587949
BeatmapSetID:256623

[Difficulty]
HPDrainRate:7
CircleSize:4
OverallDifficulty:7
ApproachRate:5
SliderMultiplier:1.4
SliderTickRate:1

[Events]
//Background and Video events
0,0,"47716228_p0.jpg",0,0
Video,-181,"OP.flv"
//Break Periods
//Storyboard Layer 0 (Background)
//Storyboard Layer 1 (Fail)
//Storyboard Layer 2 (Pass)
//Storyboard Layer 3 (Foreground)
//Storyboard Sound Samples

[TimingPoints]
163,307.692307692308,4,2,1,50,1,0
50547,-100,4,2,1,30,0,0
53163,-100,4,2,1,50,0,0
55547,-100,4,2,1,50,0,1
74932,-100,4,2,1,50,0,0

[HitObjects]
64,192,9,5,0,0:0:0:0:
192,192,60,1,0,0:0:0:0:
320,192,111,1,0,0:0:0:0:
448,192,163,1,0,0:0:0:0:
64,192,214,1,0,0:0:0:0:
192,192,1239,1,0,0:0:0:0:
448,192,1393,1,0,0:0:0:0:
320,192,1547,1,0,0:0:0:0:
192,192,1701,1,0,0:0:0:0:
64,192,1855,1,0,0:0:0:0:
448,192,2009,1,0,0:0:0:0:
320,192,2163,1,0,0:0:0:0:
192,192,2316,1,0,0:0:0:0:
64,192,2470,1,0,0:0:0:0:
192,192,2624,1,0,0:0:0:0:
448,192,2624,128,0,3855:0:0:0:0:
64,192,3855,1,0,0:0:0:0:
320,192,4009,1,0,0:0:0:0:
192,192,4163,1,0,0:0:0:0:
448,192,4316,1,0,0:0:0:0:
64,192,4470,1,0,0:0:0:0:
320,192,4624,1,0,0:0:0:0:
192,192,4778,1,0,0:0:0:0:
448,192,4932,1,0,0:0:0:0:
320,192,5086,1,0,0:0:0:0:
64,192,5239,1,0,0:0:0:0:
448,192,5393,1,0,0:0:0:0:
192,192,5547,1,0,0:0:0:0:
64,192,6163,1,0,0:0:0:0:
448,192,6163,1,4,0:0:0:0:
192,192,6624,1,8,0:0:0:0:
320,192,6932,1,0,0:0:0:0:
448,192,7086,1,0,0:0:0:0:
64,192,7239,1,8,0:0:0:0:
192,192,7239,1,0,0:0:0:0:
448,192,7547,1,0,0:0:0:0:
64,192,7701,1,0,0:0:0:0:
192,192,7855,1,8,0:0:0:0:
320,192,7855,1,0,0:0:0:0:
64,192,8163,1,0,0:0:0:0:
192,192,8316,1,0,0:0:0:0:
320,192,8470,1,8,0:0:0:0:
448,192,8470,1,0,0:0:0:0:
64,192,8624,1,4,0:0:0:0:
192,192,8624,1,0,0:0:0:0:
64,192,8932,1,0,0:0:0:0:
320,192,9086,1,8,0:0:0:0:
448,192,9086,1,0,0:0:0:0:
192,192,9393,1,0,0:0:0:0:
448,192,9547,1,0,0:0:0:0:
320,192,9701,1,8,0:0:0:0:
64,192,9701,1,0,0:0:0:0:
448,192,10009,1,0,0:0:0:0:
448,192,10163,1,0,0:0:0:0:
192,192,10316,1,8,0:0:0:0:
64,192,10316,1,0,0:0:0:0:
320,192,10624,1,0,0:0:0:0:
192,192,10778,1,0,0:0:0:0:
448,192,10932,1,8,0:0:0:0:
64,192,10932,1,0,0:0:0:0:
192,192,11086,1,4,0:0:0:0:
320,192,11086,1,0,0:0:0:0:
64,192,11393,1,0,0:0:0:0:
320,192,11547,1,8,0:0:0:0:
448,192,11547,1,0,0:0:0:0:
192,192,11855,1,0,0:0:0:0:
320,192,12009,1,0,0:0:0:0:
448,192,12163,1,0,0:0:0:0:
64,192,12163,1,8,0:0:0:0:
320,192,12470,1,0,0:0:0:0:
192,192,12624,1,0,0:0:0:0:
64,192,12778,1,0,0:0:0:0:
448,192,12778,1,8,0:0:0:0:
192,192,13086,1,0,0:0:0:0:
448,192,13239,1,0,0:0:0:0:
64,192,13393,1,8,0:0:0:0:
320,192,13393,1,0,0:0:0:0:
448,192,13701,1,8,0:0:0:0:
64,192,13855,1,0,0:0:0:0:
192,192,14009,1,8,0:0:0:0:
320,192,14163,1,0,0:0:0:0:
448,192,14470,128,8,14778:0:0:0:0:
192,192,14470,1,0,0:0:0:0:
64,192,14778,1,8,0:0:0:0:
192,192,14932,128,8,15239:0:0:0:0:
448,192,15239,128,8,15547:0:0:0:0:
64,192,15547,1,0,0:0:0:0:
192,192,15547,1,4,0:0:0:0:
448,192,15701,1,0,0:0:0:0:
320,192,15701,1,4,0:0:0:0:
192,192,16163,1,0,0:0:0:0:
448,192,16316,1,0,0:0:0:0:
64,192,16470,1,0,0:0:0:0:
320,192,16624,1,0,0:0:0:0:
192,192,16778,1,0,0:0:0:0:
448,192,16932,1,0,0:0:0:0:
320,192,17086,1,0,0:0:0:0:
192,192,17239,1,0,0:0:0:0:
64,192,17393,1,0,0:0:0:0:
320,192,17547,1,0,0:0:0:0:
192,192,17701,1,0,0:0:0:0:
448,192,17855,1,0,0:0:0:0:
64,192,18009,1,0,0:0:0:0:
192,192,18163,1,0,0:0:0:0:
448,192,18316,1,0,0:0:0:0:
320,192,18470,1,0,0:0:0:0:
64,192,18624,1,0,0:0:0:0:
448,192,18778,1,0,0:0:0:0:
192,192,18932,1,0,0:0:0:0:
320,192,19086,1,0,0:0:0:0:
64,192,19239,1,0,0:0:0:0:
192,192,19393,1,0,0:0:0:0:
320,192,19547,1,0,0:0:0:0:
448,192,19701,1,0,0:0:0:0:
192,192,19855,1,0,0:0:0:0:
320,192,20009,1,0,0:0:0:0:
64,192,20163,1,0,0:0:0:0:
192,192,20316,1,0,0:0:0:0:
448,192,20470,1,0,0:0:0:0:
320,192,20624,1,0,0:0:0:0:
192,192,20778,1,0,0:0:0:0:
448,192,20932,1,0,0:0:0:0:
64,192,21086,1,0,0:0:0:0:
320,192,21239,1,0,0:0:0:0:
192,192,21393,1,0,0:0:0:0:
64,192,21547,1,0,0:0:0:0:
448,192,21701,1,0,0:0:0:0:
320,192,21855,1,0,0:0:0:0:
64,192,22009,1,0,0:0:0:0:
192,192,22163,1,0,0:0:0:0:
64,192,22316,1,0,0:0:0:0:
448,192,22470,1,0,0:0:0:0:
320,192,22624,1,0,0:0:0:0:
192,192,22778,1,0,0:0:0:0:
448,192,22932,1,0,0:0:0:0:
64,192,23086,1,0,0:0:0:0:
320,192,23239,1,0,0:0:0:0:
192,192,23393,1,0,0:0:0:0:
64,192,23547,1,0,0:0:0:0:
448,192,23701,1,0,0:0:0:0:
192,192,23855,1,0,0:0:0:0:
320,192,24009,1,0,0:0:0:0:
64,192,24163,1,0,0:0:0:0:
448,192,24316,1,0,0:0:0:0:
192,192,24470,1,0,0:0:0:0:
320,192,24624,1,0,0:0:0:0:
64,192,24778,1,0,0:0:0:0:
448,192,24983,1,0,0:0:0:0:
64,192,25188,1,0,0:0:0:0:
320,192,25393,1,0,0:0:0:0:
192,192,25598,1,0,0:0:0:0:
320,192,25804,1,0,0:0:0:0:
64,192,26009,1,0,0:0:0:0:
448,192,26009,1,4,0:0:0:0:
448,192,26316,1,8,0:0:0:0:
320,192,26316,1,0,0:0:0:0:
192,192,26624,1,0,0:0:0:0:
448,192,26778,1,0,0:0:0:0:
320,192,26932,1,0,0:0:0:0:
64,192,26932,1,8,0:0:0:0:
192,192,27086,1,0,0:0:0:0:
192,192,27393,1,0,0:0:0:0:
320,192,27547,1,8,0:0:0:0:
448,192,27547,1,0,0:0:0:0:
64,192,27855,1,0,0:0:0:0:
320,192,28009,1,0,0:0:0:0:
64,192,28163,1,8,0:0:0:0:
192,192,28163,1,0,0:0:0:0:
448,192,28470,1,0,0:0:0:0:
192,192,28778,1,8,0:0:0:0:
320,192,28778,1,0,0:0:0:0:
64,192,29086,1,0,0:0:0:0:
448,192,29239,1,0,0:0:0:0:
192,192,29393,1,8,0:0:0:0:
320,192,29393,1,0,0:0:0:0:
64,192,29547,1,0,0:0:0:0:
64,192,29855,1,0,0:0:0:0:
192,192,30009,1,8,0:0:0:0:
448,192,30009,1,0,0:0:0:0:
320,192,30316,1,0,0:0:0:0:
192,192,30470,1,0,0:0:0:0:
64,192,30624,1,8,0:0:0:0:
448,192,30624,1,0,0:0:0:0:
192,192,30932,1,0,0:0:0:0:
320,192,30932,1,4,0:0:0:0:
320,192,31239,1,8,0:0:0:0:
64,192,31239,1,0,0:0:0:0:
192,192,31547,1,0,0:0:0:0:
320,192,31701,1,0,0:0:0:0:
448,192,31855,1,8,0:0:0:0:
64,192,31855,1,0,0:0:0:0:
192,192,32009,1,0,0:0:0:0:
320,192,32316,1,0,0:0:0:0:
192,192,32470,1,8,0:0:0:0:
448,192,32470,1,0,0:0:0:0:
64,192,32778,1,0,0:0:0:0:
320,192,32932,1,0,0:0:0:0:
64,192,33086,1,8,0:0:0:0:
192,192,33086,1,0,0:0:0:0:
320,192,33393,1,0,0:0:0:0:
448,192,33393,1,4,0:0:0:0:
448,192,33701,1,0,0:0:0:0:
192,192,33701,1,8,0:0:0:0:
320,192,34009,1,0,0:0:0:0:
64,192,34163,1,0,0:0:0:0:
320,192,34316,1,0,0:0:0:0:
448,192,34470,1,0,0:0:0:0:
192,192,34778,1,0,0:0:0:0:
448,192,34932,1,8,0:0:0:0:
320,192,34932,1,0,0:0:0:0:
64,192,35086,1,0,0:0:0:0:
192,192,35086,1,8,0:0:0:0:
320,192,35393,128,0,35855:0:0:0:0:
64,192,35855,1,4,0:0:0:0:
192,192,36009,1,0,0:0:0:0:
448,192,36163,1,0,0:0:0:0:
320,192,36316,1,0,0:0:0:0:
192,192,36470,1,0,0:0:0:0:
64,192,36778,1,0,0:0:0:0:
320,192,36932,1,0,0:0:0:0:
192,192,37239,1,0,0:0:0:0:
320,192,37547,1,0,0:0:0:0:
192,192,38316,1,0,0:0:0:0:
320,192,38624,1,0,0:0:0:0:
64,192,38778,1,0,0:0:0:0:
448,192,38932,1,0,0:0:0:0:
320,192,39086,1,0,0:0:0:0:
64,192,39239,1,0,0:0:0:0:
320,192,39701,1,0,0:0:0:0:
192,192,40009,1,0,0:0:0:0:
320,192,40316,1,0,0:0:0:0:
64,192,40470,1,0,0:0:0:0:
192,192,40778,1,0,0:0:0:0:
448,192,40932,1,0,0:0:0:0:
64,192,41086,1,0,0:0:0:0:
192,192,41239,1,0,0:0:0:0:
320,192,41393,1,0,0:0:0:0:
192,192,41701,1,0,0:0:0:0:
448,192,42163,1,0,0:0:0:0:
64,192,42470,1,0,0:0:0:0:
320,192,43239,1,0,0:0:0:0:
192,192,43393,1,0,0:0:0:0:
64,192,43855,128,0,45701:0:0:0:0:
320,192,44470,1,0,0:0:0:0:
192,192,44932,1,0,0:0:0:0:
448,192,45393,1,0,0:0:0:0:
320,192,45701,1,4,0:0:0:0:
192,192,45701,1,0,0:0:0:0:
448,192,46009,1,0,0:0:0:0:
320,192,46316,1,0,0:0:0:0:
192,192,46624,1,0,0:0:0:0:
448,192,46932,1,0,0:0:0:0:
64,192,47239,1,0,0:0:0:0:
192,192,47547,1,0,0:0:0:0:
320,192,47701,1,0,0:0:0:0:
448,192,47701,1,8,0:0:0:0:
192,192,48009,1,0,0:0:0:0:
64,192,48009,1,8,0:0:0:0:
64,192,48470,1,0,0:0:0:0:
192,192,48778,1,0,0:0:0:0:
448,192,49086,1,0,0:0:0:0:
320,192,49393,1,0,0:0:0:0:
192,192,49701,1,0,0:0:0:0:
448,192,50009,1,8,0:0:0:0:
320,192,50163,1,8,0:0:0:0:
192,192,50316,1,0,0:0:0:0:
64,192,50470,1,0,0:0:0:0:
320,192,50624,1,4,0:0:0:0:
448,192,50624,1,0,0:0:0:0:
192,192,50932,1,8,0:0:0:0:
320,192,50932,1,0,0:0:0:0:
192,192,51239,1,8,0:0:0:0:
64,192,51239,1,0,0:0:0:0:
64,192,51701,1,8,0:0:0:0:
448,192,51701,1,0,0:0:0:0:
320,192,52163,1,8,0:0:0:0:
448,192,52163,1,0,0:0:0:0:
64,192,52624,1,0,0:0:0:0:
320,192,52624,1,8,0:0:0:0:
448,192,53086,1,4,0:0:0:0:
64,192,53086,1,0,0:0:0:0:
192,192,53393,1,0,0:0:0:0:
320,192,53701,1,0,0:0:0:0:
64,192,53701,1,8,0:0:0:0:
448,192,54009,1,8,0:0:0:0:
320,192,54009,1,0,0:0:0:0:
192,192,54086,1,0,0:0:0:0:
64,192,54163,1,0,0:0:0:0:
320,192,55547,1,4,0:0:0:0:
448,192,55547,1,0,0:0:0:0:
64,192,55855,1,0,0:0:0:0:
192,192,55855,1,8,0:0:0:0:
320,192,56163,1,0,0:0:0:0:
192,192,56470,1,8,0:0:0:0:
448,192,56470,1,0,0:0:0:0:
64,192,56778,1,0,0:0:0:0:
320,192,57086,1,0,0:0:0:0:
448,192,57086,1,8,0:0:0:0:
192,192,57393,1,0,0:0:0:0:
64,192,57701,1,8,0:0:0:0:
320,192,57701,1,0,0:0:0:0:
448,192,57855,1,0,0:0:0:0:
320,192,57932,1,0,0:0:0:0:
192,192,58009,1,8,0:0:0:0:
448,192,58316,1,0,0:0:0:0:
320,192,58316,1,8,0:0:0:0:
192,192,58624,1,0,0:0:0:0:
64,192,58932,1,8,0:0:0:0:
320,192,58932,1,0,0:0:0:0:
448,192,59239,1,0,0:0:0:0:
192,192,59547,1,8,0:0:0:0:
64,192,59547,1,0,0:0:0:0:
320,192,59855,1,0,0:0:0:0:
64,192,60163,1,8,0:0:0:0:
448,192,60163,1,0,0:0:0:0:
192,192,60470,1,0,0:0:0:0:
320,192,60470,1,0,0:0:0:0:
64,192,60778,1,8,0:0:0:0:
320,192,60778,1,8,0:0:0:0:
192,192,61086,1,0,0:0:0:0:
64,192,61393,1,0,0:0:0:0:
448,192,61393,1,8,0:0:0:0:
192,192,61701,1,0,0:0:0:0:
320,192,62009,1,8,0:0:0:0:
64,192,62009,1,0,0:0:0:0:
448,192,62316,128,0,62624:0:0:0:0:
192,192,62624,1,8,0:0:0:0:
64,192,62624,1,0,0:0:0:0:
320,192,62778,1,4,0:0:0:0:
64,192,63086,1,0,0:0:0:0:
448,192,63239,1,8,0:0:0:0:
320,192,63239,1,0,0:0:0:0:
192,192,63547,1,8,0:0:0:0:
64,192,63547,1,0,0:0:0:0:
192,192,63855,1,0,0:0:0:0:
448,192,64009,1,0,0:0:0:0:
320,192,64163,1,8,0:0:0:0:
64,192,64163,1,0,0:0:0:0:
192,192,64470,1,8,0:0:0:0:
448,192,64470,1,0,0:0:0:0:
320,192,64778,1,0,0:0:0:0:
64,192,64778,1,8,0:0:0:0:
448,192,65086,128,8,65393:0:0:0:0:
64,192,65393,1,4,0:0:0:0:
192,192,65393,1,0,0:0:0:0:
192,192,65701,1,8,0:0:0:0:
448,192,65701,1,0,0:0:0:0:
320,192,66009,1,0,0:0:0:0:
64,192,66316,1,8,0:0:0:0:
320,192,66316,1,0,0:0:0:0:
192,192,66624,1,0,0:0:0:0:
320,192,66932,1,8,0:0:0:0:
448,192,66932,1,0,0:0:0:0:
64,192,67239,1,0,0:0:0:0:
448,192,67547,1,0,0:0:0:0:
192,192,67547,1,8,0:0:0:0:
64,192,67701,1,0,0:0:0:0:
192,192,67778,1,0,0:0:0:0:
320,192,67855,1,8,0:0:0:0:
64,192,68163,1,0,0:0:0:0:
192,192,68163,1,8,0:0:0:0:
448,192,68470,1,0,0:0:0:0:
320,192,68778,1,8,0:0:0:0:
64,192,68778,1,0,0:0:0:0:
192,192,69086,1,0,0:0:0:0:
448,192,69393,1,0,0:0:0:0:
64,192,69393,1,8,0:0:0:0:
320,192,69701,1,0,0:0:0:0:
64,192,69855,1,0,0:0:0:0:
320,192,70009,1,8,0:0:0:0:
192,192,70009,1,0,0:0:0:0:
448,192,70163,1,0,0:0:0:0:
192,192,70316,1,8,0:0:0:0:
64,192,70316,1,0,0:0:0:0:
64,192,70624,1,8,0:0:0:0:
448,192,70624,1,0,0:0:0:0:
320,192,70932,1,0,0:0:0:0:
448,192,71239,1,8,0:0:0:0:
192,192,71239,1,0,0:0:0:0:
320,192,71547,1,0,0:0:0:0:
192,192,71855,1,0,0:0:0:0:
64,192,71855,1,8,0:0:0:0:
448,192,72009,1,0,0:0:0:0:
320,192,72163,1,8,0:0:0:0:
192,192,72163,1,0,0:0:0:0:
64,192,72316,1,0,0:0:0:0:
320,192,72470,1,0,0:0:0:0:
64,192,72624,1,0,0:0:0:0:
448,192,72624,1,4,0:0:0:0:
448,192,72932,1,0,0:0:0:0:
64,192,73086,1,8,0:0:0:0:
320,192,73086,1,0,0:0:0:0:
192,192,73393,1,8,0:0:0:0:
448,192,73393,1,0,0:0:0:0:
320,192,73701,1,0,0:0:0:0:
192,192,73855,1,8,0:0:0:0:
64,192,73855,1,0,0:0:0:0:
448,192,74009,1,0,0:0:0:0:
320,192,74316,1,8,0:0:0:0:
64,192,74316,1,0,0:0:0:0:
448,192,74624,128,0,74932:0:0:0:0:
64,192,74932,1,0,0:0:0:0:
192,192,75086,1,4,0:0:0:0:
320,192,75086,1,0,0:0:0:0:
448,192,75547,1,0,0:0:0:0:
192,192,75547,1,8,0:0:0:0:
64,192,75855,1,0,0:0:0:0:
320,192,76163,1,0,0:0:0:0:
448,192,76163,1,8,0:0:0:0:
192,192,76470,1,0,0:0:0:0:
448,192,76778,1,0,0:0:0:0:
64,192,76778,1,8,0:0:0:0:
64,192,77086,1,0,0:0:0:0:
448,192,77239,1,0,0:0:0:0:
192,192,77393,1,0,0:0:0:0:
320,192,77393,1,8,0:0:0:0:
64,192,77547,1,0,0:0:0:0:
320,192,77701,1,8,0:0:0:0:
448,192,77701,1,0,0:0:0:0:
64,192,78009,1,8,0:0:0:0:
192,192,78163,1,8,0:0:0:0:
448,192,78316,1,8,0:0:0:0:
320,192,78470,1,8,0:0:0:0:
192,192,78624,1,8,0:0:0:0:
64,192,78778,1,8,0:0:0:0:
448,192,78932,1,0,0:0:0:0:
64,192,79086,1,0,0:0:0:0:
320,192,79239,1,0,0:0:0:0:
192,192,79393,1,0,0:0:0:0:
448,192,79547,1,0,0:0:0:0:
64,192,79701,1,0,0:0:0:0:
320,192,79855,1,0,0:0:0:0:
64,192,80009,1,4,0:0:0:0:
448,192,80009,1,0,0:0:0:0:
192,192,80316,1,0,0:0:0:0:
320,192,80470,1,8,0:0:0:0:
448,192,80470,1,0,0:0:0:0:
192,192,80778,1,0,0:0:0:0:
320,192,80932,1,0,0:0:0:0:
448,192,81086,1,0,0:0:0:0:
64,192,81086,1,8,0:0:0:0:
192,192,81393,1,0,0:0:0:0:
448,192,81547,1,0,0:0:0:0:
320,192,81701,1,8,0:0:0:0:
64,192,81701,1,0,0:0:0:0:
192,192,82009,1,0,0:0:0:0:
64,192,82163,1,0,0:0:0:0:
320,192,82316,1,0,0:0:0:0:
448,192,82316,1,8,0:0:0:0:
192,192,82470,1,4,0:0:0:0:
64,192,82470,1,0,0:0:0:0:
448,192,82778,1,0,0:0:0:0:
192,192,82932,1,8,0:0:0:0:
64,192,82932,1,0,0:0:0:0:
320,192,83239,1,0,0:0:0:0:
64,192,83393,1,0,0:0:0:0:
192,192,83547,1,8,0:0:0:0:
448,192,83547,1,0,0:0:0:0:
64,192,83855,1,0,0:0:0:0:
192,192,84009,1,0,0:0:0:0:
320,192,84163,1,8,0:0:0:0:
448,192,84163,1,0,0:0:0:0:
192,192,84470,1,0,0:0:0:0:
320,192,84624,1,0,0:0:0:0:
448,192,84778,1,0,0:0:0:0:
64,192,84778,1,8,0:0:0:0:
192,192,84932,1,0,0:0:0:0:
320,192,85086,1,0,0:0:0:0:
448,192,85086,1,8,0:0:0:0:
192,192,85239,1,0,0:0:0:0:
64,192,85393,1,8,0:0:0:0:
448,192,85393,1,0,0:0:0:0:
320,192,85547,1,0,0:0:0:0:
192,192,85701,1,0,0:0:0:0:
64,192,85701,1,8,0:0:0:0:
448,192,86009,1,8,0:0:0:0:
320,192,86009,1,0,0:0:0:0:
64,192,86163,1,0,0:0:0:0:
448,192,86316,1,0,0:0:0:0:
64,192,86470,1,0,0:0:0:0:
192,192,86470,1,0,0:0:0:0:
320,192,86624,1,8,0:0:0:0:
448,192,86624,128,0,86932:0:0:0:0:
64,192,86932,1,8,0:0:0:0:
192,192,86932,1,0,0:0:0:0:
192,192,87086,1,0,0:0:0:0:
64,192,87086,1,8,0:0:0:0:
