osu file format v14

[General]
AudioFilename: miiro.mp3
AudioLeadIn: 2000
PreviewTime: 129449
Countdown: 0
SampleSet: None
StackLeniency: 0.7
Mode: 3
LetterboxInBreaks: 0
SpecialStyle: 0
WidescreenStoryboard: 1

[Editor]
Bookmarks: 184680,194526,216680
DistanceSpacing: 2
BeatDivisor: 4
GridSize: 8
TimelineZoom: 0.1

[Metadata]
Title:MIIRO
TitleUnicode:海色
Artist:AKINO from bless4
ArtistUnicode:AKINO from bless4
Creator:[FX] AEM
Version:TV-SIZE
Source:
Tags:
BeatmapID:639793
BeatmapSetID:282455

[Difficulty]
HPDrainRate:7
CircleSize:4
OverallDifficulty:7
ApproachRate:0
SliderMultiplier:3
SliderTickRate:1

[Events]
//Background and Video events
0,0,"joseptlee.jpg",0,0
//Break Periods
//Storyboard Layer 0 (Background)
//Storyboard Layer 1 (Fail)
//Storyboard Layer 2 (Pass)
//Storyboard Layer 3 (Foreground)
//Storyboard Sound Samples

[TimingPoints]
65,307.692307692308,4,2,0,30,1,0
56680,-100,4,2,0,30,0,1
76218,-100,4,2,0,30,0,0
130526,-100,4,2,0,30,0,1
150065,-100,4,2,0,30,0,0
163911,-66.6666666666667,4,2,0,30,0,0
163949,-133.333333333333,4,2,0,30,0,0
163988,-66.6666666666667,4,2,0,30,0,0
164026,-133.333333333333,4,2,0,30,0,0
164065,-66.6666666666667,4,2,0,30,0,0
164141,-100,4,2,0,30,0,0
164218,-66.6666666666667,4,2,0,30,0,0
164295,-100,4,2,0,30,0,0
164372,-66.6666666666667,4,2,0,30,0,0
164449,-100,4,2,0,30,0,0
164526,-66.6666666666667,4,2,0,30,0,0
164603,-100,4,2,0,30,0,0
164680,-66.6666666666667,4,2,0,30,0,0
164757,-100,4,2,0,30,0,0
164834,-50,4,2,0,30,0,0
164911,-133.333333333333,4,2,0,30,0,0
164988,-100,4,2,0,30,0,0
216680,-100,4,2,0,30,0,1
240065,-100,4,2,0,30,0,0

[HitObjects]
64,192,1141,5,0,0:0:0:0:
192,192,1193,1,0,0:0:0:0:
320,192,1244,1,0,0:0:0:0:
448,192,1295,5,0,0:0:0:0:
64,192,1295,128,0,2372:0:0:0:0:
448,192,2372,1,0,0:0:0:0:
320,192,2526,1,0,0:0:0:0:
192,192,2680,1,0,0:0:0:0:
64,192,2834,1,0,0:0:0:0:
448,192,2988,128,0,3141:0:0:0:0:
320,192,3141,128,0,3295:0:0:0:0:
192,192,3295,128,0,3449:0:0:0:0:
64,192,3449,128,0,3603:0:0:0:0:
320,192,3603,128,0,3757:0:0:0:0:
448,192,3757,128,0,4988:0:0:0:0:
64,192,3757,1,0,0:0:0:0:
192,192,3757,1,0,0:0:0:0:
64,192,4988,1,0,0:0:0:0:
192,192,4988,1,0,0:0:0:0:
192,192,5141,1,0,0:0:0:0:
320,192,5141,1,0,0:0:0:0:
448,192,5295,1,0,0:0:0:0:
64,192,5449,1,0,0:0:0:0:
192,192,5449,1,0,0:0:0:0:
192,192,5603,1,0,0:0:0:0:
320,192,5603,1,0,0:0:0:0:
448,192,5757,1,0,0:0:0:0:
64,192,5911,1,0,0:0:0:0:
192,192,5911,1,0,0:0:0:0:
192,192,6065,1,0,0:0:0:0:
320,192,6065,1,0,0:0:0:0:
448,192,6218,1,0,0:0:0:0:
64,192,6372,1,0,0:0:0:0:
192,192,6372,1,0,0:0:0:0:
192,192,6526,1,0,0:0:0:0:
320,192,6526,1,0,0:0:0:0:
448,192,6680,1,0,0:0:0:0:
64,192,7295,128,0,7603:0:0:0:0:
192,192,7295,1,0,0:0:0:0:
320,192,7295,128,0,7603:0:0:0:0:
448,192,7295,1,0,0:0:0:0:
192,192,7603,1,0,0:0:0:0:
448,192,7603,1,0,0:0:0:0:
320,192,7757,1,0,0:0:0:0:
64,192,7757,1,0,0:0:0:0:
192,192,7757,1,0,0:0:0:0:
64,192,8065,1,0,0:0:0:0:
320,192,8065,1,0,0:0:0:0:
64,192,8218,1,0,0:0:0:0:
320,192,8218,1,0,0:0:0:0:
192,192,8372,1,0,0:0:0:0:
320,192,8372,1,0,0:0:0:0:
448,192,8372,1,0,0:0:0:0:
192,192,8680,1,0,0:0:0:0:
448,192,8680,1,0,0:0:0:0:
448,192,8834,1,0,0:0:0:0:
192,192,8834,1,0,0:0:0:0:
320,192,8988,1,0,0:0:0:0:
64,192,8988,1,0,0:0:0:0:
192,192,8988,1,0,0:0:0:0:
448,192,9141,1,0,0:0:0:0:
64,192,9295,1,0,0:0:0:0:
192,192,9449,1,0,0:0:0:0:
448,192,9449,1,0,0:0:0:0:
64,192,9603,1,0,0:0:0:0:
320,192,9603,1,0,0:0:0:0:
448,192,9757,1,0,0:0:0:0:
192,192,9757,1,0,0:0:0:0:
320,192,9757,128,0,10218:0:0:0:0:
64,192,10065,1,0,0:0:0:0:
192,192,10218,1,0,0:0:0:0:
448,192,10218,1,0,0:0:0:0:
192,192,10526,1,0,0:0:0:0:
320,192,10526,1,0,0:0:0:0:
192,192,10680,1,0,0:0:0:0:
64,192,10834,1,0,0:0:0:0:
448,192,10834,1,0,0:0:0:0:
320,192,10834,1,0,0:0:0:0:
320,192,11141,1,0,0:0:0:0:
192,192,11141,1,0,0:0:0:0:
320,192,11295,1,0,0:0:0:0:
448,192,11449,1,0,0:0:0:0:
64,192,11449,1,0,0:0:0:0:
192,192,11449,1,0,0:0:0:0:
320,192,11603,1,0,0:0:0:0:
448,192,11911,1,0,0:0:0:0:
320,192,11911,1,0,0:0:0:0:
64,192,12065,1,0,0:0:0:0:
192,192,12065,1,0,0:0:0:0:
192,192,12218,1,0,0:0:0:0:
320,192,12218,1,0,0:0:0:0:
448,192,12218,128,0,12680:0:0:0:0:
320,192,12526,1,0,0:0:0:0:
192,192,12680,1,0,0:0:0:0:
64,192,12680,1,0,0:0:0:0:
64,192,12988,1,0,0:0:0:0:
448,192,12988,1,0,0:0:0:0:
320,192,13141,1,0,0:0:0:0:
192,192,13141,1,0,0:0:0:0:
448,192,13295,1,0,0:0:0:0:
192,192,13295,1,0,0:0:0:0:
64,192,13295,1,0,0:0:0:0:
320,192,13449,1,0,0:0:0:0:
192,192,13603,1,0,0:0:0:0:
64,192,13603,1,0,0:0:0:0:
64,192,13757,1,0,0:0:0:0:
320,192,13757,1,0,0:0:0:0:
320,192,13911,1,0,0:0:0:0:
448,192,13911,1,0,0:0:0:0:
192,192,13911,1,0,0:0:0:0:
64,192,14065,1,0,0:0:0:0:
448,192,14218,1,0,0:0:0:0:
192,192,14218,1,0,0:0:0:0:
192,192,14372,1,0,0:0:0:0:
64,192,14372,1,0,0:0:0:0:
320,192,14526,1,0,0:0:0:0:
64,192,14526,1,0,0:0:0:0:
448,192,14526,1,0,0:0:0:0:
320,192,14680,1,0,0:0:0:0:
192,192,14757,1,0,0:0:0:0:
448,192,14834,1,0,0:0:0:0:
64,192,14834,1,0,0:0:0:0:
320,192,14834,1,0,0:0:0:0:
192,192,14988,1,0,0:0:0:0:
320,192,14988,1,0,0:0:0:0:
448,192,15141,1,0,0:0:0:0:
64,192,15141,1,0,0:0:0:0:
320,192,15141,1,0,0:0:0:0:
320,192,15295,1,0,0:0:0:0:
192,192,15295,1,0,0:0:0:0:
64,192,15449,1,0,0:0:0:0:
320,192,15449,1,0,0:0:0:0:
448,192,15449,1,0,0:0:0:0:
320,192,15603,1,0,0:0:0:0:
448,192,15603,1,0,0:0:0:0:
64,192,15603,1,0,0:0:0:0:
192,192,15757,1,0,0:0:0:0:
320,192,15757,1,0,0:0:0:0:
64,192,15911,1,0,0:0:0:0:
320,192,15911,1,0,0:0:0:0:
448,192,15911,1,0,0:0:0:0:
320,192,16065,1,0,0:0:0:0:
448,192,16065,1,0,0:0:0:0:
64,192,16065,1,0,0:0:0:0:
192,192,16218,1,0,0:0:0:0:
320,192,16372,1,0,0:0:0:0:
64,192,16372,1,0,0:0:0:0:
448,192,16372,1,0,0:0:0:0:
192,192,16449,1,0,0:0:0:0:
320,192,16526,1,0,0:0:0:0:
448,192,16603,1,0,0:0:0:0:
64,192,16680,1,0,0:0:0:0:
320,192,16680,1,0,0:0:0:0:
192,192,16680,1,0,0:0:0:0:
320,192,16834,1,0,0:0:0:0:
192,192,16834,1,0,0:0:0:0:
448,192,16834,1,0,0:0:0:0:
64,192,17295,1,0,0:0:0:0:
192,192,17295,1,0,0:0:0:0:
320,192,17449,1,0,0:0:0:0:
448,192,17603,1,0,0:0:0:0:
64,192,17757,1,0,0:0:0:0:
320,192,17757,1,0,0:0:0:0:
192,192,17911,1,0,0:0:0:0:
448,192,18065,1,0,0:0:0:0:
192,192,18218,1,0,0:0:0:0:
64,192,18218,1,0,0:0:0:0:
448,192,18372,1,0,0:0:0:0:
64,192,18526,1,0,0:0:0:0:
320,192,18526,1,0,0:0:0:0:
192,192,18680,1,0,0:0:0:0:
320,192,18834,1,0,0:0:0:0:
448,192,18988,1,0,0:0:0:0:
64,192,18988,1,0,0:0:0:0:
320,192,19141,1,0,0:0:0:0:
192,192,19295,1,0,0:0:0:0:
448,192,19449,1,0,0:0:0:0:
320,192,19449,1,0,0:0:0:0:
448,192,19603,1,0,0:0:0:0:
192,192,19757,1,0,0:0:0:0:
64,192,19757,1,0,0:0:0:0:
320,192,19911,1,0,0:0:0:0:
64,192,20065,1,0,0:0:0:0:
192,192,20218,1,0,0:0:0:0:
448,192,20218,1,0,0:0:0:0:
64,192,20372,1,0,0:0:0:0:
320,192,20526,1,0,0:0:0:0:
192,192,20680,1,0,0:0:0:0:
64,192,20680,1,0,0:0:0:0:
448,192,20834,1,0,0:0:0:0:
320,192,20988,1,0,0:0:0:0:
64,192,20988,1,0,0:0:0:0:
192,192,21141,1,0,0:0:0:0:
64,192,21295,1,0,0:0:0:0:
320,192,21449,1,0,0:0:0:0:
192,192,21449,1,0,0:0:0:0:
448,192,21603,1,0,0:0:0:0:
192,192,21757,1,0,0:0:0:0:
320,192,21911,1,0,0:0:0:0:
64,192,22065,1,0,0:0:0:0:
192,192,22218,1,0,0:0:0:0:
448,192,22218,1,0,0:0:0:0:
320,192,22372,1,0,0:0:0:0:
64,192,22526,1,0,0:0:0:0:
192,192,22680,1,0,0:0:0:0:
320,192,22680,1,0,0:0:0:0:
448,192,22834,1,0,0:0:0:0:
320,192,22988,1,0,0:0:0:0:
64,192,23141,1,0,0:0:0:0:
192,192,23141,1,0,0:0:0:0:
448,192,23295,1,0,0:0:0:0:
64,192,23449,1,0,0:0:0:0:
320,192,23449,1,0,0:0:0:0:
192,192,23603,1,0,0:0:0:0:
320,192,23757,1,0,0:0:0:0:
192,192,23911,1,0,0:0:0:0:
448,192,23911,1,0,0:0:0:0:
64,192,24065,1,0,0:0:0:0:
320,192,24218,1,0,0:0:0:0:
448,192,24372,1,0,0:0:0:0:
192,192,24526,1,0,0:0:0:0:
448,192,24680,1,0,0:0:0:0:
64,192,24680,1,0,0:0:0:0:
64,192,24834,1,0,0:0:0:0:
64,192,24988,1,0,0:0:0:0:
64,192,25141,1,0,0:0:0:0:
64,192,25295,1,0,0:0:0:0:
64,192,25449,1,0,0:0:0:0:
64,192,25603,1,0,0:0:0:0:
64,192,25757,1,0,0:0:0:0:
320,192,25911,128,0,26013:0:0:0:0:
192,192,25911,128,0,26013:0:0:0:0:
448,192,25911,128,0,26013:0:0:0:0:
192,192,26122,128,0,26218:0:0:0:0:
320,192,26122,128,0,26218:0:0:0:0:
192,192,26321,128,0,26430:0:0:0:0:
320,192,26321,128,0,26430:0:0:0:0:
448,192,26321,128,0,26430:0:0:0:0:
64,192,26526,128,0,26629:0:0:0:0:
192,192,26526,128,0,26629:0:0:0:0:
320,192,26526,128,0,26629:0:0:0:0:
192,192,26738,128,0,26834:0:0:0:0:
64,192,26738,128,0,26834:0:0:0:0:
192,192,26949,128,0,27045:0:0:0:0:
64,192,26949,128,0,27045:0:0:0:0:
320,192,26949,128,0,27045:0:0:0:0:
448,192,27141,1,0,0:0:0:0:
320,192,27141,1,0,0:0:0:0:
64,192,27141,128,0,27449:0:0:0:0:
192,192,27141,1,0,0:0:0:0:
320,192,27449,1,0,0:0:0:0:
448,192,27449,1,0,0:0:0:0:
192,192,27449,1,0,0:0:0:0:
64,192,27757,1,0,0:0:0:0:
320,192,27757,1,0,0:0:0:0:
448,192,27911,1,0,0:0:0:0:
192,192,27911,1,0,0:0:0:0:
320,192,28065,1,0,0:0:0:0:
192,192,28065,1,0,0:0:0:0:
64,192,28065,1,0,0:0:0:0:
192,192,28218,1,0,0:0:0:0:
448,192,28218,1,0,0:0:0:0:
192,192,28526,1,0,0:0:0:0:
448,192,28526,1,0,0:0:0:0:
64,192,28680,1,0,0:0:0:0:
320,192,28680,1,0,0:0:0:0:
192,192,28680,1,0,0:0:0:0:
320,192,28988,1,0,0:0:0:0:
64,192,28988,1,0,0:0:0:0:
448,192,29141,1,0,0:0:0:0:
192,192,29141,1,0,0:0:0:0:
64,192,29295,1,0,0:0:0:0:
192,192,29295,1,0,0:0:0:0:
320,192,29295,1,0,0:0:0:0:
320,192,29603,1,0,0:0:0:0:
64,192,29603,1,0,0:0:0:0:
64,192,29911,1,0,0:0:0:0:
448,192,29911,1,0,0:0:0:0:
320,192,29911,1,0,0:0:0:0:
192,192,30065,1,0,0:0:0:0:
320,192,30218,1,0,0:0:0:0:
192,192,30218,1,0,0:0:0:0:
320,192,30372,1,0,0:0:0:0:
64,192,30372,1,0,0:0:0:0:
192,192,30526,1,0,0:0:0:0:
448,192,30526,1,0,0:0:0:0:
64,192,30526,1,0,0:0:0:0:
320,192,30680,1,0,0:0:0:0:
192,192,30834,1,0,0:0:0:0:
448,192,30834,1,0,0:0:0:0:
320,192,30988,1,0,0:0:0:0:
192,192,30988,1,0,0:0:0:0:
64,192,31141,1,0,0:0:0:0:
320,192,31141,1,0,0:0:0:0:
448,192,31141,1,0,0:0:0:0:
448,192,31449,1,0,0:0:0:0:
192,192,31449,1,0,0:0:0:0:
64,192,31603,1,0,0:0:0:0:
320,192,31603,1,0,0:0:0:0:
448,192,31757,1,0,0:0:0:0:
192,192,31757,1,0,0:0:0:0:
320,192,31757,1,0,0:0:0:0:
192,192,32065,1,0,0:0:0:0:
64,192,32065,1,0,0:0:0:0:
448,192,32065,1,0,0:0:0:0:
320,192,32065,1,0,0:0:0:0:
448,192,32372,1,0,0:0:0:0:
192,192,32372,1,0,0:0:0:0:
64,192,32680,1,0,0:0:0:0:
320,192,32680,1,0,0:0:0:0:
448,192,32834,1,0,0:0:0:0:
192,192,32834,1,0,0:0:0:0:
64,192,32988,1,0,0:0:0:0:
320,192,32988,1,0,0:0:0:0:
192,192,32988,1,0,0:0:0:0:
448,192,33141,128,0,33449:0:0:0:0:
320,192,33449,1,0,0:0:0:0:
192,192,33449,1,0,0:0:0:0:
448,192,33603,1,0,0:0:0:0:
320,192,33603,1,0,0:0:0:0:
64,192,33603,128,0,33911:0:0:0:0:
448,192,33911,1,0,0:0:0:0:
320,192,33988,1,0,0:0:0:0:
192,192,34065,1,0,0:0:0:0:
320,192,34141,1,0,0:0:0:0:
448,192,34218,1,0,0:0:0:0:
64,192,34218,1,0,0:0:0:0:
192,192,34295,1,0,0:0:0:0:
320,192,34372,1,0,0:0:0:0:
192,192,34449,1,0,0:0:0:0:
64,192,34526,1,0,0:0:0:0:
320,192,34526,1,0,0:0:0:0:
448,192,34526,128,0,35141:0:0:0:0:
64,192,34834,1,0,0:0:0:0:
192,192,34834,1,0,0:0:0:0:
320,192,35141,1,0,0:0:0:0:
192,192,35141,1,0,0:0:0:0:
64,192,35295,1,0,0:0:0:0:
192,192,35295,1,0,0:0:0:0:
448,192,35372,1,0,0:0:0:0:
64,192,35372,1,0,0:0:0:0:
192,192,35449,1,0,0:0:0:0:
320,192,35449,1,0,0:0:0:0:
448,192,35603,1,0,0:0:0:0:
320,192,35603,1,0,0:0:0:0:
64,192,35603,1,0,0:0:0:0:
192,192,35757,1,0,0:0:0:0:
192,192,35911,1,0,0:0:0:0:
320,192,35911,1,0,0:0:0:0:
448,192,35911,1,0,0:0:0:0:
64,192,36065,1,0,0:0:0:0:
320,192,36065,1,0,0:0:0:0:
192,192,36218,1,0,0:0:0:0:
448,192,36218,1,0,0:0:0:0:
64,192,36218,128,0,36526:0:0:0:0:
448,192,36526,1,0,0:0:0:0:
320,192,36603,1,0,0:0:0:0:
192,192,36680,1,0,0:0:0:0:
320,192,36757,1,0,0:0:0:0:
448,192,36757,1,0,0:0:0:0:
192,192,36834,1,0,0:0:0:0:
64,192,36834,1,0,0:0:0:0:
448,192,36911,1,0,0:0:0:0:
320,192,36988,1,0,0:0:0:0:
192,192,36988,128,0,37295:0:0:0:0:
448,192,37295,1,0,0:0:0:0:
320,192,37295,1,0,0:0:0:0:
64,192,37449,1,0,0:0:0:0:
448,192,37603,1,0,0:0:0:0:
192,192,37603,1,0,0:0:0:0:
64,192,37911,1,0,0:0:0:0:
448,192,37911,1,0,0:0:0:0:
320,192,38065,1,0,0:0:0:0:
448,192,38372,1,0,0:0:0:0:
320,192,38372,1,0,0:0:0:0:
64,192,38526,1,0,0:0:0:0:
192,192,38680,1,0,0:0:0:0:
448,192,38680,1,0,0:0:0:0:
448,192,38988,1,0,0:0:0:0:
192,192,39141,1,0,0:0:0:0:
448,192,39295,1,0,0:0:0:0:
320,192,39372,1,0,0:0:0:0:
64,192,39449,1,0,0:0:0:0:
192,192,39449,128,0,39757:0:0:0:0:
320,192,39757,1,0,0:0:0:0:
448,192,39757,1,0,0:0:0:0:
64,192,39911,1,0,0:0:0:0:
448,192,40065,1,0,0:0:0:0:
192,192,40065,1,0,0:0:0:0:
320,192,40218,1,0,0:0:0:0:
192,192,40372,1,0,0:0:0:0:
64,192,40526,1,0,0:0:0:0:
64,192,40834,1,0,0:0:0:0:
192,192,41141,1,0,0:0:0:0:
448,192,41449,1,0,0:0:0:0:
320,192,41603,1,0,0:0:0:0:
64,192,41603,1,0,0:0:0:0:
192,192,41757,1,0,0:0:0:0:
448,192,41911,1,0,0:0:0:0:
320,192,41911,1,0,0:0:0:0:
64,192,42065,1,0,0:0:0:0:
192,192,42218,1,0,0:0:0:0:
448,192,42218,1,0,0:0:0:0:
320,192,42372,1,0,0:0:0:0:
64,192,42526,1,0,0:0:0:0:
448,192,42526,1,0,0:0:0:0:
320,192,42680,1,0,0:0:0:0:
192,192,42834,1,0,0:0:0:0:
64,192,42988,1,0,0:0:0:0:
320,192,43295,1,0,0:0:0:0:
192,192,43295,1,0,0:0:0:0:
64,192,43603,1,0,0:0:0:0:
448,192,43603,1,0,0:0:0:0:
448,192,43911,1,0,0:0:0:0:
320,192,44065,1,0,0:0:0:0:
192,192,44218,1,0,0:0:0:0:
320,192,44372,1,0,0:0:0:0:
448,192,44372,1,0,0:0:0:0:
64,192,44372,128,0,44988:0:0:0:0:
448,192,44988,1,0,0:0:0:0:
320,192,45090,1,0,0:0:0:0:
192,192,45199,1,0,0:0:0:0:
448,192,45295,1,0,0:0:0:0:
320,192,45398,1,0,0:0:0:0:
192,192,45507,1,0,0:0:0:0:
64,192,45603,1,0,0:0:0:0:
320,192,45603,1,0,0:0:0:0:
448,192,45680,1,0,0:0:0:0:
320,192,45757,1,0,0:0:0:0:
192,192,45834,1,0,0:0:0:0:
448,192,45911,1,0,0:0:0:0:
320,192,45911,1,0,0:0:0:0:
64,192,45911,1,0,0:0:0:0:
192,192,45988,1,0,0:0:0:0:
64,192,46065,1,0,0:0:0:0:
320,192,46141,1,0,0:0:0:0:
448,192,46218,1,0,0:0:0:0:
192,192,46218,1,0,0:0:0:0:
320,192,46295,1,0,0:0:0:0:
192,192,46372,1,0,0:0:0:0:
64,192,46449,1,0,0:0:0:0:
320,192,46526,1,0,0:0:0:0:
448,192,46526,1,0,0:0:0:0:
192,192,46603,1,0,0:0:0:0:
64,192,46680,1,0,0:0:0:0:
192,192,46757,1,0,0:0:0:0:
64,192,46834,1,0,0:0:0:0:
320,192,46834,1,0,0:0:0:0:
448,192,46834,1,0,0:0:0:0:
64,192,46988,1,0,0:0:0:0:
320,192,47141,1,0,0:0:0:0:
64,192,47141,1,0,0:0:0:0:
64,192,47295,1,0,0:0:0:0:
64,192,47449,1,0,0:0:0:0:
320,192,47449,1,0,0:0:0:0:
64,192,47603,1,0,0:0:0:0:
64,192,47757,1,0,0:0:0:0:
320,192,47757,1,0,0:0:0:0:
64,192,47911,1,0,0:0:0:0:
192,192,48065,1,0,0:0:0:0:
448,192,48065,1,0,0:0:0:0:
448,192,48218,1,0,0:0:0:0:
192,192,48372,1,0,0:0:0:0:
448,192,48372,1,0,0:0:0:0:
448,192,48526,1,0,0:0:0:0:
448,192,48680,1,0,0:0:0:0:
192,192,48680,1,0,0:0:0:0:
320,192,48834,1,0,0:0:0:0:
192,192,48834,1,0,0:0:0:0:
64,192,48834,1,0,0:0:0:0:
448,192,48988,1,0,0:0:0:0:
192,192,48988,1,0,0:0:0:0:
192,192,49141,1,0,0:0:0:0:
320,192,49141,1,0,0:0:0:0:
64,192,49141,1,0,0:0:0:0:
448,192,49295,1,0,0:0:0:0:
192,192,49295,1,0,0:0:0:0:
448,192,49449,1,0,0:0:0:0:
64,192,49603,1,0,0:0:0:0:
320,192,49603,1,0,0:0:0:0:
64,192,49757,1,0,0:0:0:0:
192,192,49911,1,0,0:0:0:0:
448,192,49911,1,0,0:0:0:0:
448,192,50065,1,0,0:0:0:0:
320,192,50218,1,0,0:0:0:0:
64,192,50218,1,0,0:0:0:0:
64,192,50372,1,0,0:0:0:0:
448,192,50526,1,0,0:0:0:0:
320,192,50526,1,0,0:0:0:0:
320,192,50680,1,0,0:0:0:0:
192,192,50680,1,0,0:0:0:0:
192,192,50834,1,0,0:0:0:0:
64,192,50834,1,0,0:0:0:0:
320,192,50911,1,0,0:0:0:0:
448,192,50988,1,0,0:0:0:0:
320,192,51065,1,0,0:0:0:0:
192,192,51141,1,0,0:0:0:0:
64,192,51141,1,0,0:0:0:0:
448,192,51218,1,0,0:0:0:0:
192,192,51295,1,0,0:0:0:0:
320,192,51295,1,0,0:0:0:0:
64,192,51372,1,0,0:0:0:0:
320,192,51449,1,0,0:0:0:0:
448,192,51449,1,0,0:0:0:0:
64,192,51526,1,0,0:0:0:0:
192,192,51603,1,0,0:0:0:0:
320,192,51603,1,0,0:0:0:0:
64,192,51680,1,0,0:0:0:0:
448,192,51757,1,0,0:0:0:0:
320,192,51757,1,0,0:0:0:0:
192,192,51757,1,0,0:0:0:0:
64,192,51911,1,0,0:0:0:0:
320,192,51911,1,0,0:0:0:0:
192,192,52065,1,0,0:0:0:0:
448,192,52065,1,0,0:0:0:0:
320,192,52065,1,0,0:0:0:0:
320,192,52218,1,0,0:0:0:0:
64,192,52218,1,0,0:0:0:0:
192,192,52372,1,0,0:0:0:0:
320,192,52372,1,0,0:0:0:0:
448,192,52372,1,0,0:0:0:0:
320,192,52526,1,0,0:0:0:0:
64,192,52526,1,0,0:0:0:0:
448,192,52680,1,0,0:0:0:0:
192,192,52680,1,0,0:0:0:0:
64,192,52834,1,0,0:0:0:0:
320,192,52834,1,0,0:0:0:0:
192,192,52834,1,0,0:0:0:0:
192,192,52988,1,0,0:0:0:0:
448,192,52988,1,0,0:0:0:0:
320,192,53141,1,0,0:0:0:0:
64,192,53141,1,0,0:0:0:0:
448,192,53295,1,0,0:0:0:0:
192,192,53295,1,0,0:0:0:0:
320,192,53295,1,0,0:0:0:0:
320,192,53449,1,0,0:0:0:0:
64,192,53449,1,0,0:0:0:0:
192,192,53603,1,0,0:0:0:0:
64,192,53757,1,0,0:0:0:0:
448,192,53757,1,0,0:0:0:0:
320,192,53757,1,0,0:0:0:0:
192,192,53911,1,0,0:0:0:0:
448,192,54065,1,0,0:0:0:0:
320,192,54218,1,0,0:0:0:0:
64,192,54218,1,0,0:0:0:0:
192,192,54218,1,0,0:0:0:0:
448,192,54295,1,0,0:0:0:0:
64,192,54372,1,0,0:0:0:0:
320,192,54372,1,0,0:0:0:0:
192,192,54449,1,0,0:0:0:0:
64,192,54526,1,0,0:0:0:0:
320,192,54526,1,0,0:0:0:0:
448,192,54603,1,0,0:0:0:0:
64,192,54680,1,0,0:0:0:0:
320,192,54680,1,0,0:0:0:0:
192,192,54757,1,0,0:0:0:0:
448,192,54757,1,0,0:0:0:0:
448,192,54834,1,0,0:0:0:0:
320,192,54834,1,0,0:0:0:0:
64,192,54834,1,0,0:0:0:0:
192,192,54911,1,0,0:0:0:0:
448,192,54988,1,0,0:0:0:0:
320,192,54988,1,0,0:0:0:0:
64,192,55065,1,0,0:0:0:0:
192,192,55065,1,0,0:0:0:0:
192,192,55141,1,0,0:0:0:0:
64,192,55141,1,0,0:0:0:0:
448,192,55218,1,0,0:0:0:0:
64,192,55218,1,0,0:0:0:0:
320,192,55218,1,0,0:0:0:0:
320,192,55295,1,0,0:0:0:0:
192,192,55295,1,0,0:0:0:0:
448,192,55295,1,0,0:0:0:0:
64,192,56372,1,0,0:0:0:0:
192,192,56430,1,0,0:0:0:0:
320,192,56475,1,0,0:0:0:0:
448,192,56526,1,0,0:0:0:0:
320,192,56584,1,0,0:0:0:0:
192,192,56629,1,0,0:0:0:0:
320,192,56680,1,0,0:0:0:0:
448,192,56680,1,0,0:0:0:0:
64,192,56680,1,0,0:0:0:0:
192,192,56757,1,0,0:0:0:0:
448,192,56834,1,0,0:0:0:0:
320,192,56911,1,0,0:0:0:0:
192,192,56988,1,0,0:0:0:0:
64,192,56988,1,0,0:0:0:0:
448,192,57065,1,0,0:0:0:0:
320,192,57141,1,0,0:0:0:0:
64,192,57218,1,0,0:0:0:0:
448,192,57295,1,0,0:0:0:0:
320,192,57295,1,0,0:0:0:0:
192,192,57372,1,0,0:0:0:0:
64,192,57449,1,0,0:0:0:0:
448,192,57526,1,0,0:0:0:0:
64,192,57603,1,0,0:0:0:0:
192,192,57603,1,0,0:0:0:0:
320,192,57603,1,0,0:0:0:0:
448,192,57680,1,0,0:0:0:0:
192,192,57757,1,0,0:0:0:0:
320,192,57834,1,0,0:0:0:0:
192,192,57911,1,0,0:0:0:0:
64,192,57911,1,0,0:0:0:0:
448,192,57988,1,0,0:0:0:0:
320,192,58065,1,0,0:0:0:0:
64,192,58141,1,0,0:0:0:0:
320,192,58218,1,0,0:0:0:0:
192,192,58218,1,0,0:0:0:0:
448,192,58218,1,0,0:0:0:0:
64,192,58295,1,0,0:0:0:0:
320,192,58372,1,0,0:0:0:0:
448,192,58449,1,0,0:0:0:0:
192,192,58526,1,0,0:0:0:0:
64,192,58526,1,0,0:0:0:0:
448,192,58603,1,0,0:0:0:0:
192,192,58680,1,0,0:0:0:0:
320,192,58757,1,0,0:0:0:0:
192,192,58834,1,0,0:0:0:0:
64,192,58834,1,0,0:0:0:0:
448,192,58834,1,0,0:0:0:0:
320,192,58911,1,0,0:0:0:0:
448,192,58988,1,0,0:0:0:0:
192,192,58988,1,0,0:0:0:0:
192,192,59065,1,0,0:0:0:0:
448,192,59065,1,0,0:0:0:0:
320,192,59141,1,0,0:0:0:0:
64,192,59141,1,0,0:0:0:0:
192,192,59218,1,0,0:0:0:0:
320,192,59295,1,0,0:0:0:0:
64,192,59372,1,0,0:0:0:0:
448,192,59449,1,0,0:0:0:0:
320,192,59449,1,0,0:0:0:0:
192,192,59449,1,0,0:0:0:0:
64,192,59526,1,0,0:0:0:0:
320,192,59603,1,0,0:0:0:0:
192,192,59680,1,0,0:0:0:0:
64,192,59757,1,0,0:0:0:0:
320,192,59757,1,0,0:0:0:0:
448,192,59834,1,0,0:0:0:0:
64,192,59911,1,0,0:0:0:0:
192,192,59988,1,0,0:0:0:0:
320,192,60065,1,0,0:0:0:0:
448,192,60065,1,0,0:0:0:0:
64,192,60065,1,0,0:0:0:0:
192,192,60141,1,0,0:0:0:0:
448,192,60218,1,0,0:0:0:0:
320,192,60295,1,0,0:0:0:0:
64,192,60372,1,0,0:0:0:0:
192,192,60372,1,0,0:0:0:0:
320,192,60449,1,0,0:0:0:0:
448,192,60526,1,0,0:0:0:0:
64,192,60603,1,0,0:0:0:0:
192,192,60680,1,0,0:0:0:0:
320,192,60680,1,0,0:0:0:0:
448,192,60680,1,0,0:0:0:0:
64,192,60757,1,0,0:0:0:0:
448,192,60834,1,0,0:0:0:0:
320,192,60911,1,0,0:0:0:0:
64,192,60988,1,0,0:0:0:0:
192,192,60988,1,0,0:0:0:0:
448,192,61065,1,0,0:0:0:0:
320,192,61141,1,0,0:0:0:0:
64,192,61141,1,0,0:0:0:0:
192,192,61218,1,0,0:0:0:0:
448,192,61295,1,0,0:0:0:0:
320,192,61295,1,0,0:0:0:0:
64,192,61295,1,0,0:0:0:0:
192,192,61372,1,0,0:0:0:0:
320,192,61449,1,0,0:0:0:0:
448,192,61526,1,0,0:0:0:0:
64,192,61603,1,0,0:0:0:0:
192,192,61603,1,0,0:0:0:0:
320,192,61603,1,0,0:0:0:0:
448,192,61680,1,0,0:0:0:0:
320,192,61757,1,0,0:0:0:0:
192,192,61834,1,0,0:0:0:0:
448,192,61911,1,0,0:0:0:0:
320,192,61911,1,0,0:0:0:0:
64,192,61911,1,0,0:0:0:0:
192,192,61988,1,0,0:0:0:0:
64,192,62065,1,0,0:0:0:0:
448,192,62141,1,0,0:0:0:0:
192,192,62218,1,0,0:0:0:0:
320,192,62218,1,0,0:0:0:0:
448,192,62295,1,0,0:0:0:0:
64,192,62372,1,0,0:0:0:0:
320,192,62449,1,0,0:0:0:0:
64,192,62526,1,0,0:0:0:0:
192,192,62526,1,0,0:0:0:0:
448,192,62526,1,0,0:0:0:0:
320,192,62603,1,0,0:0:0:0:
192,192,62680,1,0,0:0:0:0:
64,192,62757,1,0,0:0:0:0:
448,192,62834,1,0,0:0:0:0:
320,192,62834,1,0,0:0:0:0:
192,192,62911,1,0,0:0:0:0:
448,192,62988,1,0,0:0:0:0:
192,192,63065,1,0,0:0:0:0:
320,192,63141,1,0,0:0:0:0:
448,192,63141,1,0,0:0:0:0:
64,192,63141,1,0,0:0:0:0:
192,192,63218,1,0,0:0:0:0:
320,192,63295,1,0,0:0:0:0:
448,192,63372,1,0,0:0:0:0:
64,192,63449,1,0,0:0:0:0:
320,192,63449,1,0,0:0:0:0:
192,192,63500,1,0,0:0:0:0:
448,192,63552,1,0,0:0:0:0:
320,192,63603,1,0,0:0:0:0:
64,192,63654,1,0,0:0:0:0:
192,192,63706,1,0,0:0:0:0:
320,192,63757,1,0,0:0:0:0:
448,192,63757,1,0,0:0:0:0:
320,192,63911,1,0,0:0:0:0:
64,192,63911,1,0,0:0:0:0:
192,192,63911,1,0,0:0:0:0:
64,192,64218,1,0,0:0:0:0:
320,192,64218,1,0,0:0:0:0:
448,192,64372,1,0,0:0:0:0:
192,192,64372,1,0,0:0:0:0:
320,192,64372,1,0,0:0:0:0:
320,192,64526,1,0,0:0:0:0:
64,192,64526,1,0,0:0:0:0:
320,192,64680,1,0,0:0:0:0:
448,192,64680,1,0,0:0:0:0:
192,192,64680,1,0,0:0:0:0:
64,192,64834,1,0,0:0:0:0:
448,192,64988,1,0,0:0:0:0:
320,192,64988,1,0,0:0:0:0:
320,192,65141,1,0,0:0:0:0:
192,192,65141,1,0,0:0:0:0:
64,192,65295,1,0,0:0:0:0:
448,192,65295,1,0,0:0:0:0:
192,192,65295,1,0,0:0:0:0:
320,192,65449,1,0,0:0:0:0:
192,192,65449,1,0,0:0:0:0:
64,192,65603,1,0,0:0:0:0:
192,192,65603,1,0,0:0:0:0:
448,192,65603,1,0,0:0:0:0:
320,192,65757,1,0,0:0:0:0:
448,192,65911,1,0,0:0:0:0:
192,192,65911,1,0,0:0:0:0:
64,192,65911,1,0,0:0:0:0:
320,192,65988,1,0,0:0:0:0:
64,192,66065,1,0,0:0:0:0:
192,192,66065,1,0,0:0:0:0:
448,192,66141,1,0,0:0:0:0:
320,192,66141,1,0,0:0:0:0:
192,192,66218,1,0,0:0:0:0:
64,192,66218,1,0,0:0:0:0:
448,192,66218,1,0,0:0:0:0:
448,192,66372,1,0,0:0:0:0:
320,192,66372,1,0,0:0:0:0:
192,192,66449,1,0,0:0:0:0:
64,192,66449,1,0,0:0:0:0:
320,192,66526,1,0,0:0:0:0:
64,192,66526,1,0,0:0:0:0:
448,192,66526,1,0,0:0:0:0:
192,192,66603,1,0,0:0:0:0:
448,192,66680,1,0,0:0:0:0:
320,192,66757,1,0,0:0:0:0:
192,192,66834,1,0,0:0:0:0:
64,192,66834,1,0,0:0:0:0:
320,192,66911,1,0,0:0:0:0:
64,192,66988,1,0,0:0:0:0:
320,192,67065,1,0,0:0:0:0:
448,192,67141,1,0,0:0:0:0:
192,192,67141,1,0,0:0:0:0:
64,192,67218,1,0,0:0:0:0:
192,192,67295,1,0,0:0:0:0:
320,192,67372,1,0,0:0:0:0:
448,192,67449,1,0,0:0:0:0:
192,192,67449,1,0,0:0:0:0:
64,192,67449,1,0,0:0:0:0:
320,192,67526,1,0,0:0:0:0:
64,192,67603,1,0,0:0:0:0:
192,192,67680,1,0,0:0:0:0:
320,192,67757,1,0,0:0:0:0:
448,192,67757,1,0,0:0:0:0:
192,192,67834,1,0,0:0:0:0:
448,192,67911,1,0,0:0:0:0:
64,192,67988,1,0,0:0:0:0:
192,192,68065,1,0,0:0:0:0:
320,192,68065,1,0,0:0:0:0:
448,192,68065,1,0,0:0:0:0:
64,192,68141,1,0,0:0:0:0:
320,192,68218,1,0,0:0:0:0:
192,192,68295,1,0,0:0:0:0:
448,192,68372,1,0,0:0:0:0:
320,192,68372,1,0,0:0:0:0:
64,192,68449,1,0,0:0:0:0:
192,192,68526,1,0,0:0:0:0:
320,192,68603,1,0,0:0:0:0:
192,192,68680,1,0,0:0:0:0:
64,192,68680,1,0,0:0:0:0:
448,192,68680,1,0,0:0:0:0:
320,192,68757,1,0,0:0:0:0:
448,192,68834,1,0,0:0:0:0:
192,192,68834,1,0,0:0:0:0:
192,192,68911,1,0,0:0:0:0:
448,192,68911,1,0,0:0:0:0:
64,192,68988,1,0,0:0:0:0:
320,192,68988,1,0,0:0:0:0:
192,192,69065,1,0,0:0:0:0:
320,192,69141,1,0,0:0:0:0:
448,192,69218,1,0,0:0:0:0:
320,192,69295,1,0,0:0:0:0:
64,192,69295,1,0,0:0:0:0:
192,192,69295,1,0,0:0:0:0:
448,192,69372,1,0,0:0:0:0:
192,192,69449,1,0,0:0:0:0:
320,192,69526,1,0,0:0:0:0:
64,192,69603,1,0,0:0:0:0:
448,192,69603,1,0,0:0:0:0:
192,192,69680,1,0,0:0:0:0:
64,192,69757,1,0,0:0:0:0:
320,192,69834,1,0,0:0:0:0:
448,192,69911,1,0,0:0:0:0:
192,192,69911,1,0,0:0:0:0:
64,192,69911,1,0,0:0:0:0:
320,192,69988,1,0,0:0:0:0:
64,192,70065,1,0,0:0:0:0:
320,192,70141,1,0,0:0:0:0:
192,192,70218,1,0,0:0:0:0:
448,192,70218,1,0,0:0:0:0:
64,192,70295,1,0,0:0:0:0:
192,192,70372,1,0,0:0:0:0:
320,192,70449,1,0,0:0:0:0:
64,192,70526,1,0,0:0:0:0:
448,192,70526,1,0,0:0:0:0:
192,192,70526,1,0,0:0:0:0:
320,192,70603,1,0,0:0:0:0:
192,192,70680,1,0,0:0:0:0:
64,192,70757,1,0,0:0:0:0:
320,192,70834,1,0,0:0:0:0:
448,192,70834,1,0,0:0:0:0:
192,192,70911,1,0,0:0:0:0:
320,192,70988,1,0,0:0:0:0:
64,192,70988,1,0,0:0:0:0:
320,192,71065,1,0,0:0:0:0:
64,192,71065,1,0,0:0:0:0:
448,192,71141,1,0,0:0:0:0:
192,192,71141,1,0,0:0:0:0:
320,192,71218,1,0,0:0:0:0:
64,192,71295,1,0,0:0:0:0:
192,192,71295,1,0,0:0:0:0:
192,192,71372,1,0,0:0:0:0:
64,192,71372,1,0,0:0:0:0:
448,192,71449,1,0,0:0:0:0:
320,192,71449,1,0,0:0:0:0:
64,192,71603,1,0,0:0:0:0:
192,192,71757,1,0,0:0:0:0:
448,192,71757,1,0,0:0:0:0:
320,192,71757,1,0,0:0:0:0:
64,192,71911,1,0,0:0:0:0:
192,192,72065,1,0,0:0:0:0:
448,192,72065,1,0,0:0:0:0:
320,192,72218,1,0,0:0:0:0:
64,192,72372,1,0,0:0:0:0:
192,192,72372,1,0,0:0:0:0:
448,192,72372,1,0,0:0:0:0:
320,192,72526,1,0,0:0:0:0:
64,192,72680,1,0,0:0:0:0:
448,192,72680,1,0,0:0:0:0:
192,192,72834,1,0,0:0:0:0:
448,192,72988,1,0,0:0:0:0:
320,192,72988,1,0,0:0:0:0:
64,192,72988,1,0,0:0:0:0:
192,192,73141,1,0,0:0:0:0:
64,192,73295,1,0,0:0:0:0:
320,192,73295,1,0,0:0:0:0:
192,192,73449,1,0,0:0:0:0:
448,192,73449,1,0,0:0:0:0:
192,192,73526,1,0,0:0:0:0:
448,192,73526,1,0,0:0:0:0:
320,192,73603,1,0,0:0:0:0:
64,192,73603,1,0,0:0:0:0:
64,192,73757,1,0,0:0:0:0:
192,192,73757,1,0,0:0:0:0:
448,192,73757,1,0,0:0:0:0:
448,192,73911,1,0,0:0:0:0:
192,192,74065,1,0,0:0:0:0:
320,192,74065,1,0,0:0:0:0:
320,192,74218,1,0,0:0:0:0:
64,192,74218,1,0,0:0:0:0:
448,192,74218,1,0,0:0:0:0:
192,192,74372,1,0,0:0:0:0:
320,192,74372,1,0,0:0:0:0:
320,192,74526,1,0,0:0:0:0:
448,192,74526,1,0,0:0:0:0:
64,192,74526,1,0,0:0:0:0:
448,192,74834,1,0,0:0:0:0:
192,192,74834,1,0,0:0:0:0:
192,192,74988,1,0,0:0:0:0:
320,192,74988,1,0,0:0:0:0:
64,192,74988,1,0,0:0:0:0:
448,192,75141,1,0,0:0:0:0:
64,192,75141,1,0,0:0:0:0:
320,192,75295,1,0,0:0:0:0:
192,192,75295,1,0,0:0:0:0:
448,192,75449,1,0,0:0:0:0:
192,192,75449,1,0,0:0:0:0:
64,192,75449,1,0,0:0:0:0:
64,192,75757,1,0,0:0:0:0:
448,192,75757,1,0,0:0:0:0:
320,192,75757,1,0,0:0:0:0:
320,192,75911,1,0,0:0:0:0:
192,192,75911,1,0,0:0:0:0:
192,192,75988,1,0,0:0:0:0:
320,192,75988,1,0,0:0:0:0:
64,192,76065,1,0,0:0:0:0:
448,192,76065,1,0,0:0:0:0:
448,192,76218,1,0,0:0:0:0:
192,192,76218,1,0,0:0:0:0:
320,192,76218,128,0,76680:0:0:0:0:
64,192,76526,1,0,0:0:0:0:
448,192,76680,1,0,0:0:0:0:
192,192,76680,1,0,0:0:0:0:
64,192,76988,1,0,0:0:0:0:
320,192,76988,1,0,0:0:0:0:
448,192,77141,1,0,0:0:0:0:
192,192,77141,1,0,0:0:0:0:
320,192,77295,1,0,0:0:0:0:
192,192,77295,1,0,0:0:0:0:
64,192,77295,1,0,0:0:0:0:
192,192,77603,1,0,0:0:0:0:
64,192,77603,1,0,0:0:0:0:
448,192,77911,1,0,0:0:0:0:
320,192,77911,1,0,0:0:0:0:
192,192,77911,1,0,0:0:0:0:
320,192,78218,1,0,0:0:0:0:
64,192,78218,1,0,0:0:0:0:
64,192,78372,1,0,0:0:0:0:
320,192,78372,1,0,0:0:0:0:
192,192,78526,1,0,0:0:0:0:
320,192,78526,1,0,0:0:0:0:
448,192,78526,1,0,0:0:0:0:
448,192,78680,1,0,0:0:0:0:
320,192,78757,1,0,0:0:0:0:
192,192,78834,1,0,0:0:0:0:
64,192,78834,1,0,0:0:0:0:
448,192,78834,1,0,0:0:0:0:
448,192,79141,1,0,0:0:0:0:
320,192,79141,1,0,0:0:0:0:
192,192,79141,1,0,0:0:0:0:
192,192,79295,1,0,0:0:0:0:
64,192,79295,1,0,0:0:0:0:
320,192,79295,1,0,0:0:0:0:
320,192,79449,1,0,0:0:0:0:
448,192,79449,1,0,0:0:0:0:
192,192,79449,1,0,0:0:0:0:
192,192,79603,1,0,0:0:0:0:
64,192,79603,1,0,0:0:0:0:
320,192,79603,1,0,0:0:0:0:
320,192,79757,1,0,0:0:0:0:
448,192,79757,1,0,0:0:0:0:
192,192,79757,1,0,0:0:0:0:
192,192,79911,1,0,0:0:0:0:
64,192,79911,1,0,0:0:0:0:
448,192,80065,1,0,0:0:0:0:
320,192,80218,1,0,0:0:0:0:
192,192,80372,1,0,0:0:0:0:
448,192,80526,1,0,0:0:0:0:
320,192,80680,1,0,0:0:0:0:
192,192,80834,1,0,0:0:0:0:
320,192,80988,1,0,0:0:0:0:
192,192,81141,1,0,0:0:0:0:
64,192,81141,1,0,0:0:0:0:
448,192,81141,128,0,81603:0:0:0:0:
192,192,81449,1,0,0:0:0:0:
64,192,81603,1,0,0:0:0:0:
320,192,81603,1,0,0:0:0:0:
320,192,81911,1,0,0:0:0:0:
192,192,81911,1,0,0:0:0:0:
192,192,82065,1,0,0:0:0:0:
64,192,82218,1,0,0:0:0:0:
448,192,82218,1,0,0:0:0:0:
320,192,82218,1,0,0:0:0:0:
320,192,82526,1,0,0:0:0:0:
64,192,82526,1,0,0:0:0:0:
448,192,82680,1,0,0:0:0:0:
192,192,82680,1,0,0:0:0:0:
320,192,82834,1,0,0:0:0:0:
64,192,82834,1,0,0:0:0:0:
448,192,82834,1,0,0:0:0:0:
192,192,82988,1,0,0:0:0:0:
64,192,83141,1,0,0:0:0:0:
320,192,83141,1,0,0:0:0:0:
64,192,83295,1,0,0:0:0:0:
320,192,83295,1,0,0:0:0:0:
448,192,83449,1,0,0:0:0:0:
320,192,83449,1,0,0:0:0:0:
192,192,83449,1,0,0:0:0:0:
192,192,83603,1,0,0:0:0:0:
64,192,83603,128,0,83911:0:0:0:0:
320,192,83911,1,0,0:0:0:0:
192,192,84065,1,0,0:0:0:0:
64,192,84065,1,0,0:0:0:0:
448,192,84065,1,0,0:0:0:0:
192,192,84372,1,0,0:0:0:0:
448,192,84372,1,0,0:0:0:0:
64,192,84526,1,0,0:0:0:0:
320,192,84526,1,0,0:0:0:0:
192,192,84680,1,0,0:0:0:0:
448,192,84680,1,0,0:0:0:0:
320,192,84680,1,0,0:0:0:0:
448,192,84988,1,0,0:0:0:0:
64,192,84988,1,0,0:0:0:0:
320,192,85141,1,0,0:0:0:0:
64,192,85141,1,0,0:0:0:0:
320,192,85295,1,0,0:0:0:0:
448,192,85295,1,0,0:0:0:0:
192,192,85295,1,0,0:0:0:0:
64,192,85449,1,0,0:0:0:0:
448,192,85603,1,0,0:0:0:0:
320,192,85757,1,0,0:0:0:0:
192,192,85757,1,0,0:0:0:0:
448,192,85911,1,0,0:0:0:0:
64,192,85911,1,0,0:0:0:0:
192,192,85911,1,0,0:0:0:0:
448,192,86065,1,0,0:0:0:0:
64,192,86065,1,0,0:0:0:0:
320,192,86065,128,0,86372:0:0:0:0:
192,192,86372,1,0,0:0:0:0:
64,192,86372,1,0,0:0:0:0:
192,192,86526,1,0,0:0:0:0:
448,192,86526,1,0,0:0:0:0:
320,192,86526,1,0,0:0:0:0:
64,192,86680,1,0,0:0:0:0:
192,192,86834,1,0,0:0:0:0:
448,192,86834,1,0,0:0:0:0:
448,192,86988,1,0,0:0:0:0:
64,192,87141,1,0,0:0:0:0:
192,192,87141,1,0,0:0:0:0:
320,192,87141,1,0,0:0:0:0:
448,192,87295,1,0,0:0:0:0:
320,192,87372,1,0,0:0:0:0:
192,192,87449,1,0,0:0:0:0:
64,192,87449,1,0,0:0:0:0:
64,192,87603,1,0,0:0:0:0:
320,192,87603,1,0,0:0:0:0:
192,192,87757,1,0,0:0:0:0:
320,192,87757,1,0,0:0:0:0:
448,192,87757,1,0,0:0:0:0:
64,192,87911,1,0,0:0:0:0:
448,192,88065,1,0,0:0:0:0:
192,192,88065,1,0,0:0:0:0:
320,192,88218,1,0,0:0:0:0:
64,192,88218,1,0,0:0:0:0:
192,192,88372,1,0,0:0:0:0:
64,192,88372,1,0,0:0:0:0:
448,192,88372,1,0,0:0:0:0:
320,192,88526,1,0,0:0:0:0:
192,192,88603,1,0,0:0:0:0:
64,192,88680,1,0,0:0:0:0:
448,192,88680,1,0,0:0:0:0:
320,192,88680,1,0,0:0:0:0:
192,192,88834,1,0,0:0:0:0:
320,192,88834,1,0,0:0:0:0:
320,192,88988,1,0,0:0:0:0:
448,192,88988,1,0,0:0:0:0:
64,192,88988,1,0,0:0:0:0:
320,192,89141,1,0,0:0:0:0:
192,192,89141,1,0,0:0:0:0:
448,192,89295,1,0,0:0:0:0:
320,192,89295,1,0,0:0:0:0:
64,192,89295,1,0,0:0:0:0:
192,192,89449,1,0,0:0:0:0:
320,192,89449,1,0,0:0:0:0:
64,192,89603,1,0,0:0:0:0:
448,192,89603,1,0,0:0:0:0:
192,192,89603,1,0,0:0:0:0:
320,192,89603,1,0,0:0:0:0:
320,192,89757,1,0,0:0:0:0:
192,192,89834,1,0,0:0:0:0:
320,192,89911,1,0,0:0:0:0:
64,192,89911,1,0,0:0:0:0:
320,192,89988,1,0,0:0:0:0:
64,192,89988,1,0,0:0:0:0:
192,192,90065,1,0,0:0:0:0:
448,192,90065,1,0,0:0:0:0:
320,192,90141,1,0,0:0:0:0:
64,192,90218,1,0,0:0:0:0:
192,192,90218,1,0,0:0:0:0:
320,192,90295,1,0,0:0:0:0:
448,192,90295,1,0,0:0:0:0:
192,192,90372,1,0,0:0:0:0:
64,192,90372,1,0,0:0:0:0:
320,192,90449,1,0,0:0:0:0:
448,192,90526,1,0,0:0:0:0:
64,192,90526,1,0,0:0:0:0:
192,192,90526,1,0,0:0:0:0:
320,192,90603,1,0,0:0:0:0:
64,192,90680,1,0,0:0:0:0:
192,192,90680,1,0,0:0:0:0:
448,192,90680,1,0,0:0:0:0:
