osu file format v14

[General]
AudioFilename: miiro.mp3
AudioLeadIn: 2000
PreviewTime: 129449
Countdown: 0
SampleSet: Soft
StackLeniency: 0.7
Mode: 3
LetterboxInBreaks: 0
SpecialStyle: 0
WidescreenStoryboard: 1

[Editor]
Bookmarks: 184680,194526,216680
DistanceSpacing: 2
BeatDivisor: 4
GridSize: 8
TimelineZoom: 2.4

[Metadata]
Title:MIIRO
TitleUnicode:海色
Artist:AKINO from bless4
ArtistUnicode:AKINO from bless4
Creator:[FX] AEM
Version:Melancholy Tragedy
Source:
Tags:
BeatmapID:638715
BeatmapSetID:282455

[Difficulty]
HPDrainRate:7
CircleSize:4
OverallDifficulty:7
ApproachRate:0
SliderMultiplier:3
SliderTickRate:1

[Events]
//Background and Video events
0,0,"joseptlee.jpg",0,0
//Break Periods
//Storyboard Layer 0 (Background)
//Storyboard Layer 1 (Fail)
//Storyboard Layer 2 (Pass)
//Storyboard Layer 3 (Foreground)
//Storyboard Sound Samples

[TimingPoints]
65,307.692307692308,4,2,0,30,1,0
56680,-100,4,2,0,30,0,1
76218,-100,4,2,0,30,0,0
130526,-100,4,2,0,30,0,1
150065,-100,4,2,0,30,0,0
163911,-66.6666666666667,4,2,0,30,0,0
163949,-133.333333333333,4,2,0,30,0,0
163988,-66.6666666666667,4,2,0,30,0,0
164026,-133.333333333333,4,2,0,30,0,0
164065,-66.6666666666667,4,2,0,30,0,0
164141,-100,4,2,0,30,0,0
164218,-66.6666666666667,4,2,0,30,0,0
164295,-100,4,2,0,30,0,0
164372,-66.6666666666667,4,2,0,30,0,0
164449,-100,4,2,0,30,0,0
164526,-66.6666666666667,4,2,0,30,0,0
164603,-100,4,2,0,30,0,0
164680,-66.6666666666667,4,2,0,30,0,0
164757,-100,4,2,0,30,0,0
164834,-50,4,2,0,30,0,0
164911,-133.333333333333,4,2,0,30,0,0
164988,-100,4,2,0,30,0,0
216680,-100,4,2,0,30,0,1
240065,-100,4,2,0,30,0,0

[HitObjects]
64,192,1141,5,0,0:0:0:0:
192,192,1193,1,0,0:0:0:0:
320,192,1244,1,0,0:0:0:0:
448,192,1295,5,0,0:0:0:0:
64,192,1295,128,0,2372:0:0:0:0:
448,192,2372,1,0,0:0:0:0:
320,192,2526,1,0,0:0:0:0:
192,192,2680,1,0,0:0:0:0:
64,192,2834,1,0,0:0:0:0:
448,192,2988,128,0,3141:0:0:0:0:
320,192,3141,128,0,3295:0:0:0:0:
192,192,3295,128,0,3449:0:0:0:0:
64,192,3449,128,0,3603:0:0:0:0:
320,192,3603,128,0,3757:0:0:0:0:
448,192,3757,128,0,4988:0:0:0:0:
64,192,3757,1,0,0:0:0:0:
192,192,3757,1,0,0:0:0:0:
64,192,4988,1,0,0:0:0:0:
192,192,4988,1,0,0:0:0:0:
192,192,5141,1,0,0:0:0:0:
320,192,5141,1,0,0:0:0:0:
448,192,5295,1,0,0:0:0:0:
64,192,5449,1,0,0:0:0:0:
192,192,5449,1,0,0:0:0:0:
192,192,5603,1,0,0:0:0:0:
320,192,5603,1,0,0:0:0:0:
448,192,5757,1,0,0:0:0:0:
64,192,5911,1,0,0:0:0:0:
192,192,5911,1,0,0:0:0:0:
192,192,6065,1,0,0:0:0:0:
320,192,6065,1,0,0:0:0:0:
448,192,6218,1,0,0:0:0:0:
64,192,6372,1,0,0:0:0:0:
192,192,6372,1,0,0:0:0:0:
192,192,6526,1,0,0:0:0:0:
320,192,6526,1,0,0:0:0:0:
448,192,6680,1,0,0:0:0:0:
64,192,7295,128,0,7603:0:0:0:0:
192,192,7295,1,0,0:0:0:0:
320,192,7295,128,0,7603:0:0:0:0:
448,192,7295,1,0,0:0:0:0:
192,192,7603,1,0,0:0:0:0:
448,192,7603,1,0,0:0:0:0:
320,192,7757,1,0,0:0:0:0:
64,192,7757,1,0,0:0:0:0:
192,192,7757,1,0,0:0:0:0:
64,192,8065,1,0,0:0:0:0:
320,192,8065,1,0,0:0:0:0:
64,192,8218,1,0,0:0:0:0:
320,192,8218,1,0,0:0:0:0:
192,192,8372,1,0,0:0:0:0:
320,192,8372,1,0,0:0:0:0:
448,192,8372,1,0,0:0:0:0:
192,192,8680,1,0,0:0:0:0:
448,192,8680,1,0,0:0:0:0:
448,192,8834,1,0,0:0:0:0:
192,192,8834,1,0,0:0:0:0:
320,192,8988,1,0,0:0:0:0:
64,192,8988,1,0,0:0:0:0:
192,192,8988,1,0,0:0:0:0:
448,192,9141,1,0,0:0:0:0:
64,192,9295,1,0,0:0:0:0:
192,192,9449,1,0,0:0:0:0:
448,192,9449,1,0,0:0:0:0:
64,192,9603,1,0,0:0:0:0:
320,192,9603,1,0,0:0:0:0:
448,192,9757,1,0,0:0:0:0:
192,192,9757,1,0,0:0:0:0:
320,192,9757,128,0,10218:0:0:0:0:
64,192,10065,1,0,0:0:0:0:
192,192,10218,1,0,0:0:0:0:
448,192,10218,1,0,0:0:0:0:
192,192,10526,1,0,0:0:0:0:
320,192,10526,1,0,0:0:0:0:
192,192,10680,1,0,0:0:0:0:
64,192,10834,1,0,0:0:0:0:
448,192,10834,1,0,0:0:0:0:
320,192,10834,1,0,0:0:0:0:
320,192,11141,1,0,0:0:0:0:
192,192,11141,1,0,0:0:0:0:
320,192,11295,1,0,0:0:0:0:
448,192,11449,1,0,0:0:0:0:
64,192,11449,1,0,0:0:0:0:
192,192,11449,1,0,0:0:0:0:
320,192,11603,1,0,0:0:0:0:
448,192,11911,1,0,0:0:0:0:
320,192,11911,1,0,0:0:0:0:
64,192,12065,1,0,0:0:0:0:
192,192,12065,1,0,0:0:0:0:
192,192,12218,1,0,0:0:0:0:
320,192,12218,1,0,0:0:0:0:
448,192,12218,128,0,12680:0:0:0:0:
320,192,12526,1,0,0:0:0:0:
192,192,12680,1,0,0:0:0:0:
64,192,12680,1,0,0:0:0:0:
64,192,12988,1,0,0:0:0:0:
448,192,12988,1,0,0:0:0:0:
320,192,13141,1,0,0:0:0:0:
192,192,13141,1,0,0:0:0:0:
448,192,13295,1,0,0:0:0:0:
192,192,13295,1,0,0:0:0:0:
64,192,13295,1,0,0:0:0:0:
320,192,13449,1,0,0:0:0:0:
192,192,13603,1,0,0:0:0:0:
64,192,13603,1,0,0:0:0:0:
64,192,13757,1,0,0:0:0:0:
320,192,13757,1,0,0:0:0:0:
320,192,13911,1,0,0:0:0:0:
448,192,13911,1,0,0:0:0:0:
192,192,13911,1,0,0:0:0:0:
64,192,14065,1,0,0:0:0:0:
448,192,14218,1,0,0:0:0:0:
192,192,14218,1,0,0:0:0:0:
192,192,14372,1,0,0:0:0:0:
64,192,14372,1,0,0:0:0:0:
320,192,14526,1,0,0:0:0:0:
64,192,14526,1,0,0:0:0:0:
448,192,14526,1,0,0:0:0:0:
320,192,14680,1,0,0:0:0:0:
192,192,14757,1,0,0:0:0:0:
448,192,14834,1,0,0:0:0:0:
64,192,14834,1,0,0:0:0:0:
320,192,14834,1,0,0:0:0:0:
192,192,14988,1,0,0:0:0:0:
320,192,14988,1,0,0:0:0:0:
448,192,15141,1,0,0:0:0:0:
64,192,15141,1,0,0:0:0:0:
320,192,15141,1,0,0:0:0:0:
320,192,15295,1,0,0:0:0:0:
192,192,15295,1,0,0:0:0:0:
64,192,15449,1,0,0:0:0:0:
320,192,15449,1,0,0:0:0:0:
448,192,15449,1,0,0:0:0:0:
320,192,15603,1,0,0:0:0:0:
448,192,15603,1,0,0:0:0:0:
64,192,15603,1,0,0:0:0:0:
192,192,15757,1,0,0:0:0:0:
320,192,15757,1,0,0:0:0:0:
64,192,15911,1,0,0:0:0:0:
320,192,15911,1,0,0:0:0:0:
448,192,15911,1,0,0:0:0:0:
320,192,16065,1,0,0:0:0:0:
448,192,16065,1,0,0:0:0:0:
64,192,16065,1,0,0:0:0:0:
192,192,16218,1,0,0:0:0:0:
320,192,16372,1,0,0:0:0:0:
64,192,16372,1,0,0:0:0:0:
448,192,16372,1,0,0:0:0:0:
192,192,16449,1,0,0:0:0:0:
320,192,16526,1,0,0:0:0:0:
448,192,16603,1,0,0:0:0:0:
64,192,16680,1,0,0:0:0:0:
320,192,16680,1,0,0:0:0:0:
192,192,16680,1,0,0:0:0:0:
320,192,16834,1,0,0:0:0:0:
192,192,16834,1,0,0:0:0:0:
448,192,16834,1,0,0:0:0:0:
64,192,17295,1,0,0:0:0:0:
192,192,17295,1,0,0:0:0:0:
320,192,17449,1,0,0:0:0:0:
448,192,17603,1,0,0:0:0:0:
64,192,17757,1,0,0:0:0:0:
320,192,17757,1,0,0:0:0:0:
192,192,17911,1,0,0:0:0:0:
448,192,18065,1,0,0:0:0:0:
192,192,18218,1,0,0:0:0:0:
64,192,18218,1,0,0:0:0:0:
448,192,18372,1,0,0:0:0:0:
64,192,18526,1,0,0:0:0:0:
320,192,18526,1,0,0:0:0:0:
192,192,18680,1,0,0:0:0:0:
320,192,18834,1,0,0:0:0:0:
448,192,18988,1,0,0:0:0:0:
64,192,18988,1,0,0:0:0:0:
320,192,19141,1,0,0:0:0:0:
192,192,19295,1,0,0:0:0:0:
448,192,19449,1,0,0:0:0:0:
320,192,19449,1,0,0:0:0:0:
448,192,19603,1,0,0:0:0:0:
192,192,19757,1,0,0:0:0:0:
64,192,19757,1,0,0:0:0:0:
320,192,19911,1,0,0:0:0:0:
64,192,20065,1,0,0:0:0:0:
192,192,20218,1,0,0:0:0:0:
448,192,20218,1,0,0:0:0:0:
64,192,20372,1,0,0:0:0:0:
320,192,20526,1,0,0:0:0:0:
192,192,20680,1,0,0:0:0:0:
64,192,20680,1,0,0:0:0:0:
448,192,20834,1,0,0:0:0:0:
320,192,20988,1,0,0:0:0:0:
64,192,20988,1,0,0:0:0:0:
192,192,21141,1,0,0:0:0:0:
64,192,21295,1,0,0:0:0:0:
320,192,21449,1,0,0:0:0:0:
192,192,21449,1,0,0:0:0:0:
448,192,21603,1,0,0:0:0:0:
192,192,21757,1,0,0:0:0:0:
320,192,21911,1,0,0:0:0:0:
64,192,22065,1,0,0:0:0:0:
192,192,22218,1,0,0:0:0:0:
448,192,22218,1,0,0:0:0:0:
320,192,22372,1,0,0:0:0:0:
64,192,22526,1,0,0:0:0:0:
192,192,22680,1,0,0:0:0:0:
320,192,22680,1,0,0:0:0:0:
448,192,22834,1,0,0:0:0:0:
320,192,22988,1,0,0:0:0:0:
64,192,23141,1,0,0:0:0:0:
192,192,23141,1,0,0:0:0:0:
448,192,23295,1,0,0:0:0:0:
64,192,23449,1,0,0:0:0:0:
320,192,23449,1,0,0:0:0:0:
192,192,23603,1,0,0:0:0:0:
320,192,23757,1,0,0:0:0:0:
192,192,23911,1,0,0:0:0:0:
448,192,23911,1,0,0:0:0:0:
64,192,24065,1,0,0:0:0:0:
320,192,24218,1,0,0:0:0:0:
448,192,24372,1,0,0:0:0:0:
192,192,24526,1,0,0:0:0:0:
448,192,24680,1,0,0:0:0:0:
64,192,24680,1,0,0:0:0:0:
64,192,24834,1,0,0:0:0:0:
64,192,24988,1,0,0:0:0:0:
64,192,25141,1,0,0:0:0:0:
64,192,25295,1,0,0:0:0:0:
64,192,25449,1,0,0:0:0:0:
64,192,25603,1,0,0:0:0:0:
64,192,25757,1,0,0:0:0:0:
320,192,25911,128,0,26013:0:0:0:0:
192,192,25911,128,0,26013:0:0:0:0:
448,192,25911,128,0,26013:0:0:0:0:
192,192,26122,128,0,26218:0:0:0:0:
320,192,26122,128,0,26218:0:0:0:0:
192,192,26321,128,0,26430:0:0:0:0:
320,192,26321,128,0,26430:0:0:0:0:
448,192,26321,128,0,26430:0:0:0:0:
64,192,26526,128,0,26629:0:0:0:0:
192,192,26526,128,0,26629:0:0:0:0:
320,192,26526,128,0,26629:0:0:0:0:
192,192,26738,128,0,26834:0:0:0:0:
64,192,26738,128,0,26834:0:0:0:0:
192,192,26949,128,0,27045:0:0:0:0:
64,192,26949,128,0,27045:0:0:0:0:
320,192,26949,128,0,27045:0:0:0:0:
448,192,27141,1,0,0:0:0:0:
320,192,27141,1,0,0:0:0:0:
64,192,27141,128,0,27449:0:0:0:0:
192,192,27141,1,0,0:0:0:0:
320,192,27449,1,0,0:0:0:0:
448,192,27449,1,0,0:0:0:0:
192,192,27449,1,0,0:0:0:0:
64,192,27757,1,0,0:0:0:0:
320,192,27757,1,0,0:0:0:0:
448,192,27911,1,0,0:0:0:0:
192,192,27911,1,0,0:0:0:0:
320,192,28065,1,0,0:0:0:0:
192,192,28065,1,0,0:0:0:0:
64,192,28065,1,0,0:0:0:0:
192,192,28218,1,0,0:0:0:0:
448,192,28218,1,0,0:0:0:0:
192,192,28526,1,0,0:0:0:0:
448,192,28526,1,0,0:0:0:0:
64,192,28680,1,0,0:0:0:0:
320,192,28680,1,0,0:0:0:0:
192,192,28680,1,0,0:0:0:0:
320,192,28988,1,0,0:0:0:0:
64,192,28988,1,0,0:0:0:0:
448,192,29141,1,0,0:0:0:0:
192,192,29141,1,0,0:0:0:0:
64,192,29295,1,0,0:0:0:0:
192,192,29295,1,0,0:0:0:0:
320,192,29295,1,0,0:0:0:0:
320,192,29603,1,0,0:0:0:0:
64,192,29603,1,0,0:0:0:0:
64,192,29911,1,0,0:0:0:0:
448,192,29911,1,0,0:0:0:0:
320,192,29911,1,0,0:0:0:0:
192,192,30065,1,0,0:0:0:0:
320,192,30218,1,0,0:0:0:0:
192,192,30218,1,0,0:0:0:0:
320,192,30372,1,0,0:0:0:0:
64,192,30372,1,0,0:0:0:0:
192,192,30526,1,0,0:0:0:0:
448,192,30526,1,0,0:0:0:0:
64,192,30526,1,0,0:0:0:0:
320,192,30680,1,0,0:0:0:0:
192,192,30834,1,0,0:0:0:0:
448,192,30834,1,0,0:0:0:0:
320,192,30988,1,0,0:0:0:0:
192,192,30988,1,0,0:0:0:0:
64,192,31141,1,0,0:0:0:0:
320,192,31141,1,0,0:0:0:0:
448,192,31141,1,0,0:0:0:0:
448,192,31449,1,0,0:0:0:0:
192,192,31449,1,0,0:0:0:0:
64,192,31603,1,0,0:0:0:0:
320,192,31603,1,0,0:0:0:0:
448,192,31757,1,0,0:0:0:0:
192,192,31757,1,0,0:0:0:0:
320,192,31757,1,0,0:0:0:0:
192,192,32065,1,0,0:0:0:0:
64,192,32065,1,0,0:0:0:0:
448,192,32065,1,0,0:0:0:0:
320,192,32065,1,0,0:0:0:0:
448,192,32372,1,0,0:0:0:0:
192,192,32372,1,0,0:0:0:0:
64,192,32680,1,0,0:0:0:0:
320,192,32680,1,0,0:0:0:0:
448,192,32834,1,0,0:0:0:0:
192,192,32834,1,0,0:0:0:0:
64,192,32988,1,0,0:0:0:0:
320,192,32988,1,0,0:0:0:0:
192,192,32988,1,0,0:0:0:0:
448,192,33141,128,0,33449:0:0:0:0:
320,192,33449,1,0,0:0:0:0:
192,192,33449,1,0,0:0:0:0:
448,192,33603,1,0,0:0:0:0:
320,192,33603,1,0,0:0:0:0:
64,192,33603,128,0,33911:0:0:0:0:
448,192,33911,1,0,0:0:0:0:
320,192,33988,1,0,0:0:0:0:
192,192,34065,1,0,0:0:0:0:
320,192,34141,1,0,0:0:0:0:
448,192,34218,1,0,0:0:0:0:
64,192,34218,1,0,0:0:0:0:
192,192,34295,1,0,0:0:0:0:
320,192,34372,1,0,0:0:0:0:
192,192,34449,1,0,0:0:0:0:
64,192,34526,1,0,0:0:0:0:
320,192,34526,1,0,0:0:0:0:
448,192,34526,128,0,35141:0:0:0:0:
64,192,34834,1,0,0:0:0:0:
192,192,34834,1,0,0:0:0:0:
320,192,35141,1,0,0:0:0:0:
192,192,35141,1,0,0:0:0:0:
64,192,35295,1,0,0:0:0:0:
192,192,35295,1,0,0:0:0:0:
448,192,35372,1,0,0:0:0:0:
64,192,35372,1,0,0:0:0:0:
192,192,35449,1,0,0:0:0:0:
320,192,35449,1,0,0:0:0:0:
448,192,35603,1,0,0:0:0:0:
320,192,35603,1,0,0:0:0:0:
64,192,35603,1,0,0:0:0:0:
192,192,35757,1,0,0:0:0:0:
192,192,35911,1,0,0:0:0:0:
320,192,35911,1,0,0:0:0:0:
448,192,35911,1,0,0:0:0:0:
64,192,36065,1,0,0:0:0:0:
320,192,36065,1,0,0:0:0:0:
192,192,36218,1,0,0:0:0:0:
448,192,36218,1,0,0:0:0:0:
64,192,36218,128,0,36526:0:0:0:0:
448,192,36526,1,0,0:0:0:0:
320,192,36603,1,0,0:0:0:0:
192,192,36680,1,0,0:0:0:0:
320,192,36757,1,0,0:0:0:0:
448,192,36757,1,0,0:0:0:0:
192,192,36834,1,0,0:0:0:0:
64,192,36834,1,0,0:0:0:0:
448,192,36911,1,0,0:0:0:0:
320,192,36988,1,0,0:0:0:0:
192,192,36988,128,0,37295:0:0:0:0:
448,192,37295,1,0,0:0:0:0:
320,192,37295,1,0,0:0:0:0:
64,192,37449,1,0,0:0:0:0:
448,192,37603,1,0,0:0:0:0:
192,192,37603,1,0,0:0:0:0:
64,192,37911,1,0,0:0:0:0:
448,192,37911,1,0,0:0:0:0:
320,192,38065,1,0,0:0:0:0:
448,192,38372,1,0,0:0:0:0:
320,192,38372,1,0,0:0:0:0:
64,192,38526,1,0,0:0:0:0:
192,192,38680,1,0,0:0:0:0:
448,192,38680,1,0,0:0:0:0:
448,192,38988,1,0,0:0:0:0:
192,192,39141,1,0,0:0:0:0:
448,192,39295,1,0,0:0:0:0:
320,192,39372,1,0,0:0:0:0:
64,192,39449,1,0,0:0:0:0:
192,192,39449,128,0,39757:0:0:0:0:
320,192,39757,1,0,0:0:0:0:
448,192,39757,1,0,0:0:0:0:
64,192,39911,1,0,0:0:0:0:
448,192,40065,1,0,0:0:0:0:
192,192,40065,1,0,0:0:0:0:
320,192,40218,1,0,0:0:0:0:
192,192,40372,1,0,0:0:0:0:
64,192,40526,1,0,0:0:0:0:
64,192,40834,1,0,0:0:0:0:
192,192,41141,1,0,0:0:0:0:
448,192,41449,1,0,0:0:0:0:
320,192,41603,1,0,0:0:0:0:
64,192,41603,1,0,0:0:0:0:
192,192,41757,1,0,0:0:0:0:
448,192,41911,1,0,0:0:0:0:
320,192,41911,1,0,0:0:0:0:
64,192,42065,1,0,0:0:0:0:
192,192,42218,1,0,0:0:0:0:
448,192,42218,1,0,0:0:0:0:
320,192,42372,1,0,0:0:0:0:
64,192,42526,1,0,0:0:0:0:
448,192,42526,1,0,0:0:0:0:
320,192,42680,1,0,0:0:0:0:
192,192,42834,1,0,0:0:0:0:
64,192,42988,1,0,0:0:0:0:
320,192,43295,1,0,0:0:0:0:
192,192,43295,1,0,0:0:0:0:
64,192,43603,1,0,0:0:0:0:
448,192,43603,1,0,0:0:0:0:
448,192,43911,1,0,0:0:0:0:
320,192,44065,1,0,0:0:0:0:
192,192,44218,1,0,0:0:0:0:
320,192,44372,1,0,0:0:0:0:
448,192,44372,1,0,0:0:0:0:
64,192,44372,128,0,44988:0:0:0:0:
448,192,44988,1,0,0:0:0:0:
320,192,45090,1,0,0:0:0:0:
192,192,45199,1,0,0:0:0:0:
448,192,45295,1,0,0:0:0:0:
320,192,45398,1,0,0:0:0:0:
192,192,45507,1,0,0:0:0:0:
64,192,45603,1,0,0:0:0:0:
320,192,45603,1,0,0:0:0:0:
448,192,45680,1,0,0:0:0:0:
320,192,45757,1,0,0:0:0:0:
192,192,45834,1,0,0:0:0:0:
448,192,45911,1,0,0:0:0:0:
320,192,45911,1,0,0:0:0:0:
64,192,45911,1,0,0:0:0:0:
192,192,45988,1,0,0:0:0:0:
64,192,46065,1,0,0:0:0:0:
320,192,46141,1,0,0:0:0:0:
448,192,46218,1,0,0:0:0:0:
192,192,46218,1,0,0:0:0:0:
320,192,46295,1,0,0:0:0:0:
192,192,46372,1,0,0:0:0:0:
64,192,46449,1,0,0:0:0:0:
320,192,46526,1,0,0:0:0:0:
448,192,46526,1,0,0:0:0:0:
192,192,46603,1,0,0:0:0:0:
64,192,46680,1,0,0:0:0:0:
192,192,46757,1,0,0:0:0:0:
64,192,46834,1,0,0:0:0:0:
320,192,46834,1,0,0:0:0:0:
448,192,46834,1,0,0:0:0:0:
64,192,46988,1,0,0:0:0:0:
320,192,47141,1,0,0:0:0:0:
64,192,47141,1,0,0:0:0:0:
64,192,47295,1,0,0:0:0:0:
64,192,47449,1,0,0:0:0:0:
320,192,47449,1,0,0:0:0:0:
64,192,47603,1,0,0:0:0:0:
64,192,47757,1,0,0:0:0:0:
320,192,47757,1,0,0:0:0:0:
64,192,47911,1,0,0:0:0:0:
192,192,48065,1,0,0:0:0:0:
448,192,48065,1,0,0:0:0:0:
448,192,48218,1,0,0:0:0:0:
192,192,48372,1,0,0:0:0:0:
448,192,48372,1,0,0:0:0:0:
448,192,48526,1,0,0:0:0:0:
448,192,48680,1,0,0:0:0:0:
192,192,48680,1,0,0:0:0:0:
320,192,48834,1,0,0:0:0:0:
192,192,48834,1,0,0:0:0:0:
64,192,48834,1,0,0:0:0:0:
448,192,48988,1,0,0:0:0:0:
192,192,48988,1,0,0:0:0:0:
192,192,49141,1,0,0:0:0:0:
320,192,49141,1,0,0:0:0:0:
64,192,49141,1,0,0:0:0:0:
448,192,49295,1,0,0:0:0:0:
192,192,49295,1,0,0:0:0:0:
448,192,49449,1,0,0:0:0:0:
64,192,49603,1,0,0:0:0:0:
320,192,49603,1,0,0:0:0:0:
64,192,49757,1,0,0:0:0:0:
192,192,49911,1,0,0:0:0:0:
448,192,49911,1,0,0:0:0:0:
448,192,50065,1,0,0:0:0:0:
320,192,50218,1,0,0:0:0:0:
64,192,50218,1,0,0:0:0:0:
64,192,50372,1,0,0:0:0:0:
448,192,50526,1,0,0:0:0:0:
320,192,50526,1,0,0:0:0:0:
320,192,50680,1,0,0:0:0:0:
192,192,50680,1,0,0:0:0:0:
192,192,50834,1,0,0:0:0:0:
64,192,50834,1,0,0:0:0:0:
320,192,50911,1,0,0:0:0:0:
448,192,50988,1,0,0:0:0:0:
320,192,51065,1,0,0:0:0:0:
192,192,51141,1,0,0:0:0:0:
64,192,51141,1,0,0:0:0:0:
448,192,51218,1,0,0:0:0:0:
192,192,51295,1,0,0:0:0:0:
320,192,51295,1,0,0:0:0:0:
64,192,51372,1,0,0:0:0:0:
320,192,51449,1,0,0:0:0:0:
448,192,51449,1,0,0:0:0:0:
64,192,51526,1,0,0:0:0:0:
192,192,51603,1,0,0:0:0:0:
320,192,51603,1,0,0:0:0:0:
64,192,51680,1,0,0:0:0:0:
448,192,51757,1,0,0:0:0:0:
320,192,51757,1,0,0:0:0:0:
192,192,51757,1,0,0:0:0:0:
64,192,51911,1,0,0:0:0:0:
320,192,51911,1,0,0:0:0:0:
192,192,52065,1,0,0:0:0:0:
448,192,52065,1,0,0:0:0:0:
320,192,52065,1,0,0:0:0:0:
320,192,52218,1,0,0:0:0:0:
64,192,52218,1,0,0:0:0:0:
192,192,52372,1,0,0:0:0:0:
320,192,52372,1,0,0:0:0:0:
448,192,52372,1,0,0:0:0:0:
320,192,52526,1,0,0:0:0:0:
64,192,52526,1,0,0:0:0:0:
448,192,52680,1,0,0:0:0:0:
192,192,52680,1,0,0:0:0:0:
64,192,52834,1,0,0:0:0:0:
320,192,52834,1,0,0:0:0:0:
192,192,52834,1,0,0:0:0:0:
192,192,52988,1,0,0:0:0:0:
448,192,52988,1,0,0:0:0:0:
320,192,53141,1,0,0:0:0:0:
64,192,53141,1,0,0:0:0:0:
448,192,53295,1,0,0:0:0:0:
192,192,53295,1,0,0:0:0:0:
320,192,53295,1,0,0:0:0:0:
320,192,53449,1,0,0:0:0:0:
64,192,53449,1,0,0:0:0:0:
192,192,53603,1,0,0:0:0:0:
64,192,53757,1,0,0:0:0:0:
448,192,53757,1,0,0:0:0:0:
320,192,53757,1,0,0:0:0:0:
192,192,53911,1,0,0:0:0:0:
448,192,54065,1,0,0:0:0:0:
320,192,54218,1,0,0:0:0:0:
64,192,54218,1,0,0:0:0:0:
192,192,54218,1,0,0:0:0:0:
448,192,54295,1,0,0:0:0:0:
64,192,54372,1,0,0:0:0:0:
320,192,54372,1,0,0:0:0:0:
192,192,54449,1,0,0:0:0:0:
64,192,54526,1,0,0:0:0:0:
320,192,54526,1,0,0:0:0:0:
448,192,54603,1,0,0:0:0:0:
64,192,54680,1,0,0:0:0:0:
320,192,54680,1,0,0:0:0:0:
192,192,54757,1,0,0:0:0:0:
448,192,54757,1,0,0:0:0:0:
448,192,54834,1,0,0:0:0:0:
320,192,54834,1,0,0:0:0:0:
64,192,54834,1,0,0:0:0:0:
192,192,54911,1,0,0:0:0:0:
448,192,54988,1,0,0:0:0:0:
320,192,54988,1,0,0:0:0:0:
64,192,55065,1,0,0:0:0:0:
192,192,55065,1,0,0:0:0:0:
192,192,55141,1,0,0:0:0:0:
64,192,55141,1,0,0:0:0:0:
448,192,55218,1,0,0:0:0:0:
64,192,55218,1,0,0:0:0:0:
320,192,55218,1,0,0:0:0:0:
320,192,55295,1,0,0:0:0:0:
192,192,55295,1,0,0:0:0:0:
448,192,55295,1,0,0:0:0:0:
64,192,56372,1,0,0:0:0:0:
192,192,56430,1,0,0:0:0:0:
320,192,56475,1,0,0:0:0:0:
448,192,56526,1,0,0:0:0:0:
320,192,56584,1,0,0:0:0:0:
192,192,56629,1,0,0:0:0:0:
320,192,56680,1,0,0:0:0:0:
448,192,56680,1,0,0:0:0:0:
64,192,56680,1,0,0:0:0:0:
192,192,56757,1,0,0:0:0:0:
448,192,56834,1,0,0:0:0:0:
320,192,56911,1,0,0:0:0:0:
192,192,56988,1,0,0:0:0:0:
64,192,56988,1,0,0:0:0:0:
448,192,57065,1,0,0:0:0:0:
320,192,57141,1,0,0:0:0:0:
64,192,57218,1,0,0:0:0:0:
448,192,57295,1,0,0:0:0:0:
320,192,57295,1,0,0:0:0:0:
192,192,57372,1,0,0:0:0:0:
64,192,57449,1,0,0:0:0:0:
448,192,57526,1,0,0:0:0:0:
64,192,57603,1,0,0:0:0:0:
192,192,57603,1,0,0:0:0:0:
320,192,57603,1,0,0:0:0:0:
448,192,57680,1,0,0:0:0:0:
192,192,57757,1,0,0:0:0:0:
320,192,57834,1,0,0:0:0:0:
192,192,57911,1,0,0:0:0:0:
64,192,57911,1,0,0:0:0:0:
448,192,57988,1,0,0:0:0:0:
320,192,58065,1,0,0:0:0:0:
64,192,58141,1,0,0:0:0:0:
320,192,58218,1,0,0:0:0:0:
192,192,58218,1,0,0:0:0:0:
448,192,58218,1,0,0:0:0:0:
64,192,58295,1,0,0:0:0:0:
320,192,58372,1,0,0:0:0:0:
448,192,58449,1,0,0:0:0:0:
192,192,58526,1,0,0:0:0:0:
64,192,58526,1,0,0:0:0:0:
448,192,58603,1,0,0:0:0:0:
192,192,58680,1,0,0:0:0:0:
320,192,58757,1,0,0:0:0:0:
192,192,58834,1,0,0:0:0:0:
64,192,58834,1,0,0:0:0:0:
448,192,58834,1,0,0:0:0:0:
320,192,58911,1,0,0:0:0:0:
448,192,58988,1,0,0:0:0:0:
192,192,58988,1,0,0:0:0:0:
192,192,59065,1,0,0:0:0:0:
448,192,59065,1,0,0:0:0:0:
320,192,59141,1,0,0:0:0:0:
64,192,59141,1,0,0:0:0:0:
192,192,59218,1,0,0:0:0:0:
320,192,59295,1,0,0:0:0:0:
64,192,59372,1,0,0:0:0:0:
448,192,59449,1,0,0:0:0:0:
320,192,59449,1,0,0:0:0:0:
192,192,59449,1,0,0:0:0:0:
64,192,59526,1,0,0:0:0:0:
320,192,59603,1,0,0:0:0:0:
192,192,59680,1,0,0:0:0:0:
64,192,59757,1,0,0:0:0:0:
320,192,59757,1,0,0:0:0:0:
448,192,59834,1,0,0:0:0:0:
64,192,59911,1,0,0:0:0:0:
192,192,59988,1,0,0:0:0:0:
320,192,60065,1,0,0:0:0:0:
448,192,60065,1,0,0:0:0:0:
64,192,60065,1,0,0:0:0:0:
192,192,60141,1,0,0:0:0:0:
448,192,60218,1,0,0:0:0:0:
320,192,60295,1,0,0:0:0:0:
64,192,60372,1,0,0:0:0:0:
192,192,60372,1,0,0:0:0:0:
320,192,60449,1,0,0:0:0:0:
448,192,60526,1,0,0:0:0:0:
64,192,60603,1,0,0:0:0:0:
192,192,60680,1,0,0:0:0:0:
320,192,60680,1,0,0:0:0:0:
448,192,60680,1,0,0:0:0:0:
64,192,60757,1,0,0:0:0:0:
448,192,60834,1,0,0:0:0:0:
320,192,60911,1,0,0:0:0:0:
64,192,60988,1,0,0:0:0:0:
192,192,60988,1,0,0:0:0:0:
448,192,61065,1,0,0:0:0:0:
320,192,61141,1,0,0:0:0:0:
64,192,61141,1,0,0:0:0:0:
192,192,61218,1,0,0:0:0:0:
448,192,61295,1,0,0:0:0:0:
320,192,61295,1,0,0:0:0:0:
64,192,61295,1,0,0:0:0:0:
192,192,61372,1,0,0:0:0:0:
320,192,61449,1,0,0:0:0:0:
448,192,61526,1,0,0:0:0:0:
64,192,61603,1,0,0:0:0:0:
192,192,61603,1,0,0:0:0:0:
320,192,61603,1,0,0:0:0:0:
448,192,61680,1,0,0:0:0:0:
320,192,61757,1,0,0:0:0:0:
192,192,61834,1,0,0:0:0:0:
448,192,61911,1,0,0:0:0:0:
320,192,61911,1,0,0:0:0:0:
64,192,61911,1,0,0:0:0:0:
192,192,61988,1,0,0:0:0:0:
64,192,62065,1,0,0:0:0:0:
448,192,62141,1,0,0:0:0:0:
192,192,62218,1,0,0:0:0:0:
320,192,62218,1,0,0:0:0:0:
448,192,62295,1,0,0:0:0:0:
64,192,62372,1,0,0:0:0:0:
320,192,62449,1,0,0:0:0:0:
64,192,62526,1,0,0:0:0:0:
192,192,62526,1,0,0:0:0:0:
448,192,62526,1,0,0:0:0:0:
320,192,62603,1,0,0:0:0:0:
192,192,62680,1,0,0:0:0:0:
64,192,62757,1,0,0:0:0:0:
448,192,62834,1,0,0:0:0:0:
320,192,62834,1,0,0:0:0:0:
192,192,62911,1,0,0:0:0:0:
448,192,62988,1,0,0:0:0:0:
192,192,63065,1,0,0:0:0:0:
320,192,63141,1,0,0:0:0:0:
448,192,63141,1,0,0:0:0:0:
64,192,63141,1,0,0:0:0:0:
192,192,63218,1,0,0:0:0:0:
320,192,63295,1,0,0:0:0:0:
448,192,63372,1,0,0:0:0:0:
64,192,63449,1,0,0:0:0:0:
320,192,63449,1,0,0:0:0:0:
192,192,63500,1,0,0:0:0:0:
448,192,63552,1,0,0:0:0:0:
320,192,63603,1,0,0:0:0:0:
64,192,63654,1,0,0:0:0:0:
192,192,63706,1,0,0:0:0:0:
320,192,63757,1,0,0:0:0:0:
448,192,63757,1,0,0:0:0:0:
320,192,63911,1,0,0:0:0:0:
64,192,63911,1,0,0:0:0:0:
192,192,63911,1,0,0:0:0:0:
64,192,64218,1,0,0:0:0:0:
320,192,64218,1,0,0:0:0:0:
448,192,64372,1,0,0:0:0:0:
192,192,64372,1,0,0:0:0:0:
320,192,64372,1,0,0:0:0:0:
320,192,64526,1,0,0:0:0:0:
64,192,64526,1,0,0:0:0:0:
320,192,64680,1,0,0:0:0:0:
448,192,64680,1,0,0:0:0:0:
192,192,64680,1,0,0:0:0:0:
64,192,64834,1,0,0:0:0:0:
448,192,64988,1,0,0:0:0:0:
320,192,64988,1,0,0:0:0:0:
320,192,65141,1,0,0:0:0:0:
192,192,65141,1,0,0:0:0:0:
64,192,65295,1,0,0:0:0:0:
448,192,65295,1,0,0:0:0:0:
192,192,65295,1,0,0:0:0:0:
320,192,65449,1,0,0:0:0:0:
192,192,65449,1,0,0:0:0:0:
64,192,65603,1,0,0:0:0:0:
192,192,65603,1,0,0:0:0:0:
448,192,65603,1,0,0:0:0:0:
320,192,65757,1,0,0:0:0:0:
448,192,65911,1,0,0:0:0:0:
192,192,65911,1,0,0:0:0:0:
64,192,65911,1,0,0:0:0:0:
320,192,65988,1,0,0:0:0:0:
64,192,66065,1,0,0:0:0:0:
192,192,66065,1,0,0:0:0:0:
448,192,66141,1,0,0:0:0:0:
320,192,66141,1,0,0:0:0:0:
192,192,66218,1,0,0:0:0:0:
64,192,66218,1,0,0:0:0:0:
448,192,66218,1,0,0:0:0:0:
448,192,66372,1,0,0:0:0:0:
320,192,66372,1,0,0:0:0:0:
192,192,66449,1,0,0:0:0:0:
64,192,66449,1,0,0:0:0:0:
320,192,66526,1,0,0:0:0:0:
64,192,66526,1,0,0:0:0:0:
448,192,66526,1,0,0:0:0:0:
192,192,66603,1,0,0:0:0:0:
448,192,66680,1,0,0:0:0:0:
320,192,66757,1,0,0:0:0:0:
192,192,66834,1,0,0:0:0:0:
64,192,66834,1,0,0:0:0:0:
320,192,66911,1,0,0:0:0:0:
64,192,66988,1,0,0:0:0:0:
320,192,67065,1,0,0:0:0:0:
448,192,67141,1,0,0:0:0:0:
192,192,67141,1,0,0:0:0:0:
64,192,67218,1,0,0:0:0:0:
192,192,67295,1,0,0:0:0:0:
320,192,67372,1,0,0:0:0:0:
448,192,67449,1,0,0:0:0:0:
192,192,67449,1,0,0:0:0:0:
64,192,67449,1,0,0:0:0:0:
320,192,67526,1,0,0:0:0:0:
64,192,67603,1,0,0:0:0:0:
192,192,67680,1,0,0:0:0:0:
320,192,67757,1,0,0:0:0:0:
448,192,67757,1,0,0:0:0:0:
192,192,67834,1,0,0:0:0:0:
448,192,67911,1,0,0:0:0:0:
64,192,67988,1,0,0:0:0:0:
192,192,68065,1,0,0:0:0:0:
320,192,68065,1,0,0:0:0:0:
448,192,68065,1,0,0:0:0:0:
64,192,68141,1,0,0:0:0:0:
320,192,68218,1,0,0:0:0:0:
192,192,68295,1,0,0:0:0:0:
448,192,68372,1,0,0:0:0:0:
320,192,68372,1,0,0:0:0:0:
64,192,68449,1,0,0:0:0:0:
192,192,68526,1,0,0:0:0:0:
320,192,68603,1,0,0:0:0:0:
192,192,68680,1,0,0:0:0:0:
64,192,68680,1,0,0:0:0:0:
448,192,68680,1,0,0:0:0:0:
320,192,68757,1,0,0:0:0:0:
448,192,68834,1,0,0:0:0:0:
192,192,68834,1,0,0:0:0:0:
192,192,68911,1,0,0:0:0:0:
448,192,68911,1,0,0:0:0:0:
64,192,68988,1,0,0:0:0:0:
320,192,68988,1,0,0:0:0:0:
192,192,69065,1,0,0:0:0:0:
320,192,69141,1,0,0:0:0:0:
448,192,69218,1,0,0:0:0:0:
320,192,69295,1,0,0:0:0:0:
64,192,69295,1,0,0:0:0:0:
192,192,69295,1,0,0:0:0:0:
448,192,69372,1,0,0:0:0:0:
192,192,69449,1,0,0:0:0:0:
320,192,69526,1,0,0:0:0:0:
64,192,69603,1,0,0:0:0:0:
448,192,69603,1,0,0:0:0:0:
192,192,69680,1,0,0:0:0:0:
64,192,69757,1,0,0:0:0:0:
320,192,69834,1,0,0:0:0:0:
448,192,69911,1,0,0:0:0:0:
192,192,69911,1,0,0:0:0:0:
64,192,69911,1,0,0:0:0:0:
320,192,69988,1,0,0:0:0:0:
64,192,70065,1,0,0:0:0:0:
320,192,70141,1,0,0:0:0:0:
192,192,70218,1,0,0:0:0:0:
448,192,70218,1,0,0:0:0:0:
64,192,70295,1,0,0:0:0:0:
192,192,70372,1,0,0:0:0:0:
320,192,70449,1,0,0:0:0:0:
64,192,70526,1,0,0:0:0:0:
448,192,70526,1,0,0:0:0:0:
192,192,70526,1,0,0:0:0:0:
320,192,70603,1,0,0:0:0:0:
192,192,70680,1,0,0:0:0:0:
64,192,70757,1,0,0:0:0:0:
320,192,70834,1,0,0:0:0:0:
448,192,70834,1,0,0:0:0:0:
192,192,70911,1,0,0:0:0:0:
320,192,70988,1,0,0:0:0:0:
64,192,70988,1,0,0:0:0:0:
320,192,71065,1,0,0:0:0:0:
64,192,71065,1,0,0:0:0:0:
448,192,71141,1,0,0:0:0:0:
192,192,71141,1,0,0:0:0:0:
320,192,71218,1,0,0:0:0:0:
64,192,71295,1,0,0:0:0:0:
192,192,71295,1,0,0:0:0:0:
192,192,71372,1,0,0:0:0:0:
64,192,71372,1,0,0:0:0:0:
448,192,71449,1,0,0:0:0:0:
320,192,71449,1,0,0:0:0:0:
64,192,71603,1,0,0:0:0:0:
192,192,71757,1,0,0:0:0:0:
448,192,71757,1,0,0:0:0:0:
320,192,71757,1,0,0:0:0:0:
64,192,71911,1,0,0:0:0:0:
192,192,72065,1,0,0:0:0:0:
448,192,72065,1,0,0:0:0:0:
320,192,72218,1,0,0:0:0:0:
64,192,72372,1,0,0:0:0:0:
192,192,72372,1,0,0:0:0:0:
448,192,72372,1,0,0:0:0:0:
320,192,72526,1,0,0:0:0:0:
64,192,72680,1,0,0:0:0:0:
448,192,72680,1,0,0:0:0:0:
192,192,72834,1,0,0:0:0:0:
448,192,72988,1,0,0:0:0:0:
320,192,72988,1,0,0:0:0:0:
64,192,72988,1,0,0:0:0:0:
192,192,73141,1,0,0:0:0:0:
64,192,73295,1,0,0:0:0:0:
320,192,73295,1,0,0:0:0:0:
192,192,73449,1,0,0:0:0:0:
448,192,73449,1,0,0:0:0:0:
192,192,73526,1,0,0:0:0:0:
448,192,73526,1,0,0:0:0:0:
320,192,73603,1,0,0:0:0:0:
64,192,73603,1,0,0:0:0:0:
64,192,73757,1,0,0:0:0:0:
192,192,73757,1,0,0:0:0:0:
448,192,73757,1,0,0:0:0:0:
448,192,73911,1,0,0:0:0:0:
192,192,74065,1,0,0:0:0:0:
320,192,74065,1,0,0:0:0:0:
320,192,74218,1,0,0:0:0:0:
64,192,74218,1,0,0:0:0:0:
448,192,74218,1,0,0:0:0:0:
192,192,74372,1,0,0:0:0:0:
320,192,74372,1,0,0:0:0:0:
320,192,74526,1,0,0:0:0:0:
448,192,74526,1,0,0:0:0:0:
64,192,74526,1,0,0:0:0:0:
448,192,74834,1,0,0:0:0:0:
192,192,74834,1,0,0:0:0:0:
192,192,74988,1,0,0:0:0:0:
320,192,74988,1,0,0:0:0:0:
64,192,74988,1,0,0:0:0:0:
448,192,75141,1,0,0:0:0:0:
64,192,75141,1,0,0:0:0:0:
320,192,75295,1,0,0:0:0:0:
192,192,75295,1,0,0:0:0:0:
448,192,75449,1,0,0:0:0:0:
192,192,75449,1,0,0:0:0:0:
64,192,75449,1,0,0:0:0:0:
64,192,75757,1,0,0:0:0:0:
448,192,75757,1,0,0:0:0:0:
320,192,75757,1,0,0:0:0:0:
320,192,75911,1,0,0:0:0:0:
192,192,75911,1,0,0:0:0:0:
192,192,75988,1,0,0:0:0:0:
320,192,75988,1,0,0:0:0:0:
64,192,76065,1,0,0:0:0:0:
448,192,76065,1,0,0:0:0:0:
448,192,76218,1,0,0:0:0:0:
192,192,76218,1,0,0:0:0:0:
320,192,76218,128,0,76680:0:0:0:0:
64,192,76526,1,0,0:0:0:0:
448,192,76680,1,0,0:0:0:0:
192,192,76680,1,0,0:0:0:0:
64,192,76988,1,0,0:0:0:0:
320,192,76988,1,0,0:0:0:0:
448,192,77141,1,0,0:0:0:0:
192,192,77141,1,0,0:0:0:0:
320,192,77295,1,0,0:0:0:0:
192,192,77295,1,0,0:0:0:0:
64,192,77295,1,0,0:0:0:0:
192,192,77603,1,0,0:0:0:0:
64,192,77603,1,0,0:0:0:0:
448,192,77911,1,0,0:0:0:0:
320,192,77911,1,0,0:0:0:0:
192,192,77911,1,0,0:0:0:0:
320,192,78218,1,0,0:0:0:0:
64,192,78218,1,0,0:0:0:0:
64,192,78372,1,0,0:0:0:0:
320,192,78372,1,0,0:0:0:0:
192,192,78526,1,0,0:0:0:0:
320,192,78526,1,0,0:0:0:0:
448,192,78526,1,0,0:0:0:0:
448,192,78680,1,0,0:0:0:0:
320,192,78757,1,0,0:0:0:0:
192,192,78834,1,0,0:0:0:0:
64,192,78834,1,0,0:0:0:0:
448,192,78834,1,0,0:0:0:0:
448,192,79141,1,0,0:0:0:0:
320,192,79141,1,0,0:0:0:0:
192,192,79141,1,0,0:0:0:0:
192,192,79295,1,0,0:0:0:0:
64,192,79295,1,0,0:0:0:0:
320,192,79295,1,0,0:0:0:0:
320,192,79449,1,0,0:0:0:0:
448,192,79449,1,0,0:0:0:0:
192,192,79449,1,0,0:0:0:0:
192,192,79603,1,0,0:0:0:0:
64,192,79603,1,0,0:0:0:0:
320,192,79603,1,0,0:0:0:0:
320,192,79757,1,0,0:0:0:0:
448,192,79757,1,0,0:0:0:0:
192,192,79757,1,0,0:0:0:0:
192,192,79911,1,0,0:0:0:0:
64,192,79911,1,0,0:0:0:0:
448,192,80065,1,0,0:0:0:0:
320,192,80218,1,0,0:0:0:0:
192,192,80372,1,0,0:0:0:0:
448,192,80526,1,0,0:0:0:0:
320,192,80680,1,0,0:0:0:0:
192,192,80834,1,0,0:0:0:0:
320,192,80988,1,0,0:0:0:0:
192,192,81141,1,0,0:0:0:0:
64,192,81141,1,0,0:0:0:0:
448,192,81141,128,0,81603:0:0:0:0:
192,192,81449,1,0,0:0:0:0:
64,192,81603,1,0,0:0:0:0:
320,192,81603,1,0,0:0:0:0:
320,192,81911,1,0,0:0:0:0:
192,192,81911,1,0,0:0:0:0:
192,192,82065,1,0,0:0:0:0:
64,192,82218,1,0,0:0:0:0:
448,192,82218,1,0,0:0:0:0:
320,192,82218,1,0,0:0:0:0:
320,192,82526,1,0,0:0:0:0:
64,192,82526,1,0,0:0:0:0:
448,192,82680,1,0,0:0:0:0:
192,192,82680,1,0,0:0:0:0:
320,192,82834,1,0,0:0:0:0:
64,192,82834,1,0,0:0:0:0:
448,192,82834,1,0,0:0:0:0:
192,192,82988,1,0,0:0:0:0:
64,192,83141,1,0,0:0:0:0:
320,192,83141,1,0,0:0:0:0:
64,192,83295,1,0,0:0:0:0:
320,192,83295,1,0,0:0:0:0:
448,192,83449,1,0,0:0:0:0:
320,192,83449,1,0,0:0:0:0:
192,192,83449,1,0,0:0:0:0:
192,192,83603,1,0,0:0:0:0:
64,192,83603,128,0,83911:0:0:0:0:
320,192,83911,1,0,0:0:0:0:
192,192,84065,1,0,0:0:0:0:
64,192,84065,1,0,0:0:0:0:
448,192,84065,1,0,0:0:0:0:
192,192,84372,1,0,0:0:0:0:
448,192,84372,1,0,0:0:0:0:
64,192,84526,1,0,0:0:0:0:
320,192,84526,1,0,0:0:0:0:
192,192,84680,1,0,0:0:0:0:
448,192,84680,1,0,0:0:0:0:
320,192,84680,1,0,0:0:0:0:
448,192,84988,1,0,0:0:0:0:
64,192,84988,1,0,0:0:0:0:
320,192,85141,1,0,0:0:0:0:
64,192,85141,1,0,0:0:0:0:
320,192,85295,1,0,0:0:0:0:
448,192,85295,1,0,0:0:0:0:
192,192,85295,1,0,0:0:0:0:
64,192,85449,1,0,0:0:0:0:
448,192,85603,1,0,0:0:0:0:
320,192,85757,1,0,0:0:0:0:
192,192,85757,1,0,0:0:0:0:
448,192,85911,1,0,0:0:0:0:
64,192,85911,1,0,0:0:0:0:
192,192,85911,1,0,0:0:0:0:
448,192,86065,1,0,0:0:0:0:
64,192,86065,1,0,0:0:0:0:
320,192,86065,128,0,86372:0:0:0:0:
192,192,86372,1,0,0:0:0:0:
64,192,86372,1,0,0:0:0:0:
192,192,86526,1,0,0:0:0:0:
448,192,86526,1,0,0:0:0:0:
320,192,86526,1,0,0:0:0:0:
64,192,86680,1,0,0:0:0:0:
192,192,86834,1,0,0:0:0:0:
448,192,86834,1,0,0:0:0:0:
448,192,86988,1,0,0:0:0:0:
64,192,87141,1,0,0:0:0:0:
192,192,87141,1,0,0:0:0:0:
320,192,87141,1,0,0:0:0:0:
448,192,87295,1,0,0:0:0:0:
320,192,87372,1,0,0:0:0:0:
192,192,87449,1,0,0:0:0:0:
64,192,87449,1,0,0:0:0:0:
64,192,87603,1,0,0:0:0:0:
320,192,87603,1,0,0:0:0:0:
192,192,87757,1,0,0:0:0:0:
320,192,87757,1,0,0:0:0:0:
448,192,87757,1,0,0:0:0:0:
64,192,87911,1,0,0:0:0:0:
448,192,88065,1,0,0:0:0:0:
192,192,88065,1,0,0:0:0:0:
320,192,88218,1,0,0:0:0:0:
64,192,88218,1,0,0:0:0:0:
192,192,88372,1,0,0:0:0:0:
64,192,88372,1,0,0:0:0:0:
448,192,88372,1,0,0:0:0:0:
320,192,88526,1,0,0:0:0:0:
192,192,88603,1,0,0:0:0:0:
64,192,88680,1,0,0:0:0:0:
448,192,88680,1,0,0:0:0:0:
320,192,88680,1,0,0:0:0:0:
192,192,88834,1,0,0:0:0:0:
320,192,88834,1,0,0:0:0:0:
320,192,88988,1,0,0:0:0:0:
448,192,88988,1,0,0:0:0:0:
64,192,88988,1,0,0:0:0:0:
320,192,89141,1,0,0:0:0:0:
192,192,89141,1,0,0:0:0:0:
448,192,89295,1,0,0:0:0:0:
320,192,89295,1,0,0:0:0:0:
64,192,89295,1,0,0:0:0:0:
192,192,89449,1,0,0:0:0:0:
320,192,89449,1,0,0:0:0:0:
64,192,89603,1,0,0:0:0:0:
448,192,89603,1,0,0:0:0:0:
192,192,89603,1,0,0:0:0:0:
320,192,89603,1,0,0:0:0:0:
320,192,89757,1,0,0:0:0:0:
192,192,89834,1,0,0:0:0:0:
320,192,89911,1,0,0:0:0:0:
64,192,89911,1,0,0:0:0:0:
320,192,89988,1,0,0:0:0:0:
64,192,89988,1,0,0:0:0:0:
192,192,90065,1,0,0:0:0:0:
448,192,90065,1,0,0:0:0:0:
320,192,90141,1,0,0:0:0:0:
64,192,90218,1,0,0:0:0:0:
192,192,90218,1,0,0:0:0:0:
320,192,90295,1,0,0:0:0:0:
448,192,90295,1,0,0:0:0:0:
192,192,90372,1,0,0:0:0:0:
64,192,90372,1,0,0:0:0:0:
320,192,90449,1,0,0:0:0:0:
448,192,90526,1,0,0:0:0:0:
64,192,90526,1,0,0:0:0:0:
192,192,90526,1,0,0:0:0:0:
320,192,90603,1,0,0:0:0:0:
64,192,90680,1,0,0:0:0:0:
192,192,90680,1,0,0:0:0:0:
448,192,90680,1,0,0:0:0:0:
320,192,90834,1,0,0:0:0:0:
448,192,90834,1,0,0:0:0:0:
192,192,90911,1,0,0:0:0:0:
320,192,90988,1,0,0:0:0:0:
64,192,90988,1,0,0:0:0:0:
192,192,91065,1,0,0:0:0:0:
448,192,91141,1,0,0:0:0:0:
320,192,91141,1,0,0:0:0:0:
192,192,91295,1,0,0:0:0:0:
64,192,91449,1,0,0:0:0:0:
448,192,91449,1,0,0:0:0:0:
320,192,91449,1,0,0:0:0:0:
192,192,91603,1,0,0:0:0:0:
320,192,91757,1,0,0:0:0:0:
448,192,91757,1,0,0:0:0:0:
192,192,91911,1,0,0:0:0:0:
320,192,91911,1,0,0:0:0:0:
192,192,92065,1,0,0:0:0:0:
64,192,92065,1,0,0:0:0:0:
448,192,92065,1,0,0:0:0:0:
320,192,92218,1,0,0:0:0:0:
64,192,92372,1,0,0:0:0:0:
192,192,92372,1,0,0:0:0:0:
320,192,92526,1,0,0:0:0:0:
192,192,92680,1,0,0:0:0:0:
64,192,92680,1,0,0:0:0:0:
448,192,92680,1,0,0:0:0:0:
320,192,92834,1,0,0:0:0:0:
192,192,92988,1,0,0:0:0:0:
64,192,92988,1,0,0:0:0:0:
320,192,93141,1,0,0:0:0:0:
192,192,93141,1,0,0:0:0:0:
320,192,93295,1,0,0:0:0:0:
448,192,93295,1,0,0:0:0:0:
64,192,93295,1,0,0:0:0:0:
192,192,93449,1,0,0:0:0:0:
320,192,93603,1,0,0:0:0:0:
64,192,93603,1,0,0:0:0:0:
448,192,93757,1,0,0:0:0:0:
320,192,93911,1,0,0:0:0:0:
192,192,93911,1,0,0:0:0:0:
64,192,93911,1,0,0:0:0:0:
448,192,94065,1,0,0:0:0:0:
320,192,94218,1,0,0:0:0:0:
192,192,94218,1,0,0:0:0:0:
448,192,94372,1,0,0:0:0:0:
64,192,94372,1,0,0:0:0:0:
320,192,94526,1,0,0:0:0:0:
192,192,94526,1,0,0:0:0:0:
448,192,94526,1,0,0:0:0:0:
64,192,94680,1,0,0:0:0:0:
64,192,94834,1,0,0:0:0:0:
320,192,94988,1,0,0:0:0:0:
192,192,95141,1,0,0:0:0:0:
64,192,95141,1,0,0:0:0:0:
448,192,95141,1,0,0:0:0:0:
320,192,95295,1,0,0:0:0:0:
64,192,95449,1,0,0:0:0:0:
192,192,95449,1,0,0:0:0:0:
192,192,95603,1,0,0:0:0:0:
320,192,95603,1,0,0:0:0:0:
64,192,95757,1,0,0:0:0:0:
320,192,95757,1,0,0:0:0:0:
448,192,95757,1,0,0:0:0:0:
192,192,95911,1,0,0:0:0:0:
192,192,96065,1,0,0:0:0:0:
320,192,96065,1,0,0:0:0:0:
448,192,96065,1,0,0:0:0:0:
64,192,96218,1,0,0:0:0:0:
192,192,96372,1,0,0:0:0:0:
448,192,96372,1,0,0:0:0:0:
320,192,96526,1,0,0:0:0:0:
192,192,96680,1,0,0:0:0:0:
448,192,96680,1,0,0:0:0:0:
64,192,96834,1,0,0:0:0:0:
320,192,96834,1,0,0:0:0:0:
192,192,96988,1,0,0:0:0:0:
320,192,96988,1,0,0:0:0:0:
448,192,96988,1,0,0:0:0:0:
64,192,97141,1,0,0:0:0:0:
192,192,97141,1,0,0:0:0:0:
320,192,97295,1,0,0:0:0:0:
64,192,97449,1,0,0:0:0:0:
448,192,97449,1,0,0:0:0:0:
192,192,97603,1,0,0:0:0:0:
320,192,97603,1,0,0:0:0:0:
448,192,97603,1,0,0:0:0:0:
64,192,97757,1,0,0:0:0:0:
448,192,97911,1,0,0:0:0:0:
320,192,97911,1,0,0:0:0:0:
192,192,98065,1,0,0:0:0:0:
320,192,98065,1,0,0:0:0:0:
64,192,98218,1,0,0:0:0:0:
192,192,98218,1,0,0:0:0:0:
448,192,98218,1,0,0:0:0:0:
320,192,98372,1,0,0:0:0:0:
320,192,98526,1,0,0:0:0:0:
64,192,98526,128,0,98834:0:0:0:0:
192,192,98834,1,0,0:0:0:0:
320,192,98834,1,0,0:0:0:0:
448,192,98834,1,0,0:0:0:0:
64,192,99141,1,0,0:0:0:0:
320,192,99141,1,0,0:0:0:0:
320,192,99295,1,0,0:0:0:0:
192,192,99295,1,0,0:0:0:0:
192,192,99449,1,0,0:0:0:0:
64,192,99449,1,0,0:0:0:0:
448,192,99449,1,0,0:0:0:0:
320,192,99603,1,0,0:0:0:0:
448,192,99757,128,0,100218:0:0:0:0:
320,192,99911,128,0,100218:0:0:0:0:
64,192,100065,1,0,0:0:0:0:
192,192,100065,128,0,100218:0:0:0:0:
64,192,100218,128,0,100372:0:0:0:0:
192,192,100372,1,0,0:0:0:0:
448,192,100372,1,0,0:0:0:0:
64,192,100526,1,0,0:0:0:0:
320,192,100526,1,0,0:0:0:0:
64,192,100603,1,0,0:0:0:0:
320,192,100603,1,0,0:0:0:0:
448,192,100680,1,0,0:0:0:0:
192,192,100680,1,0,0:0:0:0:
320,192,100834,1,0,0:0:0:0:
320,192,100911,1,0,0:0:0:0:
64,192,100988,1,0,0:0:0:0:
448,192,100988,1,0,0:0:0:0:
192,192,100988,128,0,101295:0:0:0:0:
320,192,101295,1,0,0:0:0:0:
64,192,101295,1,0,0:0:0:0:
448,192,101295,1,0,0:0:0:0:
192,192,101449,1,0,0:0:0:0:
320,192,101603,1,0,0:0:0:0:
64,192,101603,1,0,0:0:0:0:
192,192,101757,1,0,0:0:0:0:
448,192,101757,1,0,0:0:0:0:
320,192,101911,1,0,0:0:0:0:
192,192,101911,1,0,0:0:0:0:
64,192,101911,1,0,0:0:0:0:
448,192,102065,1,0,0:0:0:0:
320,192,102065,1,0,0:0:0:0:
64,192,102218,1,0,0:0:0:0:
192,192,102372,1,0,0:0:0:0:
320,192,102372,1,0,0:0:0:0:
448,192,102526,1,0,0:0:0:0:
320,192,102526,1,0,0:0:0:0:
64,192,102526,1,0,0:0:0:0:
192,192,102680,1,0,0:0:0:0:
448,192,102680,1,0,0:0:0:0:
320,192,102834,1,0,0:0:0:0:
64,192,102834,1,0,0:0:0:0:
320,192,102988,1,0,0:0:0:0:
64,192,102988,1,0,0:0:0:0:
192,192,103141,1,0,0:0:0:0:
320,192,103141,1,0,0:0:0:0:
448,192,103141,1,0,0:0:0:0:
448,192,103295,1,0,0:0:0:0:
320,192,103372,1,0,0:0:0:0:
192,192,103449,1,0,0:0:0:0:
64,192,103449,1,0,0:0:0:0:
192,192,103603,1,0,0:0:0:0:
320,192,103603,1,0,0:0:0:0:
320,192,103757,1,0,0:0:0:0:
64,192,103757,1,0,0:0:0:0:
448,192,103757,1,0,0:0:0:0:
192,192,103911,1,0,0:0:0:0:
320,192,103988,1,0,0:0:0:0:
192,192,104065,1,0,0:0:0:0:
64,192,104065,1,0,0:0:0:0:
320,192,104218,1,0,0:0:0:0:
448,192,104218,1,0,0:0:0:0:
192,192,104372,1,0,0:0:0:0:
64,192,104372,1,0,0:0:0:0:
448,192,104372,1,0,0:0:0:0:
320,192,104526,1,0,0:0:0:0:
192,192,104526,1,0,0:0:0:0:
192,192,104834,1,0,0:0:0:0:
320,192,104834,1,0,0:0:0:0:
320,192,104988,1,0,0:0:0:0:
64,192,104988,1,0,0:0:0:0:
448,192,104988,1,0,0:0:0:0:
192,192,105141,1,0,0:0:0:0:
192,192,105295,1,0,0:0:0:0:
448,192,105295,1,0,0:0:0:0:
448,192,105449,1,0,0:0:0:0:
64,192,105603,1,0,0:0:0:0:
448,192,105603,1,0,0:0:0:0:
192,192,105603,1,0,0:0:0:0:
320,192,105757,1,0,0:0:0:0:
192,192,105911,1,0,0:0:0:0:
448,192,105911,1,0,0:0:0:0:
64,192,106065,1,0,0:0:0:0:
320,192,106065,1,0,0:0:0:0:
192,192,106218,1,0,0:0:0:0:
320,192,106218,1,0,0:0:0:0:
448,192,106218,1,0,0:0:0:0:
64,192,106372,1,0,0:0:0:0:
448,192,106526,1,0,0:0:0:0:
192,192,106526,1,0,0:0:0:0:
320,192,106680,1,0,0:0:0:0:
64,192,106680,1,0,0:0:0:0:
192,192,106834,1,0,0:0:0:0:
64,192,106834,1,0,0:0:0:0:
448,192,106834,1,0,0:0:0:0:
320,192,106988,1,0,0:0:0:0:
192,192,106988,1,0,0:0:0:0:
64,192,107141,1,0,0:0:0:0:
192,192,107295,1,0,0:0:0:0:
448,192,107295,1,0,0:0:0:0:
320,192,107449,1,0,0:0:0:0:
448,192,107449,1,0,0:0:0:0:
64,192,107449,1,0,0:0:0:0:
192,192,107603,1,0,0:0:0:0:
320,192,107757,1,0,0:0:0:0:
448,192,107757,1,0,0:0:0:0:
64,192,107911,1,0,0:0:0:0:
192,192,107911,1,0,0:0:0:0:
320,192,108065,1,0,0:0:0:0:
192,192,108065,1,0,0:0:0:0:
448,192,108065,1,0,0:0:0:0:
448,192,108218,1,0,0:0:0:0:
320,192,108295,1,0,0:0:0:0:
192,192,108372,1,0,0:0:0:0:
64,192,108372,1,0,0:0:0:0:
64,192,108526,1,0,0:0:0:0:
320,192,108526,1,0,0:0:0:0:
192,192,108680,128,0,108911:0:0:0:0:
320,192,108680,128,0,108911:0:0:0:0:
448,192,108680,128,0,108911:0:0:0:0:
64,192,108988,1,0,0:0:0:0:
192,192,108988,1,0,0:0:0:0:
320,192,108988,128,0,109218:0:0:0:0:
448,192,108988,128,0,109218:0:0:0:0:
192,192,109141,1,0,0:0:0:0:
64,192,109141,1,0,0:0:0:0:
64,192,109218,1,0,0:0:0:0:
192,192,109218,1,0,0:0:0:0:
320,192,109295,1,0,0:0:0:0:
448,192,109295,1,0,0:0:0:0:
320,192,109449,1,0,0:0:0:0:
192,192,109449,1,0,0:0:0:0:
64,192,109449,1,0,0:0:0:0:
192,192,109757,1,0,0:0:0:0:
320,192,109757,1,0,0:0:0:0:
448,192,109757,1,0,0:0:0:0:
64,192,109911,1,0,0:0:0:0:
320,192,110065,1,0,0:0:0:0:
64,192,110065,1,0,0:0:0:0:
448,192,110065,1,0,0:0:0:0:
192,192,110065,1,0,0:0:0:0:
320,192,110372,1,0,0:0:0:0:
64,192,110372,1,0,0:0:0:0:
448,192,110449,1,0,0:0:0:0:
64,192,110449,1,0,0:0:0:0:
192,192,110526,1,0,0:0:0:0:
320,192,110526,1,0,0:0:0:0:
64,192,110603,1,0,0:0:0:0:
320,192,110680,1,0,0:0:0:0:
320,192,110757,1,0,0:0:0:0:
64,192,110834,128,0,113295:0:0:0:0:
192,192,110834,1,0,0:0:0:0:
192,192,111449,128,0,113295:0:0:0:0:
320,192,113295,1,0,0:0:0:0:
448,192,113295,128,0,114218:0:0:0:0:
320,192,114218,128,0,114526:0:0:0:0:
192,192,114526,128,0,115141:0:0:0:0:
448,192,115141,128,0,115757:0:0:0:0:
320,192,115295,1,0,0:0:0:0:
192,192,115449,1,0,0:0:0:0:
64,192,115603,1,0,0:0:0:0:
320,192,115757,128,0,116988:0:0:0:0:
64,192,116680,1,0,0:0:0:0:
192,192,116834,1,0,0:0:0:0:
448,192,116988,128,0,117449:0:0:0:0:
192,192,117449,128,0,117911:0:0:0:0:
64,192,117449,1,0,0:0:0:0:
320,192,117911,128,0,118218:0:0:0:0:
64,192,118218,128,0,119141:0:0:0:0:
320,192,118680,1,0,0:0:0:0:
448,192,118680,128,0,119141:0:0:0:0:
192,192,119141,128,0,119449:0:0:0:0:
64,192,119449,1,0,0:0:0:0:
448,192,119449,1,0,0:0:0:0:
320,192,119449,128,0,120680:0:0:0:0:
192,192,120680,1,0,0:0:0:0:
64,192,120680,1,0,0:0:0:0:
448,192,120680,1,0,0:0:0:0:
448,192,120834,1,0,0:0:0:0:
448,192,120988,1,0,0:0:0:0:
448,192,121141,1,0,0:0:0:0:
448,192,121295,1,0,0:0:0:0:
448,192,121449,1,0,0:0:0:0:
448,192,121603,1,0,0:0:0:0:
448,192,121757,1,0,0:0:0:0:
448,192,121911,1,0,0:0:0:0:
64,192,121911,1,0,0:0:0:0:
192,192,121911,1,0,0:0:0:0:
192,192,122065,1,0,0:0:0:0:
192,192,122218,1,0,0:0:0:0:
448,192,122218,1,0,0:0:0:0:
64,192,122372,1,0,0:0:0:0:
320,192,122372,1,0,0:0:0:0:
192,192,122526,1,0,0:0:0:0:
320,192,122680,1,0,0:0:0:0:
192,192,122834,1,0,0:0:0:0:
448,192,122834,1,0,0:0:0:0:
64,192,122988,1,0,0:0:0:0:
192,192,123065,1,0,0:0:0:0:
320,192,123141,1,0,0:0:0:0:
448,192,123141,1,0,0:0:0:0:
64,192,123141,1,0,0:0:0:0:
320,192,123295,1,0,0:0:0:0:
320,192,123449,1,0,0:0:0:0:
64,192,123449,1,0,0:0:0:0:
320,192,123603,1,0,0:0:0:0:
320,192,123757,1,0,0:0:0:0:
64,192,123757,1,0,0:0:0:0:
320,192,123911,1,0,0:0:0:0:
320,192,124065,1,0,0:0:0:0:
64,192,124065,1,0,0:0:0:0:
320,192,124218,1,0,0:0:0:0:
192,192,124295,1,0,0:0:0:0:
320,192,124372,1,0,0:0:0:0:
448,192,124372,1,0,0:0:0:0:
64,192,124449,1,0,0:0:0:0:
320,192,124526,1,0,0:0:0:0:
64,192,124603,1,0,0:0:0:0:
320,192,124680,1,0,0:0:0:0:
64,192,124757,1,0,0:0:0:0:
320,192,124834,1,0,0:0:0:0:
64,192,124911,1,0,0:0:0:0:
320,192,124988,1,0,0:0:0:0:
448,192,124988,1,0,0:0:0:0:
192,192,124988,1,0,0:0:0:0:
448,192,125141,1,0,0:0:0:0:
64,192,125141,1,0,0:0:0:0:
192,192,125295,1,0,0:0:0:0:
448,192,125295,1,0,0:0:0:0:
320,192,125449,1,0,0:0:0:0:
64,192,125449,1,0,0:0:0:0:
448,192,125603,1,0,0:0:0:0:
320,192,125603,1,0,0:0:0:0:
192,192,125603,1,0,0:0:0:0:
192,192,125757,1,0,0:0:0:0:
64,192,125757,1,0,0:0:0:0:
320,192,125911,1,0,0:0:0:0:
448,192,125911,1,0,0:0:0:0:
192,192,125911,1,0,0:0:0:0:
192,192,126065,1,0,0:0:0:0:
64,192,126065,1,0,0:0:0:0:
320,192,126218,1,0,0:0:0:0:
448,192,126218,1,0,0:0:0:0:
192,192,126218,1,0,0:0:0:0:
192,192,126372,1,0,0:0:0:0:
448,192,126372,1,0,0:0:0:0:
64,192,126526,1,0,0:0:0:0:
320,192,126526,1,0,0:0:0:0:
448,192,126680,1,0,0:0:0:0:
192,192,126680,1,0,0:0:0:0:
320,192,126680,1,0,0:0:0:0:
64,192,126834,1,0,0:0:0:0:
320,192,126834,1,0,0:0:0:0:
192,192,126988,1,0,0:0:0:0:
448,192,126988,1,0,0:0:0:0:
64,192,127141,1,0,0:0:0:0:
192,192,127141,1,0,0:0:0:0:
320,192,127141,1,0,0:0:0:0:
192,192,127295,1,0,0:0:0:0:
448,192,127295,1,0,0:0:0:0:
320,192,127449,1,0,0:0:0:0:
64,192,127449,1,0,0:0:0:0:
192,192,127603,1,0,0:0:0:0:
64,192,127603,1,0,0:0:0:0:
448,192,127603,1,0,0:0:0:0:
320,192,127757,1,0,0:0:0:0:
192,192,127757,1,0,0:0:0:0:
320,192,127911,1,0,0:0:0:0:
448,192,127911,1,0,0:0:0:0:
192,192,128065,1,0,0:0:0:0:
64,192,128065,1,0,0:0:0:0:
448,192,128065,1,0,0:0:0:0:
320,192,128065,1,0,0:0:0:0:
64,192,128141,1,0,0:0:0:0:
192,192,128141,1,0,0:0:0:0:
64,192,128218,1,0,0:0:0:0:
192,192,128218,1,0,0:0:0:0:
64,192,128295,1,0,0:0:0:0:
192,192,128295,1,0,0:0:0:0:
192,192,128372,1,0,0:0:0:0:
64,192,128372,1,0,0:0:0:0:
64,192,128449,1,0,0:0:0:0:
192,192,128449,1,0,0:0:0:0:
448,192,128526,1,0,0:0:0:0:
320,192,128565,1,0,0:0:0:0:
192,192,128603,1,0,0:0:0:0:
64,192,128641,1,0,0:0:0:0:
320,192,128680,1,0,0:0:0:0:
448,192,128680,1,0,0:0:0:0:
320,192,128834,1,0,0:0:0:0:
192,192,128834,1,0,0:0:0:0:
192,192,128988,1,0,0:0:0:0:
64,192,128988,1,0,0:0:0:0:
448,192,128988,1,0,0:0:0:0:
320,192,129141,128,0,129295:0:0:0:0:
192,192,129295,1,0,0:0:0:0:
64,192,129449,1,0,0:0:0:0:
320,192,129449,1,0,0:0:0:0:
448,192,129449,1,0,0:0:0:0:
192,192,129603,1,0,0:0:0:0:
448,192,129603,1,0,0:0:0:0:
320,192,129757,1,0,0:0:0:0:
64,192,129757,1,0,0:0:0:0:
192,192,129911,1,0,0:0:0:0:
448,192,129911,1,0,0:0:0:0:
320,192,129911,1,0,0:0:0:0:
448,192,130065,1,0,0:0:0:0:
448,192,130141,1,0,0:0:0:0:
64,192,130218,1,0,0:0:0:0:
192,192,130238,1,0,0:0:0:0:
320,192,130257,1,0,0:0:0:0:
448,192,130276,1,0,0:0:0:0:
64,192,130295,1,0,0:0:0:0:
192,192,130315,1,0,0:0:0:0:
320,192,130334,1,0,0:0:0:0:
448,192,130353,1,0,0:0:0:0:
64,192,130372,1,0,0:0:0:0:
192,192,130391,1,0,0:0:0:0:
320,192,130411,1,0,0:0:0:0:
448,192,130430,1,0,0:0:0:0:
64,192,130449,1,0,0:0:0:0:
192,192,130468,1,0,0:0:0:0:
320,192,130488,1,0,0:0:0:0:
448,192,130507,1,0,0:0:0:0:
64,192,130526,1,0,0:0:0:0:
192,192,130526,1,0,0:0:0:0:
320,192,130603,1,0,0:0:0:0:
448,192,130680,1,0,0:0:0:0:
64,192,130757,1,0,0:0:0:0:
448,192,130834,1,0,0:0:0:0:
320,192,130834,1,0,0:0:0:0:
192,192,130834,1,0,0:0:0:0:
64,192,130911,1,0,0:0:0:0:
192,192,130988,1,0,0:0:0:0:
320,192,131065,1,0,0:0:0:0:
192,192,131141,1,0,0:0:0:0:
64,192,131141,1,0,0:0:0:0:
448,192,131218,1,0,0:0:0:0:
192,192,131295,1,0,0:0:0:0:
448,192,131372,1,0,0:0:0:0:
320,192,131449,1,0,0:0:0:0:
192,192,131449,1,0,0:0:0:0:
64,192,131449,1,0,0:0:0:0:
448,192,131526,1,0,0:0:0:0:
320,192,131603,1,0,0:0:0:0:
192,192,131680,1,0,0:0:0:0:
320,192,131757,1,0,0:0:0:0:
448,192,131757,1,0,0:0:0:0:
64,192,131834,1,0,0:0:0:0:
320,192,131911,1,0,0:0:0:0:
64,192,131988,1,0,0:0:0:0:
320,192,132065,1,0,0:0:0:0:
192,192,132065,1,0,0:0:0:0:
448,192,132065,1,0,0:0:0:0:
64,192,132141,1,0,0:0:0:0:
192,192,132218,1,0,0:0:0:0:
448,192,132218,1,0,0:0:0:0:
64,192,132295,1,0,0:0:0:0:
320,192,132295,1,0,0:0:0:0:
448,192,132372,1,0,0:0:0:0:
192,192,132372,1,0,0:0:0:0:
320,192,132449,1,0,0:0:0:0:
192,192,132526,1,0,0:0:0:0:
64,192,132526,1,0,0:0:0:0:
448,192,132603,1,0,0:0:0:0:
320,192,132680,1,0,0:0:0:0:
192,192,132680,1,0,0:0:0:0:
64,192,132680,1,0,0:0:0:0:
448,192,132757,1,0,0:0:0:0:
64,192,132834,1,0,0:0:0:0:
320,192,132834,1,0,0:0:0:0:
448,192,132911,1,0,0:0:0:0:
192,192,132911,1,0,0:0:0:0:
64,192,132988,1,0,0:0:0:0:
320,192,132988,1,0,0:0:0:0:
192,192,133065,1,0,0:0:0:0:
448,192,133141,1,0,0:0:0:0:
320,192,133218,1,0,0:0:0:0:
64,192,133295,1,0,0:0:0:0:
192,192,133295,1,0,0:0:0:0:
448,192,133295,1,0,0:0:0:0:
320,192,133372,1,0,0:0:0:0:
64,192,133449,1,0,0:0:0:0:
192,192,133526,1,0,0:0:0:0:
320,192,133603,1,0,0:0:0:0:
448,192,133603,1,0,0:0:0:0:
192,192,133680,1,0,0:0:0:0:
64,192,133757,1,0,0:0:0:0:
448,192,133834,1,0,0:0:0:0:
64,192,133911,1,0,0:0:0:0:
192,192,133911,1,0,0:0:0:0:
320,192,133911,1,0,0:0:0:0:
448,192,133988,1,0,0:0:0:0:
320,192,134065,1,0,0:0:0:0:
192,192,134065,1,0,0:0:0:0:
64,192,134141,1,0,0:0:0:0:
448,192,134218,1,0,0:0:0:0:
192,192,134218,1,0,0:0:0:0:
320,192,134295,1,0,0:0:0:0:
448,192,134372,1,0,0:0:0:0:
64,192,134449,1,0,0:0:0:0:
448,192,134526,1,0,0:0:0:0:
320,192,134526,1,0,0:0:0:0:
192,192,134526,1,0,0:0:0:0:
64,192,134603,1,0,0:0:0:0:
320,192,134680,1,0,0:0:0:0:
192,192,134757,1,0,0:0:0:0:
320,192,134834,1,0,0:0:0:0:
64,192,134834,1,0,0:0:0:0:
448,192,134911,1,0,0:0:0:0:
192,192,134988,1,0,0:0:0:0:
320,192,135065,1,0,0:0:0:0:
192,192,135141,1,0,0:0:0:0:
448,192,135141,1,0,0:0:0:0:
64,192,135141,1,0,0:0:0:0:
320,192,135218,1,0,0:0:0:0:
192,192,135295,1,0,0:0:0:0:
64,192,135372,1,0,0:0:0:0:
448,192,135449,1,0,0:0:0:0:
192,192,135449,1,0,0:0:0:0:
320,192,135449,1,0,0:0:0:0:
64,192,135526,1,0,0:0:0:0:
320,192,135603,1,0,0:0:0:0:
192,192,135680,1,0,0:0:0:0:
64,192,135757,1,0,0:0:0:0:
320,192,135757,1,0,0:0:0:0:
192,192,135834,1,0,0:0:0:0:
448,192,135911,1,0,0:0:0:0:
320,192,135988,1,0,0:0:0:0:
192,192,136065,1,0,0:0:0:0:
448,192,136065,1,0,0:0:0:0:
64,192,136065,1,0,0:0:0:0:
320,192,136141,1,0,0:0:0:0:
64,192,136218,1,0,0:0:0:0:
192,192,136295,1,0,0:0:0:0:
448,192,136372,1,0,0:0:0:0:
320,192,136372,1,0,0:0:0:0:
192,192,136449,1,0,0:0:0:0:
64,192,136526,1,0,0:0:0:0:
448,192,136603,1,0,0:0:0:0:
192,192,136680,1,0,0:0:0:0:
64,192,136680,1,0,0:0:0:0:
320,192,136757,1,0,0:0:0:0:
64,192,136834,1,0,0:0:0:0:
320,192,136911,1,0,0:0:0:0:
64,192,136988,1,0,0:0:0:0:
448,192,136988,1,0,0:0:0:0:
192,192,136988,1,0,0:0:0:0:
320,192,137065,1,0,0:0:0:0:
192,192,137141,1,0,0:0:0:0:
64,192,137218,1,0,0:0:0:0:
448,192,137295,1,0,0:0:0:0:
192,192,137295,1,0,0:0:0:0:
320,192,137372,1,0,0:0:0:0:
192,192,137449,1,0,0:0:0:0:
64,192,137449,1,0,0:0:0:0:
64,192,137526,1,0,0:0:0:0:
192,192,137526,1,0,0:0:0:0:
320,192,137603,1,0,0:0:0:0:
448,192,137603,1,0,0:0:0:0:
320,192,137757,1,0,0:0:0:0:
192,192,137757,1,0,0:0:0:0:
64,192,137757,1,0,0:0:0:0:
448,192,138065,1,0,0:0:0:0:
192,192,138065,1,0,0:0:0:0:
192,192,138218,1,0,0:0:0:0:
64,192,138218,1,0,0:0:0:0:
320,192,138218,1,0,0:0:0:0:
448,192,138372,1,0,0:0:0:0:
192,192,138372,1,0,0:0:0:0:
64,192,138526,1,0,0:0:0:0:
320,192,138526,1,0,0:0:0:0:
192,192,138526,1,0,0:0:0:0:
448,192,138680,1,0,0:0:0:0:
192,192,138834,1,0,0:0:0:0:
64,192,138834,1,0,0:0:0:0:
320,192,138988,1,0,0:0:0:0:
192,192,138988,1,0,0:0:0:0:
64,192,139141,1,0,0:0:0:0:
448,192,139141,1,0,0:0:0:0:
320,192,139141,1,0,0:0:0:0:
320,192,139295,1,0,0:0:0:0:
192,192,139295,1,0,0:0:0:0:
320,192,139449,1,0,0:0:0:0:
64,192,139449,1,0,0:0:0:0:
448,192,139449,1,0,0:0:0:0:
192,192,139603,1,0,0:0:0:0:
448,192,139757,1,0,0:0:0:0:
64,192,139757,1,0,0:0:0:0:
320,192,139757,1,0,0:0:0:0:
192,192,139834,1,0,0:0:0:0:
448,192,139911,1,0,0:0:0:0:
320,192,139911,1,0,0:0:0:0:
64,192,139911,1,0,0:0:0:0:
192,192,139988,1,0,0:0:0:0:
448,192,140065,1,0,0:0:0:0:
320,192,140065,1,0,0:0:0:0:
64,192,140065,1,0,0:0:0:0:
192,192,140141,1,0,0:0:0:0:
64,192,140218,1,0,0:0:0:0:
320,192,140218,1,0,0:0:0:0:
192,192,140295,1,0,0:0:0:0:
448,192,140295,1,0,0:0:0:0:
64,192,140372,1,0,0:0:0:0:
192,192,140372,1,0,0:0:0:0:
448,192,140372,1,0,0:0:0:0:
320,192,140449,1,0,0:0:0:0:
64,192,140526,1,0,0:0:0:0:
192,192,140603,1,0,0:0:0:0:
320,192,140680,1,0,0:0:0:0:
448,192,140680,1,0,0:0:0:0:
64,192,140680,1,0,0:0:0:0:
192,192,140757,1,0,0:0:0:0:
448,192,140834,1,0,0:0:0:0:
192,192,140911,1,0,0:0:0:0:
320,192,140988,1,0,0:0:0:0:
64,192,140988,1,0,0:0:0:0:
448,192,141065,1,0,0:0:0:0:
320,192,141141,1,0,0:0:0:0:
192,192,141218,1,0,0:0:0:0:
64,192,141295,1,0,0:0:0:0:
448,192,141295,1,0,0:0:0:0:
320,192,141295,1,0,0:0:0:0:
192,192,141372,1,0,0:0:0:0:
448,192,141449,1,0,0:0:0:0:
320,192,141526,1,0,0:0:0:0:
192,192,141603,1,0,0:0:0:0:
64,192,141603,1,0,0:0:0:0:
320,192,141680,1,0,0:0:0:0:
64,192,141757,1,0,0:0:0:0:
448,192,141834,1,0,0:0:0:0:
64,192,141911,1,0,0:0:0:0:
192,192,141911,1,0,0:0:0:0:
320,192,141911,1,0,0:0:0:0:
448,192,141988,1,0,0:0:0:0:
192,192,142065,1,0,0:0:0:0:
320,192,142141,1,0,0:0:0:0:
192,192,142218,1,0,0:0:0:0:
64,192,142218,1,0,0:0:0:0:
448,192,142295,1,0,0:0:0:0:
320,192,142372,1,0,0:0:0:0:
192,192,142449,1,0,0:0:0:0:
448,192,142526,1,0,0:0:0:0:
320,192,142526,1,0,0:0:0:0:
64,192,142526,1,0,0:0:0:0:
192,192,142603,1,0,0:0:0:0:
320,192,142680,1,0,0:0:0:0:
64,192,142680,1,0,0:0:0:0:
64,192,142757,1,0,0:0:0:0:
320,192,142757,1,0,0:0:0:0:
192,192,142834,1,0,0:0:0:0:
448,192,142834,1,0,0:0:0:0:
320,192,142911,1,0,0:0:0:0:
192,192,142988,1,0,0:0:0:0:
64,192,143065,1,0,0:0:0:0:
448,192,143141,1,0,0:0:0:0:
320,192,143141,1,0,0:0:0:0:
192,192,143141,1,0,0:0:0:0:
64,192,143218,1,0,0:0:0:0:
320,192,143295,1,0,0:0:0:0:
192,192,143372,1,0,0:0:0:0:
448,192,143449,1,0,0:0:0:0:
64,192,143449,1,0,0:0:0:0:
320,192,143526,1,0,0:0:0:0:
448,192,143603,1,0,0:0:0:0:
192,192,143680,1,0,0:0:0:0:
320,192,143757,1,0,0:0:0:0:
448,192,143757,1,0,0:0:0:0:
64,192,143757,1,0,0:0:0:0:
192,192,143834,1,0,0:0:0:0:
448,192,143911,1,0,0:0:0:0:
192,192,143988,1,0,0:0:0:0:
320,192,144065,1,0,0:0:0:0:
64,192,144065,1,0,0:0:0:0:
448,192,144141,1,0,0:0:0:0:
320,192,144218,1,0,0:0:0:0:
192,192,144295,1,0,0:0:0:0:
448,192,144372,1,0,0:0:0:0:
320,192,144372,1,0,0:0:0:0:
64,192,144372,1,0,0:0:0:0:
192,192,144449,1,0,0:0:0:0:
320,192,144526,1,0,0:0:0:0:
448,192,144603,1,0,0:0:0:0:
64,192,144680,1,0,0:0:0:0:
192,192,144680,1,0,0:0:0:0:
320,192,144757,1,0,0:0:0:0:
448,192,144834,1,0,0:0:0:0:
192,192,144834,1,0,0:0:0:0:
192,192,144911,1,0,0:0:0:0:
448,192,144911,1,0,0:0:0:0:
320,192,144988,1,0,0:0:0:0:
64,192,144988,1,0,0:0:0:0:
192,192,145065,1,0,0:0:0:0:
448,192,145141,1,0,0:0:0:0:
320,192,145141,1,0,0:0:0:0:
320,192,145218,1,0,0:0:0:0:
448,192,145218,1,0,0:0:0:0:
192,192,145295,1,0,0:0:0:0:
64,192,145295,1,0,0:0:0:0:
448,192,145449,1,0,0:0:0:0:
320,192,145603,1,0,0:0:0:0:
64,192,145603,1,0,0:0:0:0:
192,192,145603,1,0,0:0:0:0:
448,192,145757,1,0,0:0:0:0:
320,192,145911,1,0,0:0:0:0:
64,192,145911,1,0,0:0:0:0:
192,192,146065,1,0,0:0:0:0:
448,192,146218,1,0,0:0:0:0:
320,192,146218,1,0,0:0:0:0:
64,192,146218,1,0,0:0:0:0:
192,192,146372,1,0,0:0:0:0:
448,192,146526,1,0,0:0:0:0:
64,192,146526,1,0,0:0:0:0:
320,192,146680,1,0,0:0:0:0:
192,192,146834,1,0,0:0:0:0:
64,192,146834,1,0,0:0:0:0:
448,192,146834,1,0,0:0:0:0:
320,192,146988,1,0,0:0:0:0:
448,192,147141,1,0,0:0:0:0:
192,192,147141,1,0,0:0:0:0:
320,192,147295,1,0,0:0:0:0:
64,192,147295,1,0,0:0:0:0:
64,192,147372,1,0,0:0:0:0:
320,192,147372,1,0,0:0:0:0:
448,192,147449,1,0,0:0:0:0:
192,192,147449,1,0,0:0:0:0:
448,192,147603,1,0,0:0:0:0:
64,192,147603,1,0,0:0:0:0:
320,192,147603,1,0,0:0:0:0:
64,192,147757,1,0,0:0:0:0:
192,192,147911,1,0,0:0:0:0:
320,192,147911,1,0,0:0:0:0:
448,192,148065,1,0,0:0:0:0:
192,192,148065,1,0,0:0:0:0:
64,192,148065,1,0,0:0:0:0:
192,192,148218,1,0,0:0:0:0:
320,192,148218,1,0,0:0:0:0:
192,192,148372,1,0,0:0:0:0:
448,192,148372,1,0,0:0:0:0:
64,192,148372,1,0,0:0:0:0:
64,192,148680,1,0,0:0:0:0:
320,192,148680,1,0,0:0:0:0:
192,192,148834,1,0,0:0:0:0:
320,192,148834,1,0,0:0:0:0:
448,192,148834,1,0,0:0:0:0:
64,192,148988,1,0,0:0:0:0:
320,192,148988,1,0,0:0:0:0:
448,192,149141,1,0,0:0:0:0:
64,192,149295,1,0,0:0:0:0:
320,192,149295,1,0,0:0:0:0:
192,192,149295,1,0,0:0:0:0:
192,192,149603,1,0,0:0:0:0:
448,192,149603,1,0,0:0:0:0:
64,192,149603,1,0,0:0:0:0:
320,192,149680,1,0,0:0:0:0:
192,192,149757,1,0,0:0:0:0:
64,192,149757,1,0,0:0:0:0:
192,192,149834,1,0,0:0:0:0:
64,192,149834,1,0,0:0:0:0:
320,192,149911,1,0,0:0:0:0:
448,192,149911,1,0,0:0:0:0:
320,192,150065,1,0,0:0:0:0:
192,192,150065,128,0,150526:0:0:0:0:
64,192,150065,1,0,0:0:0:0:
448,192,150372,1,0,0:0:0:0:
64,192,150526,1,0,0:0:0:0:
320,192,150526,1,0,0:0:0:0:
320,192,150834,1,0,0:0:0:0:
64,192,150834,1,0,0:0:0:0:
192,192,150988,1,0,0:0:0:0:
448,192,150988,1,0,0:0:0:0:
192,192,151141,1,0,0:0:0:0:
320,192,151141,1,0,0:0:0:0:
64,192,151141,1,0,0:0:0:0:
192,192,151449,1,0,0:0:0:0:
64,192,151449,1,0,0:0:0:0:
448,192,151757,1,0,0:0:0:0:
320,192,151757,1,0,0:0:0:0:
192,192,151757,1,0,0:0:0:0:
64,192,152065,1,0,0:0:0:0:
192,192,152065,1,0,0:0:0:0:
320,192,152218,1,0,0:0:0:0:
448,192,152218,1,0,0:0:0:0:
64,192,152295,1,0,0:0:0:0:
192,192,152295,1,0,0:0:0:0:
448,192,152372,1,0,0:0:0:0:
320,192,152372,1,0,0:0:0:0:
192,192,152449,1,0,0:0:0:0:
64,192,152526,1,0,0:0:0:0:
320,192,152526,1,0,0:0:0:0:
448,192,152603,1,0,0:0:0:0:
64,192,152680,1,0,0:0:0:0:
192,192,152680,1,0,0:0:0:0:
320,192,152680,1,0,0:0:0:0:
448,192,152988,1,0,0:0:0:0:
192,192,152988,1,0,0:0:0:0:
64,192,153141,1,0,0:0:0:0:
448,192,153141,1,0,0:0:0:0:
448,192,153295,1,0,0:0:0:0:
192,192,153295,1,0,0:0:0:0:
320,192,153295,1,0,0:0:0:0:
64,192,153449,1,0,0:0:0:0:
448,192,153449,1,0,0:0:0:0:
192,192,153449,1,0,0:0:0:0:
320,192,153603,1,0,0:0:0:0:
192,192,153603,1,0,0:0:0:0:
448,192,153603,1,0,0:0:0:0:
64,192,153757,1,0,0:0:0:0:
192,192,153757,1,0,0:0:0:0:
320,192,153757,1,0,0:0:0:0:
448,192,153911,128,0,154295:0:0:0:0:
320,192,154065,128,0,154449:0:0:0:0:
192,192,154218,128,0,154603:0:0:0:0:
448,192,154372,128,0,154834:0:0:0:0:
320,192,154526,128,0,154757:0:0:0:0:
192,192,154680,128,0,154834:0:0:0:0:
320,192,154834,1,0,0:0:0:0:
64,192,154988,128,0,157295:0:0:0:0:
192,192,154988,128,0,157295:0:0:0:0:
448,192,154988,128,0,157295:0:0:0:0:
320,192,157295,1,0,0:0:0:0:
320,192,157449,1,0,0:0:0:0:
192,192,157603,1,0,0:0:0:0:
64,192,157603,128,0,159757:0:0:0:0:
448,192,157603,1,0,0:0:0:0:
320,192,157757,1,0,0:0:0:0:
192,192,157911,1,0,0:0:0:0:
448,192,158065,1,0,0:0:0:0:
320,192,158218,1,0,0:0:0:0:
192,192,158372,1,0,0:0:0:0:
320,192,158526,128,0,158834:0:0:0:0:
448,192,158834,1,0,0:0:0:0:
320,192,158988,1,0,0:0:0:0:
192,192,159141,1,0,0:0:0:0:
448,192,159295,1,0,0:0:0:0:
320,192,159449,1,0,0:0:0:0:
192,192,159449,1,0,0:0:0:0:
448,192,159603,1,0,0:0:0:0:
320,192,159757,1,0,0:0:0:0:
320,192,159911,1,0,0:0:0:0:
192,192,160065,1,0,0:0:0:0:
64,192,160065,128,0,160988:0:0:0:0:
448,192,160065,128,0,160603:0:0:0:0:
448,192,160680,128,0,160988:0:0:0:0:
320,192,160988,1,0,0:0:0:0:
320,192,161141,1,0,0:0:0:0:
192,192,161295,1,0,0:0:0:0:
64,192,161295,128,0,162218:0:0:0:0:
448,192,161295,128,0,161834:0:0:0:0:
448,192,161911,128,0,162218:0:0:0:0:
320,192,162218,1,0,0:0:0:0:
320,192,162372,1,0,0:0:0:0:
192,192,162526,1,0,0:0:0:0:
64,192,162526,128,0,163065:0:0:0:0:
448,192,162526,128,0,163065:0:0:0:0:
192,192,163141,1,0,0:0:0:0:
64,192,163141,128,0,163526:0:0:0:0:
448,192,163141,128,0,163680:0:0:0:0:
64,192,163603,128,0,163757:0:0:0:0:
192,192,163757,1,0,0:0:0:0:
320,192,163757,1,0,0:0:0:0:
448,192,163757,1,0,0:0:0:0:
64,192,163911,1,0,0:0:0:0:
192,192,163911,1,0,0:0:0:0:
320,192,163988,1,0,0:0:0:0:
448,192,163988,1,0,0:0:0:0:
192,192,164065,1,0,0:0:0:0:
64,192,164065,1,0,0:0:0:0:
192,192,164218,1,0,0:0:0:0:
448,192,164218,1,0,0:0:0:0:
192,192,164372,1,0,0:0:0:0:
64,192,164372,1,0,0:0:0:0:
192,192,164526,1,0,0:0:0:0:
448,192,164526,1,0,0:0:0:0:
192,192,164680,1,0,0:0:0:0:
64,192,164680,1,0,0:0:0:0:
192,192,164834,1,0,0:0:0:0:
448,192,164834,1,0,0:0:0:0:
192,192,164988,1,0,0:0:0:0:
64,192,164988,1,0,0:0:0:0:
320,192,164988,1,0,0:0:0:0:
64,192,165141,1,0,0:0:0:0:
320,192,165141,1,0,0:0:0:0:
448,192,165295,1,0,0:0:0:0:
320,192,165449,1,0,0:0:0:0:
192,192,165449,1,0,0:0:0:0:
192,192,165603,1,0,0:0:0:0:
64,192,165603,1,0,0:0:0:0:
448,192,165603,128,0,165911:0:0:0:0:
64,192,165911,1,0,0:0:0:0:
320,192,165911,1,0,0:0:0:0:
64,192,166065,1,0,0:0:0:0:
320,192,166065,1,0,0:0:0:0:
448,192,166218,1,0,0:0:0:0:
320,192,166372,1,0,0:0:0:0:
64,192,166372,1,0,0:0:0:0:
448,192,166526,1,0,0:0:0:0:
320,192,166526,1,0,0:0:0:0:
192,192,166526,128,0,166834:0:0:0:0:
64,192,166834,1,0,0:0:0:0:
320,192,166834,1,0,0:0:0:0:
448,192,166988,1,0,0:0:0:0:
192,192,166988,1,0,0:0:0:0:
320,192,167141,1,0,0:0:0:0:
192,192,167141,1,0,0:0:0:0:
64,192,167141,1,0,0:0:0:0:
448,192,167295,1,0,0:0:0:0:
64,192,167449,1,0,0:0:0:0:
320,192,167449,1,0,0:0:0:0:
192,192,167603,1,0,0:0:0:0:
448,192,167603,1,0,0:0:0:0:
64,192,167757,1,0,0:0:0:0:
192,192,167757,1,0,0:0:0:0:
320,192,167911,1,0,0:0:0:0:
192,192,167911,1,0,0:0:0:0:
320,192,168065,1,0,0:0:0:0:
448,192,168065,1,0,0:0:0:0:
64,192,168065,128,0,168372:0:0:0:0:
192,192,168372,1,0,0:0:0:0:
448,192,168372,1,0,0:0:0:0:
64,192,168526,1,0,0:0:0:0:
320,192,168526,1,0,0:0:0:0:
192,192,168680,1,0,0:0:0:0:
448,192,168680,1,0,0:0:0:0:
320,192,168834,1,0,0:0:0:0:
192,192,168834,1,0,0:0:0:0:
64,192,168988,1,0,0:0:0:0:
320,192,168988,1,0,0:0:0:0:
448,192,168988,128,0,169295:0:0:0:0:
192,192,169295,1,0,0:0:0:0:
320,192,169295,1,0,0:0:0:0:
320,192,169449,1,0,0:0:0:0:
192,192,169449,1,0,0:0:0:0:
64,192,169603,1,0,0:0:0:0:
320,192,169603,1,0,0:0:0:0:
448,192,169603,128,0,169911:0:0:0:0:
64,192,169911,1,0,0:0:0:0:
192,192,169911,1,0,0:0:0:0:
192,192,170065,1,0,0:0:0:0:
64,192,170065,1,0,0:0:0:0:
448,192,170218,1,0,0:0:0:0:
192,192,170372,1,0,0:0:0:0:
320,192,170372,1,0,0:0:0:0:
448,192,170526,1,0,0:0:0:0:
192,192,170526,1,0,0:0:0:0:
64,192,170526,128,0,170834:0:0:0:0:
320,192,170834,1,0,0:0:0:0:
448,192,170834,1,0,0:0:0:0:
448,192,170988,1,0,0:0:0:0:
320,192,170988,1,0,0:0:0:0:
64,192,171141,1,0,0:0:0:0:
192,192,171295,1,0,0:0:0:0:
320,192,171295,1,0,0:0:0:0:
64,192,171449,1,0,0:0:0:0:
192,192,171449,1,0,0:0:0:0:
448,192,171449,1,0,0:0:0:0:
320,192,171603,1,0,0:0:0:0:
192,192,171680,1,0,0:0:0:0:
320,192,171757,1,0,0:0:0:0:
448,192,171757,1,0,0:0:0:0:
192,192,171911,1,0,0:0:0:0:
320,192,171911,1,0,0:0:0:0:
192,192,172065,1,0,0:0:0:0:
64,192,172065,1,0,0:0:0:0:
448,192,172065,1,0,0:0:0:0:
320,192,172218,128,0,172372:0:0:0:0:
448,192,172372,1,0,0:0:0:0:
192,192,172372,128,0,172526:0:0:0:0:
320,192,172526,1,0,0:0:0:0:
64,192,172526,128,0,172680:0:0:0:0:
320,192,172680,1,0,0:0:0:0:
448,192,172680,1,0,0:0:0:0:
192,192,172680,128,0,172834:0:0:0:0:
320,192,172834,128,0,172988:0:0:0:0:
64,192,172988,1,0,0:0:0:0:
192,192,172988,1,0,0:0:0:0:
448,192,172988,128,0,173141:0:0:0:0:
320,192,173141,128,0,173295:0:0:0:0:
448,192,173295,128,0,173449:0:0:0:0:
192,192,173295,1,0,0:0:0:0:
320,192,173449,128,0,173603:0:0:0:0:
192,192,173449,1,0,0:0:0:0:
64,192,173603,128,0,173911:0:0:0:0:
192,192,173757,1,0,0:0:0:0:
448,192,173757,1,0,0:0:0:0:
192,192,173911,1,0,0:0:0:0:
448,192,173911,1,0,0:0:0:0:
320,192,173911,128,0,174218:0:0:0:0:
192,192,174218,128,0,174526:0:0:0:0:
64,192,174449,1,0,0:0:0:0:
320,192,174526,1,0,0:0:0:0:
448,192,174526,1,0,0:0:0:0:
320,192,174680,1,0,0:0:0:0:
192,192,174680,1,0,0:0:0:0:
192,192,174834,1,0,0:0:0:0:
64,192,174834,1,0,0:0:0:0:
448,192,174834,1,0,0:0:0:0:
64,192,174988,1,0,0:0:0:0:
320,192,174988,1,0,0:0:0:0:
448,192,175141,1,0,0:0:0:0:
320,192,175295,1,0,0:0:0:0:
192,192,175295,1,0,0:0:0:0:
64,192,175449,1,0,0:0:0:0:
192,192,175449,1,0,0:0:0:0:
448,192,175449,128,0,175757:0:0:0:0:
320,192,175757,1,0,0:0:0:0:
64,192,175757,1,0,0:0:0:0:
320,192,175911,1,0,0:0:0:0:
64,192,175911,1,0,0:0:0:0:
448,192,176065,1,0,0:0:0:0:
320,192,176218,1,0,0:0:0:0:
64,192,176218,1,0,0:0:0:0:
320,192,176372,1,0,0:0:0:0:
192,192,176372,128,0,176680:0:0:0:0:
448,192,176372,1,0,0:0:0:0:
64,192,176680,1,0,0:0:0:0:
320,192,176680,1,0,0:0:0:0:
448,192,176834,1,0,0:0:0:0:
192,192,176834,1,0,0:0:0:0:
320,192,176988,1,0,0:0:0:0:
64,192,176988,1,0,0:0:0:0:
192,192,176988,128,0,177295:0:0:0:0:
320,192,177295,1,0,0:0:0:0:
64,192,177295,1,0,0:0:0:0:
192,192,177449,1,0,0:0:0:0:
448,192,177449,1,0,0:0:0:0:
448,192,177603,1,0,0:0:0:0:
320,192,177757,1,0,0:0:0:0:
192,192,177757,1,0,0:0:0:0:
320,192,177911,1,0,0:0:0:0:
64,192,177911,128,0,178218:0:0:0:0:
448,192,177911,1,0,0:0:0:0:
192,192,178218,1,0,0:0:0:0:
448,192,178218,1,0,0:0:0:0:
320,192,178372,1,0,0:0:0:0:
64,192,178372,1,0,0:0:0:0:
448,192,178526,1,0,0:0:0:0:
192,192,178526,1,0,0:0:0:0:
320,192,178680,1,0,0:0:0:0:
192,192,178680,1,0,0:0:0:0:
320,192,178834,1,0,0:0:0:0:
64,192,178834,1,0,0:0:0:0:
448,192,178834,128,0,179141:0:0:0:0:
320,192,179141,1,0,0:0:0:0:
192,192,179141,1,0,0:0:0:0:
320,192,179295,1,0,0:0:0:0:
192,192,179295,1,0,0:0:0:0:
448,192,179449,128,0,179757:0:0:0:0:
320,192,179449,1,0,0:0:0:0:
64,192,179449,1,0,0:0:0:0:
192,192,179757,1,0,0:0:0:0:
64,192,179757,1,0,0:0:0:0:
64,192,179911,1,0,0:0:0:0:
192,192,179911,1,0,0:0:0:0:
448,192,180065,1,0,0:0:0:0:
320,192,180218,1,0,0:0:0:0:
192,192,180218,1,0,0:0:0:0:
192,192,180372,1,0,0:0:0:0:
448,192,180372,1,0,0:0:0:0:
64,192,180372,128,0,180680:0:0:0:0:
448,192,180680,1,0,0:0:0:0:
320,192,180680,1,0,0:0:0:0:
320,192,180834,1,0,0:0:0:0:
448,192,180834,1,0,0:0:0:0:
64,192,180988,1,0,0:0:0:0:
192,192,181141,1,0,0:0:0:0:
320,192,181141,1,0,0:0:0:0:
192,192,181295,1,0,0:0:0:0:
64,192,181295,1,0,0:0:0:0:
448,192,181295,1,0,0:0:0:0:
320,192,181449,1,0,0:0:0:0:
192,192,181526,1,0,0:0:0:0:
64,192,181526,1,0,0:0:0:0:
448,192,181603,1,0,0:0:0:0:
320,192,181603,1,0,0:0:0:0:
192,192,181757,1,0,0:0:0:0:
320,192,181757,1,0,0:0:0:0:
192,192,181911,1,0,0:0:0:0:
448,192,181911,1,0,0:0:0:0:
64,192,181911,128,0,182218:0:0:0:0:
448,192,182218,1,0,0:0:0:0:
192,192,182218,1,0,0:0:0:0:
64,192,182372,1,0,0:0:0:0:
320,192,182372,1,0,0:0:0:0:
192,192,182526,1,0,0:0:0:0:
448,192,182680,1,0,0:0:0:0:
320,192,182680,1,0,0:0:0:0:
64,192,182834,1,0,0:0:0:0:
192,192,182834,1,0,0:0:0:0:
448,192,182834,1,0,0:0:0:0:
64,192,182988,1,0,0:0:0:0:
192,192,183141,1,0,0:0:0:0:
320,192,183141,1,0,0:0:0:0:
320,192,183295,1,0,0:0:0:0:
64,192,183295,1,0,0:0:0:0:
192,192,183449,1,0,0:0:0:0:
448,192,183449,1,0,0:0:0:0:
320,192,183603,1,0,0:0:0:0:
64,192,183603,1,0,0:0:0:0:
64,192,183757,1,0,0:0:0:0:
448,192,183757,1,0,0:0:0:0:
192,192,183757,1,0,0:0:0:0:
320,192,183911,1,0,0:0:0:0:
192,192,183911,1,0,0:0:0:0:
448,192,184065,1,0,0:0:0:0:
64,192,184065,1,0,0:0:0:0:
320,192,184218,1,0,0:0:0:0:
192,192,184218,1,0,0:0:0:0:
192,192,184295,1,0,0:0:0:0:
320,192,184295,1,0,0:0:0:0:
448,192,184372,1,0,0:0:0:0:
64,192,184372,1,0,0:0:0:0:
320,192,184449,1,0,0:0:0:0:
64,192,184526,1,0,0:0:0:0:
192,192,184603,1,0,0:0:0:0:
64,192,184680,1,0,0:0:0:0:
448,192,184680,1,0,0:0:0:0:
320,192,184680,1,0,0:0:0:0:
320,192,184988,1,0,0:0:0:0:
448,192,184988,1,0,0:0:0:0:
64,192,184988,1,0,0:0:0:0:
448,192,185295,1,0,0:0:0:0:
320,192,185295,1,0,0:0:0:0:
64,192,185295,1,0,0:0:0:0:
320,192,185603,1,0,0:0:0:0:
448,192,185603,1,0,0:0:0:0:
64,192,185603,1,0,0:0:0:0:
64,192,185911,1,0,0:0:0:0:
320,192,185911,1,0,0:0:0:0:
448,192,185911,1,0,0:0:0:0:
320,192,186218,1,0,0:0:0:0:
64,192,186218,1,0,0:0:0:0:
448,192,186218,1,0,0:0:0:0:
448,192,186526,1,0,0:0:0:0:
320,192,186526,1,0,0:0:0:0:
64,192,186526,1,0,0:0:0:0:
192,192,186680,1,0,0:0:0:0:
320,192,186680,1,0,0:0:0:0:
64,192,186834,1,0,0:0:0:0:
320,192,186834,1,0,0:0:0:0:
448,192,186834,1,0,0:0:0:0:
192,192,186988,1,0,0:0:0:0:
320,192,186988,1,0,0:0:0:0:
64,192,187141,1,0,0:0:0:0:
320,192,187141,1,0,0:0:0:0:
448,192,187141,1,0,0:0:0:0:
320,192,187449,1,0,0:0:0:0:
64,192,187449,1,0,0:0:0:0:
448,192,187449,1,0,0:0:0:0:
192,192,187603,1,0,0:0:0:0:
320,192,187757,1,0,0:0:0:0:
64,192,187757,1,0,0:0:0:0:
448,192,187757,1,0,0:0:0:0:
192,192,187911,1,0,0:0:0:0:
64,192,188065,1,0,0:0:0:0:
320,192,188065,1,0,0:0:0:0:
448,192,188065,1,0,0:0:0:0:
320,192,188218,1,0,0:0:0:0:
192,192,188295,1,0,0:0:0:0:
64,192,188372,1,0,0:0:0:0:
448,192,188372,1,0,0:0:0:0:
320,192,188372,1,0,0:0:0:0:
192,192,188526,1,0,0:0:0:0:
448,192,188526,1,0,0:0:0:0:
64,192,188680,1,0,0:0:0:0:
448,192,188680,1,0,0:0:0:0:
320,192,188680,1,0,0:0:0:0:
192,192,188834,1,0,0:0:0:0:
448,192,188834,1,0,0:0:0:0:
320,192,188988,1,0,0:0:0:0:
64,192,188988,1,0,0:0:0:0:
448,192,188988,1,0,0:0:0:0:
320,192,189141,1,0,0:0:0:0:
192,192,189141,1,0,0:0:0:0:
64,192,189141,1,0,0:0:0:0:
448,192,189141,1,0,0:0:0:0:
448,192,189449,1,0,0:0:0:0:
320,192,189449,1,0,0:0:0:0:
192,192,189449,1,0,0:0:0:0:
64,192,189449,1,0,0:0:0:0:
192,192,189603,1,0,0:0:0:0:
448,192,189603,1,0,0:0:0:0:
64,192,189757,1,0,0:0:0:0:
192,192,189911,1,0,0:0:0:0:
320,192,189911,1,0,0:0:0:0:
448,192,190065,1,0,0:0:0:0:
192,192,190218,1,0,0:0:0:0:
64,192,190218,1,0,0:0:0:0:
448,192,190218,1,0,0:0:0:0:
192,192,190526,1,0,0:0:0:0:
64,192,190526,1,0,0:0:0:0:
448,192,190526,1,0,0:0:0:0:
448,192,190834,1,0,0:0:0:0:
192,192,190834,1,0,0:0:0:0:
64,192,190834,1,0,0:0:0:0:
192,192,191141,1,0,0:0:0:0:
64,192,191141,1,0,0:0:0:0:
448,192,191141,1,0,0:0:0:0:
192,192,191449,1,0,0:0:0:0:
64,192,191449,1,0,0:0:0:0:
448,192,191449,1,0,0:0:0:0:
320,192,191603,1,0,0:0:0:0:
192,192,191603,1,0,0:0:0:0:
192,192,191757,1,0,0:0:0:0:
64,192,191757,1,0,0:0:0:0:
448,192,191757,1,0,0:0:0:0:
320,192,191911,1,0,0:0:0:0:
192,192,191911,1,0,0:0:0:0:
192,192,192065,1,0,0:0:0:0:
64,192,192065,1,0,0:0:0:0:
448,192,192065,1,0,0:0:0:0:
192,192,192372,1,0,0:0:0:0:
64,192,192372,1,0,0:0:0:0:
448,192,192372,1,0,0:0:0:0:
192,192,192680,1,0,0:0:0:0:
64,192,192680,1,0,0:0:0:0:
448,192,192680,1,0,0:0:0:0:
320,192,192757,1,0,0:0:0:0:
192,192,192834,1,0,0:0:0:0:
320,192,192911,1,0,0:0:0:0:
192,192,192988,1,0,0:0:0:0:
64,192,192988,1,0,0:0:0:0:
448,192,192988,1,0,0:0:0:0:
320,192,193065,1,0,0:0:0:0:
192,192,193141,1,0,0:0:0:0:
320,192,193218,1,0,0:0:0:0:
192,192,193295,1,0,0:0:0:0:
64,192,193295,1,0,0:0:0:0:
448,192,193295,1,0,0:0:0:0:
320,192,193372,1,0,0:0:0:0:
192,192,193449,1,0,0:0:0:0:
320,192,193526,1,0,0:0:0:0:
192,192,193603,1,0,0:0:0:0:
64,192,193603,1,0,0:0:0:0:
448,192,193603,1,0,0:0:0:0:
320,192,193680,1,0,0:0:0:0:
192,192,193757,1,0,0:0:0:0:
320,192,193834,1,0,0:0:0:0:
192,192,193911,1,0,0:0:0:0:
64,192,193911,1,0,0:0:0:0:
448,192,193911,1,0,0:0:0:0:
192,192,194065,1,0,0:0:0:0:
64,192,194065,1,0,0:0:0:0:
320,192,194065,1,0,0:0:0:0:
448,192,194218,1,0,0:0:0:0:
192,192,194218,1,0,0:0:0:0:
320,192,194218,1,0,0:0:0:0:
192,192,194372,1,0,0:0:0:0:
320,192,194372,1,0,0:0:0:0:
64,192,194372,128,0,194680:0:0:0:0:
448,192,196834,1,0,0:0:0:0:
320,192,196885,1,0,0:0:0:0:
192,192,196936,1,0,0:0:0:0:
448,192,196988,1,0,0:0:0:0:
64,192,196988,128,0,197757:0:0:0:0:
192,192,197757,1,0,0:0:0:0:
320,192,197911,1,0,0:0:0:0:
448,192,198065,128,0,198680:0:0:0:0:
64,192,198680,1,0,0:0:0:0:
192,192,198834,1,0,0:0:0:0:
320,192,198988,1,0,0:0:0:0:
448,192,199141,128,0,199449:0:0:0:0:
64,192,199449,1,0,0:0:0:0:
192,192,199449,128,0,200065:0:0:0:0:
448,192,200065,1,0,0:0:0:0:
320,192,200218,1,0,0:0:0:0:
192,192,200372,1,0,0:0:0:0:
64,192,200526,1,0,0:0:0:0:
448,192,200526,128,0,200988:0:0:0:0:
320,192,200988,1,0,0:0:0:0:
192,192,201141,1,0,0:0:0:0:
448,192,201295,1,0,0:0:0:0:
320,192,201449,1,0,0:0:0:0:
192,192,201603,1,0,0:0:0:0:
320,192,201757,1,0,0:0:0:0:
448,192,201911,1,0,0:0:0:0:
64,192,201911,1,0,0:0:0:0:
192,192,201911,128,0,203141:0:0:0:0:
320,192,202218,1,0,0:0:0:0:
64,192,202372,1,0,0:0:0:0:
64,192,202988,1,0,0:0:0:0:
320,192,203141,128,0,203603:0:0:0:0:
192,192,203603,128,0,203911:0:0:0:0:
64,192,203911,1,0,0:0:0:0:
448,192,204065,1,0,0:0:0:0:
320,192,204218,128,0,204372:0:0:0:0:
192,192,204372,1,0,0:0:0:0:
448,192,204372,1,0,0:0:0:0:
64,192,204372,128,0,205603:0:0:0:0:
192,192,204680,1,0,0:0:0:0:
320,192,204834,1,0,0:0:0:0:
448,192,205141,1,0,0:0:0:0:
320,192,205295,1,0,0:0:0:0:
192,192,205449,1,0,0:0:0:0:
320,192,205603,1,0,0:0:0:0:
448,192,205603,128,0,205911:0:0:0:0:
192,192,205911,1,0,0:0:0:0:
320,192,205911,128,0,206218:0:0:0:0:
64,192,206218,128,0,206526:0:0:0:0:
192,192,206218,1,0,0:0:0:0:
192,192,206526,128,0,206834:0:0:0:0:
320,192,206526,1,0,0:0:0:0:
320,192,206834,1,0,0:0:0:0:
448,192,206834,128,0,207449:0:0:0:0:
64,192,207141,1,0,0:0:0:0:
192,192,207141,1,0,0:0:0:0:
320,192,207295,1,0,0:0:0:0:
192,192,207449,1,0,0:0:0:0:
448,192,207603,1,0,0:0:0:0:
64,192,207757,1,0,0:0:0:0:
192,192,207757,1,0,0:0:0:0:
448,192,207911,1,0,0:0:0:0:
320,192,208065,1,0,0:0:0:0:
448,192,208218,1,0,0:0:0:0:
192,192,208372,1,0,0:0:0:0:
64,192,208372,1,0,0:0:0:0:
320,192,208526,1,0,0:0:0:0:
64,192,208680,1,0,0:0:0:0:
448,192,208834,1,0,0:0:0:0:
192,192,208988,1,0,0:0:0:0:
64,192,208988,1,0,0:0:0:0:
320,192,209141,1,0,0:0:0:0:
192,192,209295,1,0,0:0:0:0:
448,192,209295,128,0,209757:0:0:0:0:
64,192,209603,1,0,0:0:0:0:
192,192,209603,1,0,0:0:0:0:
320,192,209757,128,0,210065:0:0:0:0:
448,192,210065,1,0,0:0:0:0:
64,192,210218,1,0,0:0:0:0:
192,192,210218,128,0,210526:0:0:0:0:
320,192,210526,128,0,210834:0:0:0:0:
448,192,210731,1,0,0:0:0:0:
64,192,210834,1,0,0:0:0:0:
192,192,210834,1,0,0:0:0:0:
448,192,210936,1,0,0:0:0:0:
320,192,211039,1,0,0:0:0:0:
192,192,211141,1,0,0:0:0:0:
320,192,211244,1,0,0:0:0:0:
448,192,211347,1,0,0:0:0:0:
192,192,211449,1,0,0:0:0:0:
64,192,211449,1,0,0:0:0:0:
448,192,211552,1,0,0:0:0:0:
320,192,211654,1,0,0:0:0:0:
64,192,211757,1,0,0:0:0:0:
192,192,211757,1,0,0:0:0:0:
192,192,212065,1,0,0:0:0:0:
64,192,212065,1,0,0:0:0:0:
192,192,212372,1,0,0:0:0:0:
64,192,212372,1,0,0:0:0:0:
192,192,212680,1,0,0:0:0:0:
64,192,212680,1,0,0:0:0:0:
64,192,212988,1,0,0:0:0:0:
192,192,212988,1,0,0:0:0:0:
320,192,212988,1,0,0:0:0:0:
192,192,213295,1,0,0:0:0:0:
64,192,213295,1,0,0:0:0:0:
320,192,213295,1,0,0:0:0:0:
192,192,213603,1,0,0:0:0:0:
64,192,213603,1,0,0:0:0:0:
448,192,213603,1,0,0:0:0:0:
192,192,213911,1,0,0:0:0:0:
64,192,213911,1,0,0:0:0:0:
448,192,213911,1,0,0:0:0:0:
320,192,214065,1,0,0:0:0:0:
192,192,214141,1,0,0:0:0:0:
320,192,214218,1,0,0:0:0:0:
448,192,216372,1,0,0:0:0:0:
320,192,216423,1,0,0:0:0:0:
64,192,216475,1,0,0:0:0:0:
192,192,216526,1,0,0:0:0:0:
320,192,216577,1,0,0:0:0:0:
192,192,216629,1,0,0:0:0:0:
64,192,216680,1,0,0:0:0:0:
320,192,216680,1,0,0:0:0:0:
448,192,216680,1,0,0:0:0:0:
192,192,216757,1,0,0:0:0:0:
320,192,216834,1,0,0:0:0:0:
64,192,216911,1,0,0:0:0:0:
192,192,216988,1,0,0:0:0:0:
320,192,216988,1,0,0:0:0:0:
448,192,216988,1,0,0:0:0:0:
64,192,217065,1,0,0:0:0:0:
192,192,217141,1,0,0:0:0:0:
320,192,217218,1,0,0:0:0:0:
192,192,217295,1,0,0:0:0:0:
64,192,217295,1,0,0:0:0:0:
448,192,217372,1,0,0:0:0:0:
320,192,217449,1,0,0:0:0:0:
64,192,217526,1,0,0:0:0:0:
320,192,217603,1,0,0:0:0:0:
448,192,217603,1,0,0:0:0:0:
192,192,217603,1,0,0:0:0:0:
64,192,217680,1,0,0:0:0:0:
320,192,217757,1,0,0:0:0:0:
192,192,217834,1,0,0:0:0:0:
448,192,217911,1,0,0:0:0:0:
320,192,217911,1,0,0:0:0:0:
64,192,217988,1,0,0:0:0:0:
320,192,218065,1,0,0:0:0:0:
64,192,218141,1,0,0:0:0:0:
192,192,218218,1,0,0:0:0:0:
320,192,218218,1,0,0:0:0:0:
448,192,218218,1,0,0:0:0:0:
64,192,218295,1,0,0:0:0:0:
192,192,218372,1,0,0:0:0:0:
448,192,218372,1,0,0:0:0:0:
320,192,218449,1,0,0:0:0:0:
192,192,218526,1,0,0:0:0:0:
448,192,218526,1,0,0:0:0:0:
64,192,218526,1,0,0:0:0:0:
320,192,218603,1,0,0:0:0:0:
192,192,218680,1,0,0:0:0:0:
448,192,218757,1,0,0:0:0:0:
192,192,218834,1,0,0:0:0:0:
64,192,218834,1,0,0:0:0:0:
320,192,218834,1,0,0:0:0:0:
192,192,218988,1,0,0:0:0:0:
448,192,218988,1,0,0:0:0:0:
192,192,219065,1,0,0:0:0:0:
448,192,219065,1,0,0:0:0:0:
320,192,219141,1,0,0:0:0:0:
64,192,219141,1,0,0:0:0:0:
192,192,219218,1,0,0:0:0:0:
320,192,219295,1,0,0:0:0:0:
192,192,219372,1,0,0:0:0:0:
448,192,219449,1,0,0:0:0:0:
64,192,219449,1,0,0:0:0:0:
320,192,219449,1,0,0:0:0:0:
192,192,219526,1,0,0:0:0:0:
448,192,219603,1,0,0:0:0:0:
64,192,219680,1,0,0:0:0:0:
448,192,219757,1,0,0:0:0:0:
320,192,219757,1,0,0:0:0:0:
192,192,219834,1,0,0:0:0:0:
64,192,219911,1,0,0:0:0:0:
448,192,219988,1,0,0:0:0:0:
320,192,220065,1,0,0:0:0:0:
192,192,220065,1,0,0:0:0:0:
64,192,220065,1,0,0:0:0:0:
448,192,220141,1,0,0:0:0:0:
320,192,220218,1,0,0:0:0:0:
192,192,220218,1,0,0:0:0:0:
64,192,220295,1,0,0:0:0:0:
448,192,220372,1,0,0:0:0:0:
192,192,220372,1,0,0:0:0:0:
320,192,220449,1,0,0:0:0:0:
448,192,220526,1,0,0:0:0:0:
64,192,220603,1,0,0:0:0:0:
320,192,220680,1,0,0:0:0:0:
448,192,220680,1,0,0:0:0:0:
192,192,220680,1,0,0:0:0:0:
64,192,220757,1,0,0:0:0:0:
320,192,220834,1,0,0:0:0:0:
192,192,220911,1,0,0:0:0:0:
64,192,220988,1,0,0:0:0:0:
320,192,220988,1,0,0:0:0:0:
448,192,221065,1,0,0:0:0:0:
192,192,221141,1,0,0:0:0:0:
320,192,221218,1,0,0:0:0:0:
64,192,221295,1,0,0:0:0:0:
192,192,221295,1,0,0:0:0:0:
448,192,221295,1,0,0:0:0:0:
320,192,221372,1,0,0:0:0:0:
192,192,221449,1,0,0:0:0:0:
64,192,221526,1,0,0:0:0:0:
192,192,221603,1,0,0:0:0:0:
320,192,221603,1,0,0:0:0:0:
448,192,221603,1,0,0:0:0:0:
64,192,221680,1,0,0:0:0:0:
320,192,221757,1,0,0:0:0:0:
192,192,221834,1,0,0:0:0:0:
320,192,221911,1,0,0:0:0:0:
64,192,221911,1,0,0:0:0:0:
192,192,221988,1,0,0:0:0:0:
448,192,222065,1,0,0:0:0:0:
320,192,222141,1,0,0:0:0:0:
448,192,222218,1,0,0:0:0:0:
192,192,222218,1,0,0:0:0:0:
64,192,222218,1,0,0:0:0:0:
320,192,222295,1,0,0:0:0:0:
64,192,222372,1,0,0:0:0:0:
192,192,222449,1,0,0:0:0:0:
448,192,222526,1,0,0:0:0:0:
320,192,222526,1,0,0:0:0:0:
192,192,222603,1,0,0:0:0:0:
64,192,222680,1,0,0:0:0:0:
448,192,222757,1,0,0:0:0:0:
192,192,222834,1,0,0:0:0:0:
64,192,222834,1,0,0:0:0:0:
320,192,222911,1,0,0:0:0:0:
64,192,222988,1,0,0:0:0:0:
320,192,223065,1,0,0:0:0:0:
448,192,223141,1,0,0:0:0:0:
192,192,223141,1,0,0:0:0:0:
64,192,223141,1,0,0:0:0:0:
320,192,223218,1,0,0:0:0:0:
192,192,223295,1,0,0:0:0:0:
64,192,223372,1,0,0:0:0:0:
448,192,223449,1,0,0:0:0:0:
192,192,223449,1,0,0:0:0:0:
320,192,223526,1,0,0:0:0:0:
192,192,223603,1,0,0:0:0:0:
64,192,223603,1,0,0:0:0:0:
192,192,223680,1,0,0:0:0:0:
64,192,223680,1,0,0:0:0:0:
448,192,223757,1,0,0:0:0:0:
320,192,223757,1,0,0:0:0:0:
64,192,223911,1,0,0:0:0:0:
192,192,223911,1,0,0:0:0:0:
320,192,223911,1,0,0:0:0:0:
192,192,224218,1,0,0:0:0:0:
448,192,224218,1,0,0:0:0:0:
64,192,224372,1,0,0:0:0:0:
192,192,224372,1,0,0:0:0:0:
320,192,224372,1,0,0:0:0:0:
192,192,224526,1,0,0:0:0:0:
448,192,224526,1,0,0:0:0:0:
192,192,224680,1,0,0:0:0:0:
320,192,224680,1,0,0:0:0:0:
64,192,224680,1,0,0:0:0:0:
448,192,224834,1,0,0:0:0:0:
64,192,224988,1,0,0:0:0:0:
192,192,224988,1,0,0:0:0:0:
320,192,225141,1,0,0:0:0:0:
192,192,225141,1,0,0:0:0:0:
320,192,225295,1,0,0:0:0:0:
448,192,225295,1,0,0:0:0:0:
64,192,225295,1,0,0:0:0:0:
320,192,225449,1,0,0:0:0:0:
192,192,225449,1,0,0:0:0:0:
448,192,225603,1,0,0:0:0:0:
320,192,225603,1,0,0:0:0:0:
64,192,225603,1,0,0:0:0:0:
192,192,225757,1,0,0:0:0:0:
448,192,225911,1,0,0:0:0:0:
320,192,225911,1,0,0:0:0:0:
64,192,225988,1,0,0:0:0:0:
448,192,226065,1,0,0:0:0:0:
320,192,226065,1,0,0:0:0:0:
192,192,226141,1,0,0:0:0:0:
64,192,226141,1,0,0:0:0:0:
448,192,226218,1,0,0:0:0:0:
320,192,226218,1,0,0:0:0:0:
192,192,226295,1,0,0:0:0:0:
64,192,226295,1,0,0:0:0:0:
64,192,226372,1,0,0:0:0:0:
192,192,226372,1,0,0:0:0:0:
192,192,226449,1,0,0:0:0:0:
320,192,226449,1,0,0:0:0:0:
64,192,226526,1,0,0:0:0:0:
448,192,226526,1,0,0:0:0:0:
320,192,226526,1,0,0:0:0:0:
192,192,226603,1,0,0:0:0:0:
448,192,226680,1,0,0:0:0:0:
320,192,226757,1,0,0:0:0:0:
192,192,226834,1,0,0:0:0:0:
64,192,226834,1,0,0:0:0:0:
448,192,226834,1,0,0:0:0:0:
320,192,226911,1,0,0:0:0:0:
64,192,226988,1,0,0:0:0:0:
192,192,227065,1,0,0:0:0:0:
64,192,227141,1,0,0:0:0:0:
320,192,227141,1,0,0:0:0:0:
448,192,227218,1,0,0:0:0:0:
192,192,227295,1,0,0:0:0:0:
320,192,227372,1,0,0:0:0:0:
448,192,227449,1,0,0:0:0:0:
64,192,227449,1,0,0:0:0:0:
192,192,227449,1,0,0:0:0:0:
320,192,227526,1,0,0:0:0:0:
64,192,227603,1,0,0:0:0:0:
192,192,227680,1,0,0:0:0:0:
320,192,227757,1,0,0:0:0:0:
448,192,227757,1,0,0:0:0:0:
192,192,227834,1,0,0:0:0:0:
448,192,227911,1,0,0:0:0:0:
320,192,227988,1,0,0:0:0:0:
64,192,228065,1,0,0:0:0:0:
192,192,228065,1,0,0:0:0:0:
448,192,228065,1,0,0:0:0:0:
320,192,228141,1,0,0:0:0:0:
64,192,228218,1,0,0:0:0:0:
320,192,228295,1,0,0:0:0:0:
192,192,228372,1,0,0:0:0:0:
64,192,228372,1,0,0:0:0:0:
448,192,228449,1,0,0:0:0:0:
320,192,228526,1,0,0:0:0:0:
64,192,228526,1,0,0:0:0:0:
192,192,228603,1,0,0:0:0:0:
320,192,228680,1,0,0:0:0:0:
448,192,228680,1,0,0:0:0:0:
192,192,228757,1,0,0:0:0:0:
320,192,228834,1,0,0:0:0:0:
64,192,228834,1,0,0:0:0:0:
320,192,228911,1,0,0:0:0:0:
64,192,228911,1,0,0:0:0:0:
192,192,228988,1,0,0:0:0:0:
448,192,228988,1,0,0:0:0:0:
320,192,229065,1,0,0:0:0:0:
192,192,229141,1,0,0:0:0:0:
64,192,229218,1,0,0:0:0:0:
320,192,229295,1,0,0:0:0:0:
448,192,229295,1,0,0:0:0:0:
192,192,229295,1,0,0:0:0:0:
64,192,229372,1,0,0:0:0:0:
320,192,229449,1,0,0:0:0:0:
192,192,229526,1,0,0:0:0:0:
448,192,229603,1,0,0:0:0:0:
64,192,229603,1,0,0:0:0:0:
320,192,229680,1,0,0:0:0:0:
448,192,229757,1,0,0:0:0:0:
192,192,229834,1,0,0:0:0:0:
320,192,229911,1,0,0:0:0:0:
64,192,229911,1,0,0:0:0:0:
448,192,229911,1,0,0:0:0:0:
192,192,229988,1,0,0:0:0:0:
448,192,230065,1,0,0:0:0:0:
192,192,230141,1,0,0:0:0:0:
64,192,230218,1,0,0:0:0:0:
320,192,230218,1,0,0:0:0:0:
448,192,230295,1,0,0:0:0:0:
320,192,230372,1,0,0:0:0:0:
192,192,230449,1,0,0:0:0:0:
64,192,230526,1,0,0:0:0:0:
448,192,230526,1,0,0:0:0:0:
320,192,230526,1,0,0:0:0:0:
192,192,230603,1,0,0:0:0:0:
320,192,230680,1,0,0:0:0:0:
448,192,230757,1,0,0:0:0:0:
192,192,230834,1,0,0:0:0:0:
64,192,230834,1,0,0:0:0:0:
320,192,230911,1,0,0:0:0:0:
448,192,230988,1,0,0:0:0:0:
192,192,230988,1,0,0:0:0:0:
448,192,231065,1,0,0:0:0:0:
192,192,231065,1,0,0:0:0:0:
320,192,231141,1,0,0:0:0:0:
64,192,231141,1,0,0:0:0:0:
192,192,231218,1,0,0:0:0:0:
448,192,231295,1,0,0:0:0:0:
320,192,231295,1,0,0:0:0:0:
320,192,231372,1,0,0:0:0:0:
448,192,231372,1,0,0:0:0:0:
192,192,231449,1,0,0:0:0:0:
64,192,231449,1,0,0:0:0:0:
448,192,231603,128,0,231680:0:0:0:0:
192,192,231757,1,0,0:0:0:0:
320,192,231757,1,0,0:0:0:0:
64,192,231757,1,0,0:0:0:0:
448,192,231911,128,0,231988:0:0:0:0:
320,192,232065,1,0,0:0:0:0:
64,192,232065,1,0,0:0:0:0:
192,192,232218,128,0,232295:0:0:0:0:
320,192,232372,1,0,0:0:0:0:
64,192,232372,1,0,0:0:0:0:
448,192,232372,1,0,0:0:0:0:
192,192,232526,128,0,232603:0:0:0:0:
448,192,232680,1,0,0:0:0:0:
64,192,232680,1,0,0:0:0:0:
320,192,232834,128,0,232911:0:0:0:0:
192,192,232988,1,0,0:0:0:0:
64,192,232988,1,0,0:0:0:0:
448,192,232988,1,0,0:0:0:0:
320,192,233141,128,0,233218:0:0:0:0:
192,192,233295,1,0,0:0:0:0:
448,192,233295,1,0,0:0:0:0:
320,192,233449,1,0,0:0:0:0:
64,192,233449,1,0,0:0:0:0:
64,192,233526,1,0,0:0:0:0:
320,192,233526,1,0,0:0:0:0:
192,192,233603,1,0,0:0:0:0:
448,192,233603,1,0,0:0:0:0:
64,192,233757,1,0,0:0:0:0:
320,192,233757,1,0,0:0:0:0:
448,192,233757,1,0,0:0:0:0:
64,192,233911,1,0,0:0:0:0:
320,192,234065,1,0,0:0:0:0:
192,192,234065,1,0,0:0:0:0:
448,192,234218,1,0,0:0:0:0:
64,192,234218,1,0,0:0:0:0:
192,192,234218,1,0,0:0:0:0:
192,192,234372,1,0,0:0:0:0:
320,192,234372,1,0,0:0:0:0:
448,192,234526,1,0,0:0:0:0:
64,192,234526,1,0,0:0:0:0:
192,192,234526,1,0,0:0:0:0:
320,192,234834,1,0,0:0:0:0:
64,192,234834,1,0,0:0:0:0:
320,192,234988,1,0,0:0:0:0:
448,192,234988,1,0,0:0:0:0:
192,192,234988,1,0,0:0:0:0:
64,192,235141,1,0,0:0:0:0:
320,192,235141,1,0,0:0:0:0:
448,192,235295,1,0,0:0:0:0:
192,192,235295,1,0,0:0:0:0:
64,192,235449,1,0,0:0:0:0:
192,192,235449,1,0,0:0:0:0:
320,192,235449,1,0,0:0:0:0:
192,192,235757,1,0,0:0:0:0:
64,192,235757,1,0,0:0:0:0:
448,192,235757,1,0,0:0:0:0:
320,192,235834,1,0,0:0:0:0:
192,192,235911,1,0,0:0:0:0:
64,192,235911,1,0,0:0:0:0:
64,192,235988,1,0,0:0:0:0:
192,192,235988,1,0,0:0:0:0:
448,192,236065,1,0,0:0:0:0:
320,192,236065,1,0,0:0:0:0:
192,192,236218,128,0,236526:0:0:0:0:
64,192,236218,1,0,0:0:0:0:
320,192,236218,1,0,0:0:0:0:
448,192,236526,1,0,0:0:0:0:
320,192,236526,1,0,0:0:0:0:
64,192,236680,1,0,0:0:0:0:
320,192,236680,1,0,0:0:0:0:
192,192,236680,128,0,236988:0:0:0:0:
64,192,236988,1,0,0:0:0:0:
320,192,236988,1,0,0:0:0:0:
448,192,237141,1,0,0:0:0:0:
192,192,237141,1,0,0:0:0:0:
192,192,237295,1,0,0:0:0:0:
320,192,237295,1,0,0:0:0:0:
64,192,237295,1,0,0:0:0:0:
64,192,237603,1,0,0:0:0:0:
192,192,237603,1,0,0:0:0:0:
192,192,237757,1,0,0:0:0:0:
320,192,237757,1,0,0:0:0:0:
448,192,237911,1,0,0:0:0:0:
320,192,237911,1,0,0:0:0:0:
64,192,237911,1,0,0:0:0:0:
192,192,238065,1,0,0:0:0:0:
320,192,238065,1,0,0:0:0:0:
320,192,238218,1,0,0:0:0:0:
448,192,238218,1,0,0:0:0:0:
64,192,238218,1,0,0:0:0:0:
192,192,238295,1,0,0:0:0:0:
320,192,238372,1,0,0:0:0:0:
448,192,238449,1,0,0:0:0:0:
64,192,238526,1,0,0:0:0:0:
192,192,238526,1,0,0:0:0:0:
320,192,238603,1,0,0:0:0:0:
448,192,238603,1,0,0:0:0:0:
192,192,238680,1,0,0:0:0:0:
64,192,238680,1,0,0:0:0:0:
320,192,238757,1,0,0:0:0:0:
448,192,238834,1,0,0:0:0:0:
64,192,238834,1,0,0:0:0:0:
192,192,238834,1,0,0:0:0:0:
448,192,239141,1,0,0:0:0:0:
320,192,239141,1,0,0:0:0:0:
192,192,239141,1,0,0:0:0:0:
64,192,239295,1,0,0:0:0:0:
320,192,239295,1,0,0:0:0:0:
192,192,239295,1,0,0:0:0:0:
448,192,239449,1,0,0:0:0:0:
192,192,239449,1,0,0:0:0:0:
320,192,239449,1,0,0:0:0:0:
320,192,239603,1,0,0:0:0:0:
192,192,239603,1,0,0:0:0:0:
64,192,239603,1,0,0:0:0:0:
448,192,239757,1,0,0:0:0:0:
320,192,239757,1,0,0:0:0:0:
192,192,239757,1,0,0:0:0:0:
64,192,239911,1,0,0:0:0:0:
192,192,239911,1,0,0:0:0:0:
448,192,240065,128,0,240218:0:0:0:0:
320,192,240218,128,0,240372:0:0:0:0:
192,192,240372,128,0,240526:0:0:0:0:
448,192,240526,128,0,240680:0:0:0:0:
320,192,240680,128,0,240834:0:0:0:0:
192,192,240834,128,0,240988:0:0:0:0:
320,192,240988,128,0,241141:0:0:0:0:
192,192,241141,1,0,0:0:0:0:
64,192,241141,1,0,0:0:0:0:
448,192,241141,128,0,241603:0:0:0:0:
192,192,241449,1,0,0:0:0:0:
320,192,241603,1,0,0:0:0:0:
64,192,241603,1,0,0:0:0:0:
320,192,241911,1,0,0:0:0:0:
192,192,241911,1,0,0:0:0:0:
192,192,242065,1,0,0:0:0:0:
448,192,242218,1,0,0:0:0:0:
320,192,242218,1,0,0:0:0:0:
64,192,242218,1,0,0:0:0:0:
320,192,242526,1,0,0:0:0:0:
64,192,242526,1,0,0:0:0:0:
192,192,242680,1,0,0:0:0:0:
448,192,242680,1,0,0:0:0:0:
448,192,242834,1,0,0:0:0:0:
64,192,242834,1,0,0:0:0:0:
320,192,242834,1,0,0:0:0:0:
192,192,242988,1,0,0:0:0:0:
64,192,243141,1,0,0:0:0:0:
320,192,243141,1,0,0:0:0:0:
64,192,243295,1,0,0:0:0:0:
320,192,243295,1,0,0:0:0:0:
320,192,243449,1,0,0:0:0:0:
448,192,243449,1,0,0:0:0:0:
192,192,243449,1,0,0:0:0:0:
192,192,243603,1,0,0:0:0:0:
64,192,243603,128,0,243911:0:0:0:0:
320,192,243911,1,0,0:0:0:0:
192,192,244065,1,0,0:0:0:0:
448,192,244065,1,0,0:0:0:0:
64,192,244065,1,0,0:0:0:0:
192,192,244372,1,0,0:0:0:0:
448,192,244372,1,0,0:0:0:0:
320,192,244526,1,0,0:0:0:0:
64,192,244526,1,0,0:0:0:0:
192,192,244680,1,0,0:0:0:0:
320,192,244680,1,0,0:0:0:0:
448,192,244680,1,0,0:0:0:0:
448,192,244988,1,0,0:0:0:0:
64,192,244988,1,0,0:0:0:0:
64,192,245141,1,0,0:0:0:0:
320,192,245141,1,0,0:0:0:0:
448,192,245295,1,0,0:0:0:0:
320,192,245295,1,0,0:0:0:0:
192,192,245295,1,0,0:0:0:0:
64,192,245449,1,0,0:0:0:0:
192,192,245449,1,0,0:0:0:0:
448,192,245449,1,0,0:0:0:0:
320,192,245603,1,0,0:0:0:0:
192,192,245757,1,0,0:0:0:0:
192,192,245911,1,0,0:0:0:0:
448,192,245911,1,0,0:0:0:0:
64,192,245911,1,0,0:0:0:0:
448,192,246065,1,0,0:0:0:0:
64,192,246065,1,0,0:0:0:0:
320,192,246065,128,0,246372:0:0:0:0:
64,192,246372,1,0,0:0:0:0:
192,192,246372,1,0,0:0:0:0:
320,192,246526,1,0,0:0:0:0:
192,192,246526,1,0,0:0:0:0:
448,192,246526,1,0,0:0:0:0:
64,192,246680,1,0,0:0:0:0:
448,192,246834,1,0,0:0:0:0:
192,192,246834,1,0,0:0:0:0:
448,192,246988,1,0,0:0:0:0:
320,192,247141,1,0,0:0:0:0:
192,192,247141,1,0,0:0:0:0:
64,192,247141,1,0,0:0:0:0:
448,192,247295,1,0,0:0:0:0:
64,192,247449,1,0,0:0:0:0:
192,192,247449,1,0,0:0:0:0:
192,192,247603,1,0,0:0:0:0:
320,192,247603,1,0,0:0:0:0:
320,192,247757,1,0,0:0:0:0:
448,192,247757,1,0,0:0:0:0:
64,192,247757,1,0,0:0:0:0:
192,192,247911,1,0,0:0:0:0:
64,192,248065,1,0,0:0:0:0:
448,192,248065,1,0,0:0:0:0:
192,192,248218,1,0,0:0:0:0:
320,192,248218,1,0,0:0:0:0:
64,192,248372,1,0,0:0:0:0:
192,192,248372,1,0,0:0:0:0:
448,192,248372,1,0,0:0:0:0:
320,192,248526,1,0,0:0:0:0:
192,192,248603,1,0,0:0:0:0:
320,192,248680,1,0,0:0:0:0:
64,192,248680,1,0,0:0:0:0:
448,192,248680,1,0,0:0:0:0:
192,192,248834,1,0,0:0:0:0:
320,192,248834,1,0,0:0:0:0:
448,192,248988,1,0,0:0:0:0:
320,192,248988,1,0,0:0:0:0:
64,192,248988,1,0,0:0:0:0:
320,192,249141,1,0,0:0:0:0:
192,192,249141,1,0,0:0:0:0:
320,192,249295,1,0,0:0:0:0:
448,192,249295,1,0,0:0:0:0:
64,192,249295,1,0,0:0:0:0:
192,192,249449,1,0,0:0:0:0:
320,192,249449,1,0,0:0:0:0:
64,192,249603,1,0,0:0:0:0:
192,192,249603,1,0,0:0:0:0:
320,192,249757,1,0,0:0:0:0:
448,192,249757,1,0,0:0:0:0:
64,192,249757,1,0,0:0:0:0:
192,192,249911,1,0,0:0:0:0:
448,192,250065,1,0,0:0:0:0:
320,192,250065,1,0,0:0:0:0:
192,192,250218,1,0,0:0:0:0:
64,192,250218,1,0,0:0:0:0:
448,192,250218,1,0,0:0:0:0:
320,192,250372,1,0,0:0:0:0:
320,192,250526,1,0,0:0:0:0:
192,192,250526,1,0,0:0:0:0:
64,192,250526,1,0,0:0:0:0:
448,192,250526,1,0,0:0:0:0:
448,192,250680,1,0,0:0:0:0:
320,192,250680,1,0,0:0:0:0:
192,192,250680,1,0,0:0:0:0:
64,192,250680,1,0,0:0:0:0:
