osu file format v14

[General]
AudioFilename: Wheee.mp3
AudioLeadIn: 0
PreviewTime: 195795
Countdown: 0
SampleSet: Soft
StackLeniency: 0.7
Mode: 3
LetterboxInBreaks: 0
SpecialStyle: 0
WidescreenStoryboard: 0

[Editor]
Bookmarks: 33346,104691,106256,124828,176688,232136,244373
DistanceSpacing: 1.5
BeatDivisor: 4
GridSize: 32
TimelineZoom: 2.4

[Metadata]
Title:MIIRO
TitleUnicode:海色
Artist:AKINO from bless4
ArtistUnicode:AKINO from bless4
Creator:[ S a k u r a ]
Version:Hard
Source:艦隊これくしょん -艦これ-
Tags:kantai collection -kancolle- opening minatoku west ground full version Fleet Girls Collection KanColle Animation Sequence
BeatmapID:651705
BeatmapSetID:288794

[Difficulty]
HPDrainRate:8
CircleSize:4
OverallDifficulty:8.5
ApproachRate:5
SliderMultiplier:1.4
SliderTickRate:1

[Events]
//Background and Video events
0,0,"48428226_p0.jpg",0,0
//Break Periods
//Storyboard Layer 0 (Background)
//Storyboard Layer 1 (Fail)
//Storyboard Layer 2 (Pass)
//Storyboard Layer 3 (Foreground)
//Storyboard Sound Samples

[TimingPoints]
103,307.692307692308,4,2,1,40,1,0
56718,-100,4,2,1,40,0,1
76256,-100,4,2,1,40,0,0
130564,-100,4,2,1,40,0,1
150564,-100,4,2,1,40,0,0
216718,-100,4,2,1,40,0,1
236718,-100,4,2,1,40,0,0

[HitObjects]
64,192,1179,5,0,0:0:0:0:
192,192,1231,1,0,0:0:0:0:
320,192,1282,1,0,0:0:0:0:
448,192,1333,1,0,0:0:0:0:
64,192,1359,1,0,0:0:0:0:
192,192,2410,1,0,0:0:0:0:
448,192,2564,1,0,0:0:0:0:
320,192,2718,1,0,0:0:0:0:
192,192,2872,1,0,0:0:0:0:
64,192,3026,1,0,0:0:0:0:
448,192,3179,1,0,0:0:0:0:
320,192,3333,1,0,0:0:0:0:
192,192,3487,1,0,0:0:0:0:
64,192,3641,1,0,0:0:0:0:
448,192,3795,128,0,5026:0:0:0:0:
192,192,3795,1,0,0:0:0:0:
64,192,5026,1,0,0:0:0:0:
320,192,5179,1,0,0:0:0:0:
192,192,5333,1,0,0:0:0:0:
448,192,5487,1,0,0:0:0:0:
320,192,5641,1,0,0:0:0:0:
192,192,5795,1,0,0:0:0:0:
448,192,5949,1,0,0:0:0:0:
64,192,6103,1,0,0:0:0:0:
320,192,6256,1,0,0:0:0:0:
192,192,6410,1,0,0:0:0:0:
448,192,6564,1,0,0:0:0:0:
64,192,6718,1,0,0:0:0:0:
64,192,7333,1,4,0:0:0:0:
192,192,7333,1,0,0:0:0:0:
448,192,7333,1,0,0:0:0:0:
320,192,7641,1,0,0:0:0:0:
192,192,7795,1,8,0:0:0:0:
64,192,7795,1,0,0:0:0:0:
448,192,8103,1,0,0:0:0:0:
64,192,8256,1,0,0:0:0:0:
192,192,8410,1,8,0:0:0:0:
320,192,8410,1,0,0:0:0:0:
448,192,8718,1,0,0:0:0:0:
320,192,8872,1,0,0:0:0:0:
192,192,9026,1,8,0:0:0:0:
64,192,9026,1,0,0:0:0:0:
320,192,9333,1,0,0:0:0:0:
64,192,9487,1,0,0:0:0:0:
192,192,9641,1,8,0:0:0:0:
448,192,9641,1,0,0:0:0:0:
320,192,9795,1,0,0:0:0:0:
64,192,9795,1,4,0:0:0:0:
448,192,10103,1,0,0:0:0:0:
192,192,10256,1,8,0:0:0:0:
320,192,10256,1,0,0:0:0:0:
64,192,10564,1,0,0:0:0:0:
192,192,10718,1,0,0:0:0:0:
320,192,10872,1,8,0:0:0:0:
448,192,10872,1,0,0:0:0:0:
192,192,11179,1,0,0:0:0:0:
320,192,11333,1,0,0:0:0:0:
64,192,11487,1,8,0:0:0:0:
448,192,11487,1,0,0:0:0:0:
320,192,11795,1,0,0:0:0:0:
192,192,11949,1,0,0:0:0:0:
64,192,12103,1,8,0:0:0:0:
448,192,12103,1,0,0:0:0:0:
192,192,12256,1,4,0:0:0:0:
320,192,12256,1,0,0:0:0:0:
64,192,12564,1,0,0:0:0:0:
320,192,12718,1,8,0:0:0:0:
448,192,12718,1,0,0:0:0:0:
192,192,13026,1,0,0:0:0:0:
448,192,13179,1,0,0:0:0:0:
320,192,13333,1,8,0:0:0:0:
64,192,13333,1,0,0:0:0:0:
192,192,13641,1,0,0:0:0:0:
320,192,13795,1,0,0:0:0:0:
448,192,13949,1,8,0:0:0:0:
64,192,13949,1,0,0:0:0:0:
192,192,14256,1,0,0:0:0:0:
448,192,14410,1,0,0:0:0:0:
320,192,14564,1,8,0:0:0:0:
64,192,14564,1,0,0:0:0:0:
192,192,14718,1,0,0:0:0:0:
320,192,14795,1,0,0:0:0:0:
448,192,14872,1,0,0:0:0:0:
64,192,14872,1,8,0:0:0:0:
320,192,15026,1,0,0:0:0:0:
64,192,15179,1,8,0:0:0:0:
448,192,15179,1,0,0:0:0:0:
320,192,15333,1,0,0:0:0:0:
192,192,15487,1,8,0:0:0:0:
64,192,15487,1,0,0:0:0:0:
320,192,15641,1,8,0:0:0:0:
448,192,15641,1,0,0:0:0:0:
64,192,15795,1,0,0:0:0:0:
192,192,15949,1,8,0:0:0:0:
448,192,15949,1,0,0:0:0:0:
320,192,16103,1,8,0:0:0:0:
64,192,16103,1,0,0:0:0:0:
192,192,16256,1,0,0:0:0:0:
64,192,16410,1,8,0:0:0:0:
448,192,16410,1,0,0:0:0:0:
320,192,16564,1,0,0:0:0:0:
192,192,16718,1,4,0:0:0:0:
64,192,16718,1,0,0:0:0:0:
448,192,16718,1,0,0:0:0:0:
192,192,16872,1,4,0:0:0:0:
64,192,16872,1,0,0:0:0:0:
448,192,16872,1,0,0:0:0:0:
64,192,17333,1,0,0:0:0:0:
448,192,17333,1,0,0:0:0:0:
192,192,17487,1,0,0:0:0:0:
320,192,17641,1,0,0:0:0:0:
448,192,17795,1,0,0:0:0:0:
192,192,17795,1,0,0:0:0:0:
64,192,17949,1,0,0:0:0:0:
320,192,18103,1,0,0:0:0:0:
192,192,18256,1,0,0:0:0:0:
448,192,18410,1,0,0:0:0:0:
64,192,18564,1,0,0:0:0:0:
320,192,18564,1,2,0:0:0:0:
192,192,18718,1,0,0:0:0:0:
320,192,18872,1,0,0:0:0:0:
64,192,19026,1,2,0:0:0:0:
448,192,19026,1,0,0:0:0:0:
192,192,19179,1,0,0:0:0:0:
320,192,19333,1,0,0:0:0:0:
64,192,19487,1,0,0:0:0:0:
448,192,19641,1,0,0:0:0:0:
192,192,19795,1,0,0:0:0:0:
320,192,19795,1,0,0:0:0:0:
64,192,19949,1,0,0:0:0:0:
448,192,20103,1,0,0:0:0:0:
64,192,20256,1,0,0:0:0:0:
192,192,20256,1,0,0:0:0:0:
320,192,20410,1,0,0:0:0:0:
448,192,20564,1,0,0:0:0:0:
192,192,20718,1,0,0:0:0:0:
64,192,20872,1,0,0:0:0:0:
320,192,21026,1,2,0:0:0:0:
448,192,21026,1,0,0:0:0:0:
192,192,21179,1,0,0:0:0:0:
320,192,21333,1,0,0:0:0:0:
448,192,21487,1,2,0:0:0:0:
64,192,21487,1,0,0:0:0:0:
192,192,21641,1,0,0:0:0:0:
448,192,21795,1,0,0:0:0:0:
320,192,21949,1,0,0:0:0:0:
192,192,22103,1,0,0:0:0:0:
64,192,22256,1,0,0:0:0:0:
448,192,22256,1,0,0:0:0:0:
320,192,22410,1,0,0:0:0:0:
64,192,22564,1,0,0:0:0:0:
192,192,22718,1,0,0:0:0:0:
448,192,22718,1,0,0:0:0:0:
320,192,22872,1,0,0:0:0:0:
64,192,23026,1,0,0:0:0:0:
192,192,23179,1,0,0:0:0:0:
320,192,23333,1,0,0:0:0:0:
448,192,23487,1,0,0:0:0:0:
64,192,23487,1,2,0:0:0:0:
192,192,23641,1,0,0:0:0:0:
320,192,23795,1,0,0:0:0:0:
64,192,23949,1,2,0:0:0:0:
192,192,23949,1,0,0:0:0:0:
448,192,24103,1,0,0:0:0:0:
192,192,24256,1,0,0:0:0:0:
320,192,24410,1,0,0:0:0:0:
64,192,24564,1,0,0:0:0:0:
192,192,24718,1,0,0:0:0:0:
448,192,24718,1,0,0:0:0:0:
64,192,24872,1,0,0:0:0:0:
320,192,25026,1,0,0:0:0:0:
192,192,25179,1,0,0:0:0:0:
64,192,25179,1,0,0:0:0:0:
448,192,25333,1,0,0:0:0:0:
320,192,25487,1,0,0:0:0:0:
64,192,25641,1,0,0:0:0:0:
192,192,25795,1,0,0:0:0:0:
320,192,25949,1,8,0:0:0:0:
448,192,25949,1,0,0:0:0:0:
64,192,26154,1,0,0:0:0:0:
192,192,26154,1,8,0:0:0:0:
320,192,26359,1,8,0:0:0:0:
448,192,26359,1,0,0:0:0:0:
192,192,26564,1,8,0:0:0:0:
64,192,26564,1,0,0:0:0:0:
320,192,26769,1,8,0:0:0:0:
448,192,26769,1,0,0:0:0:0:
192,192,26974,1,8,0:0:0:0:
64,192,26974,1,0,0:0:0:0:
64,192,27179,1,4,0:0:0:0:
320,192,27179,1,0,0:0:0:0:
448,192,27179,1,0,0:0:0:0:
192,192,27487,1,8,0:0:0:0:
448,192,27487,1,0,0:0:0:0:
64,192,27795,1,0,0:0:0:0:
192,192,27949,1,0,0:0:0:0:
320,192,28103,1,8,0:0:0:0:
448,192,28103,1,0,0:0:0:0:
64,192,28256,1,0,0:0:0:0:
192,192,28564,1,0,0:0:0:0:
64,192,28718,1,8,0:0:0:0:
448,192,28718,1,0,0:0:0:0:
192,192,29026,1,0,0:0:0:0:
320,192,29179,1,0,0:0:0:0:
64,192,29333,1,8,0:0:0:0:
448,192,29333,1,0,0:0:0:0:
192,192,29641,1,0,0:0:0:0:
320,192,29949,1,8,0:0:0:0:
448,192,29949,1,0,0:0:0:0:
64,192,30256,1,0,0:0:0:0:
320,192,30410,1,0,0:0:0:0:
192,192,30564,1,8,0:0:0:0:
448,192,30564,1,0,0:0:0:0:
64,192,30718,1,0,0:0:0:0:
320,192,31026,1,0,0:0:0:0:
64,192,31179,1,8,0:0:0:0:
192,192,31179,1,0,0:0:0:0:
320,192,31487,1,0,0:0:0:0:
192,192,31641,1,0,0:0:0:0:
448,192,31795,1,8,0:0:0:0:
64,192,31795,1,0,0:0:0:0:
448,192,32103,1,0,0:0:0:0:
320,192,32103,1,4,0:0:0:0:
64,192,32103,1,0,0:0:0:0:
192,192,32410,1,8,0:0:0:0:
320,192,32410,1,0,0:0:0:0:
64,192,32718,1,0,0:0:0:0:
192,192,32872,1,0,0:0:0:0:
320,192,33026,1,8,0:0:0:0:
448,192,33026,1,0,0:0:0:0:
64,192,33179,1,0,0:0:0:0:
448,192,33487,1,0,0:0:0:0:
320,192,33641,1,8,0:0:0:0:
64,192,33641,1,0,0:0:0:0:
192,192,33949,1,0,0:0:0:0:
320,192,34103,1,0,0:0:0:0:
64,192,34256,1,8,0:0:0:0:
448,192,34256,1,0,0:0:0:0:
64,192,34564,1,4,0:0:0:0:
192,192,34564,1,0,0:0:0:0:
448,192,34564,1,0,0:0:0:0:
320,192,34872,1,8,0:0:0:0:
448,192,34872,1,0,0:0:0:0:
64,192,35179,1,0,0:0:0:0:
448,192,35333,1,0,0:0:0:0:
320,192,35410,1,0,0:0:0:0:
192,192,35487,1,8,0:0:0:0:
448,192,35641,1,0,0:0:0:0:
64,192,35641,1,8,0:0:0:0:
320,192,35949,1,8,0:0:0:0:
448,192,35949,1,0,0:0:0:0:
64,192,36103,1,8,0:0:0:0:
192,192,36103,1,0,0:0:0:0:
320,192,36256,1,4,0:0:0:0:
448,192,36256,1,0,0:0:0:0:
448,192,36564,1,0,0:0:0:0:
320,192,36641,1,0,0:0:0:0:
192,192,36718,1,0,0:0:0:0:
64,192,36795,1,0,0:0:0:0:
448,192,36872,1,0,0:0:0:0:
320,192,36949,1,0,0:0:0:0:
192,192,37026,1,0,0:0:0:0:
64,192,37026,1,4,0:0:0:0:
448,192,37179,1,0,0:0:0:0:
64,192,37333,1,0,0:0:0:0:
192,192,37487,1,0,0:0:0:0:
320,192,37641,1,0,0:0:0:0:
448,192,37949,1,0,0:0:0:0:
64,192,38103,1,0,0:0:0:0:
320,192,38410,1,0,0:0:0:0:
192,192,38718,1,0,0:0:0:0:
448,192,39179,1,0,0:0:0:0:
64,192,39487,1,2,0:0:0:0:
320,192,39487,1,0,0:0:0:0:
192,192,39795,1,0,0:0:0:0:
448,192,39949,1,0,0:0:0:0:
64,192,40103,1,0,0:0:0:0:
320,192,40256,1,0,0:0:0:0:
192,192,40410,1,0,0:0:0:0:
448,192,40872,1,0,0:0:0:0:
64,192,41179,1,0,0:0:0:0:
320,192,41487,1,0,0:0:0:0:
192,192,41641,1,0,0:0:0:0:
64,192,41949,1,2,0:0:0:0:
448,192,41949,1,0,0:0:0:0:
192,192,42103,1,0,0:0:0:0:
320,192,42256,1,0,0:0:0:0:
64,192,42410,1,0,0:0:0:0:
448,192,42564,1,0,0:0:0:0:
192,192,42872,1,0,0:0:0:0:
448,192,43026,1,0,0:0:0:0:
64,192,43333,1,0,0:0:0:0:
320,192,43641,1,0,0:0:0:0:
64,192,44103,1,0,0:0:0:0:
448,192,44410,1,0,0:0:0:0:
192,192,44564,1,0,0:0:0:0:
448,192,45026,1,0,0:0:0:0:
64,192,45128,1,0,0:0:0:0:
192,192,45231,1,0,0:0:0:0:
448,192,45333,1,0,0:0:0:0:
320,192,45436,1,0,0:0:0:0:
192,192,45538,1,0,0:0:0:0:
64,192,45641,1,8,0:0:0:0:
448,192,45744,1,0,0:0:0:0:
192,192,45846,1,0,0:0:0:0:
320,192,45949,1,0,0:0:0:0:
448,192,46026,1,0,0:0:0:0:
320,192,46103,1,8,0:0:0:0:
192,192,46179,1,0,0:0:0:0:
64,192,46256,1,0,0:0:0:0:
448,192,46333,1,0,0:0:0:0:
192,192,46410,1,0,0:0:0:0:
320,192,46487,1,0,0:0:0:0:
448,192,46564,1,8,0:0:0:0:
64,192,46641,1,0,0:0:0:0:
192,192,46718,1,0,0:0:0:0:
320,192,46795,1,0,0:0:0:0:
448,192,46872,1,4,0:0:0:0:
64,192,46872,1,0,0:0:0:0:
320,192,47179,1,0,0:0:0:0:
320,192,47487,1,0,0:0:0:0:
320,192,47795,1,0,0:0:0:0:
64,192,48103,1,0,0:0:0:0:
64,192,48410,1,0,0:0:0:0:
64,192,48718,1,0,0:0:0:0:
320,192,48872,1,4,0:0:0:0:
448,192,48872,1,0,0:0:0:0:
192,192,49026,1,0,0:0:0:0:
64,192,49179,1,4,0:0:0:0:
448,192,49179,1,0,0:0:0:0:
320,192,49333,1,0,0:0:0:0:
192,192,49641,1,0,0:0:0:0:
192,192,49949,1,0,0:0:0:0:
192,192,50256,1,0,0:0:0:0:
448,192,50564,1,0,0:0:0:0:
448,192,50872,1,0,0:0:0:0:
320,192,51026,1,0,0:0:0:0:
192,192,51179,1,8,0:0:0:0:
64,192,51179,1,0,0:0:0:0:
320,192,51333,1,8,0:0:0:0:
448,192,51333,1,0,0:0:0:0:
192,192,51487,1,8,0:0:0:0:
64,192,51487,1,0,0:0:0:0:
320,192,51641,1,8,0:0:0:0:
448,192,51641,1,0,0:0:0:0:
192,192,51795,1,4,0:0:0:0:
64,192,51795,1,0,0:0:0:0:
320,192,51949,1,0,0:0:0:0:
64,192,52103,1,8,0:0:0:0:
448,192,52103,1,0,0:0:0:0:
192,192,52256,1,0,0:0:0:0:
320,192,52410,1,8,0:0:0:0:
448,192,52410,1,0,0:0:0:0:
64,192,52564,1,0,0:0:0:0:
448,192,52718,1,8,0:0:0:0:
192,192,52872,1,8,0:0:0:0:
320,192,52872,1,0,0:0:0:0:
64,192,53026,1,0,0:0:0:0:
448,192,53179,1,0,0:0:0:0:
320,192,53333,1,8,0:0:0:0:
64,192,53333,1,0,0:0:0:0:
192,192,53487,1,0,0:0:0:0:
448,192,53641,1,8,0:0:0:0:
192,192,53795,1,8,0:0:0:0:
64,192,53795,1,0,0:0:0:0:
320,192,53949,1,0,0:0:0:0:
192,192,54103,1,0,0:0:0:0:
64,192,54256,1,8,0:0:0:0:
320,192,54256,1,0,0:0:0:0:
448,192,54256,1,0,0:0:0:0:
192,192,54564,1,0,0:0:0:0:
320,192,54872,1,0,0:0:0:0:
448,192,54872,1,0,0:0:0:0:
64,192,55179,1,0,0:0:0:0:
448,192,55179,1,0,0:0:0:0:
192,192,55256,1,0,0:0:0:0:
320,192,55256,1,0,0:0:0:0:
64,192,55333,1,0,0:0:0:0:
448,192,55333,1,0,0:0:0:0:
448,192,56410,128,0,56718:0:0:0:0:
192,192,56718,1,0,0:0:0:0:
64,192,56718,1,4,0:0:0:0:
320,192,56718,1,0,0:0:0:0:
320,192,57026,1,8,0:0:0:0:
448,192,57333,1,0,0:0:0:0:
192,192,57641,1,0,0:0:0:0:
64,192,57641,1,8,0:0:0:0:
320,192,57949,1,0,0:0:0:0:
448,192,58256,1,8,0:0:0:0:
64,192,58256,1,0,0:0:0:0:
192,192,58564,1,0,0:0:0:0:
320,192,58872,1,8,0:0:0:0:
64,192,58872,1,0,0:0:0:0:
448,192,59026,1,0,0:0:0:0:
320,192,59103,1,0,0:0:0:0:
192,192,59179,1,0,0:0:0:0:
64,192,59179,1,8,0:0:0:0:
320,192,59487,1,8,0:0:0:0:
448,192,59487,1,0,0:0:0:0:
64,192,59795,1,0,0:0:0:0:
192,192,60103,1,8,0:0:0:0:
448,192,60103,1,0,0:0:0:0:
320,192,60410,1,0,0:0:0:0:
192,192,60718,1,0,0:0:0:0:
64,192,60718,1,8,0:0:0:0:
448,192,61026,1,0,0:0:0:0:
192,192,61333,1,8,0:0:0:0:
320,192,61333,1,0,0:0:0:0:
64,192,61641,1,4,0:0:0:0:
192,192,61641,1,0,0:0:0:0:
448,192,61641,1,0,0:0:0:0:
320,192,61949,1,0,0:0:0:0:
448,192,61949,1,8,0:0:0:0:
192,192,62103,1,0,0:0:0:0:
64,192,62256,1,0,0:0:0:0:
192,192,62564,1,8,0:0:0:0:
320,192,62564,1,0,0:0:0:0:
448,192,62718,1,0,0:0:0:0:
64,192,62872,1,0,0:0:0:0:
192,192,63179,1,8,0:0:0:0:
448,192,63179,1,0,0:0:0:0:
320,192,63333,1,0,0:0:0:0:
64,192,63487,128,0,63795:0:0:0:0:
320,192,63795,1,0,0:0:0:0:
448,192,63795,1,0,0:0:0:0:
192,192,63949,1,4,0:0:0:0:
448,192,63949,1,0,0:0:0:0:
64,192,63949,1,0,0:0:0:0:
320,192,64256,1,0,0:0:0:0:
192,192,64410,1,8,0:0:0:0:
64,192,64410,1,0,0:0:0:0:
448,192,64564,1,0,0:0:0:0:
192,192,64718,1,8,0:0:0:0:
320,192,64718,1,0,0:0:0:0:
64,192,65026,1,0,0:0:0:0:
192,192,65179,1,0,0:0:0:0:
320,192,65333,1,8,0:0:0:0:
448,192,65333,1,0,0:0:0:0:
192,192,65487,1,0,0:0:0:0:
64,192,65641,1,8,0:0:0:0:
448,192,65641,1,0,0:0:0:0:
320,192,65949,1,0,0:0:0:0:
448,192,65949,1,8,0:0:0:0:
192,192,66103,1,0,0:0:0:0:
320,192,66179,1,0,0:0:0:0:
448,192,66256,1,8,0:0:0:0:
64,192,66256,1,0,0:0:0:0:
320,192,66410,1,0,0:0:0:0:
192,192,66487,1,0,0:0:0:0:
448,192,66564,1,4,0:0:0:0:
64,192,66564,1,0,0:0:0:0:
320,192,66564,1,0,0:0:0:0:
320,192,66872,1,8,0:0:0:0:
448,192,66872,1,0,0:0:0:0:
192,192,67026,1,0,0:0:0:0:
64,192,67179,1,0,0:0:0:0:
192,192,67487,1,8,0:0:0:0:
320,192,67487,1,0,0:0:0:0:
448,192,67641,1,0,0:0:0:0:
64,192,67795,1,0,0:0:0:0:
192,192,67949,1,0,0:0:0:0:
320,192,68103,1,8,0:0:0:0:
448,192,68103,1,0,0:0:0:0:
64,192,68410,1,0,0:0:0:0:
448,192,68564,1,0,0:0:0:0:
192,192,68718,1,8,0:0:0:0:
320,192,68718,1,0,0:0:0:0:
64,192,68872,1,0,0:0:0:0:
192,192,68949,1,0,0:0:0:0:
320,192,69026,1,0,0:0:0:0:
448,192,69026,1,8,0:0:0:0:
64,192,69333,1,8,0:0:0:0:
448,192,69333,1,0,0:0:0:0:
320,192,69487,1,0,0:0:0:0:
192,192,69641,1,0,0:0:0:0:
320,192,69949,1,8,0:0:0:0:
448,192,69949,1,0,0:0:0:0:
192,192,70256,1,0,0:0:0:0:
448,192,70410,1,0,0:0:0:0:
320,192,70564,1,8,0:0:0:0:
64,192,70564,1,0,0:0:0:0:
448,192,70872,1,0,0:0:0:0:
192,192,71026,1,0,0:0:0:0:
320,192,71103,1,0,0:0:0:0:
448,192,71179,1,0,0:0:0:0:
64,192,71179,1,8,0:0:0:0:
320,192,71333,1,0,0:0:0:0:
192,192,71410,1,0,0:0:0:0:
64,192,71487,1,4,0:0:0:0:
448,192,71487,1,0,0:0:0:0:
192,192,71795,1,8,0:0:0:0:
64,192,71795,1,0,0:0:0:0:
448,192,72103,1,0,0:0:0:0:
320,192,72410,1,8,0:0:0:0:
64,192,72410,1,0,0:0:0:0:
448,192,72718,1,0,0:0:0:0:
192,192,73026,1,8,0:0:0:0:
64,192,73026,1,0,0:0:0:0:
320,192,73179,1,0,0:0:0:0:
64,192,73333,1,0,0:0:0:0:
448,192,73333,1,0,0:0:0:0:
192,192,73487,1,0,0:0:0:0:
320,192,73564,1,0,0:0:0:0:
448,192,73641,1,8,0:0:0:0:
192,192,73795,1,0,0:0:0:0:
64,192,73795,1,4,0:0:0:0:
448,192,74103,1,0,0:0:0:0:
320,192,74256,1,8,0:0:0:0:
64,192,74256,1,0,0:0:0:0:
192,192,74410,1,0,0:0:0:0:
448,192,74564,1,0,0:0:0:0:
64,192,74564,1,8,0:0:0:0:
192,192,74872,1,0,0:0:0:0:
320,192,75026,1,0,0:0:0:0:
448,192,75026,1,0,0:0:0:0:
64,192,75179,1,8,0:0:0:0:
320,192,75333,1,0,0:0:0:0:
192,192,75487,1,8,0:0:0:0:
448,192,75487,1,0,0:0:0:0:
320,192,75795,1,0,0:0:0:0:
64,192,75949,1,0,0:0:0:0:
192,192,76026,1,0,0:0:0:0:
320,192,76103,1,8,0:0:0:0:
448,192,76256,1,4,0:0:0:0:
192,192,76256,1,0,0:0:0:0:
64,192,76256,1,0,0:0:0:0:
320,192,76718,1,8,0:0:0:0:
448,192,76718,1,0,0:0:0:0:
192,192,77026,1,0,0:0:0:0:
448,192,77333,1,0,0:0:0:0:
64,192,77333,1,8,0:0:0:0:
320,192,77641,1,0,0:0:0:0:
192,192,77949,1,8,0:0:0:0:
64,192,77949,1,0,0:0:0:0:
320,192,78256,1,0,0:0:0:0:
64,192,78410,1,0,0:0:0:0:
192,192,78564,1,8,0:0:0:0:
448,192,78564,1,0,0:0:0:0:
64,192,78718,1,0,0:0:0:0:
192,192,78795,1,0,0:0:0:0:
320,192,78872,1,8,0:0:0:0:
448,192,78872,1,0,0:0:0:0:
64,192,79179,1,0,0:0:0:0:
192,192,79179,1,8,0:0:0:0:
320,192,79333,1,8,0:0:0:0:
448,192,79333,1,0,0:0:0:0:
192,192,79487,1,8,0:0:0:0:
64,192,79487,1,0,0:0:0:0:
320,192,79641,1,8,0:0:0:0:
448,192,79641,1,0,0:0:0:0:
192,192,79795,1,8,0:0:0:0:
64,192,79795,1,0,0:0:0:0:
448,192,79949,1,0,0:0:0:0:
320,192,79949,1,8,0:0:0:0:
64,192,80103,1,0,0:0:0:0:
448,192,80256,1,0,0:0:0:0:
320,192,80410,1,0,0:0:0:0:
192,192,80564,1,0,0:0:0:0:
448,192,80718,1,0,0:0:0:0:
64,192,80872,1,0,0:0:0:0:
192,192,81026,1,0,0:0:0:0:
320,192,81179,1,4,0:0:0:0:
448,192,81179,1,0,0:0:0:0:
64,192,81179,1,0,0:0:0:0:
192,192,81487,1,0,0:0:0:0:
320,192,81641,1,8,0:0:0:0:
448,192,81641,1,0,0:0:0:0:
64,192,81949,1,0,0:0:0:0:
448,192,82103,1,0,0:0:0:0:
192,192,82256,1,8,0:0:0:0:
320,192,82256,1,0,0:0:0:0:
448,192,82564,1,0,0:0:0:0:
192,192,82718,1,0,0:0:0:0:
320,192,82872,1,8,0:0:0:0:
64,192,82872,1,0,0:0:0:0:
192,192,83179,1,0,0:0:0:0:
320,192,83333,1,0,0:0:0:0:
64,192,83487,1,8,0:0:0:0:
192,192,83487,1,0,0:0:0:0:
320,192,83641,1,4,0:0:0:0:
448,192,83641,1,0,0:0:0:0:
192,192,83949,1,0,0:0:0:0:
64,192,84103,1,8,0:0:0:0:
448,192,84103,1,0,0:0:0:0:
320,192,84410,1,0,0:0:0:0:
64,192,84564,1,0,0:0:0:0:
192,192,84718,1,8,0:0:0:0:
448,192,84718,1,0,0:0:0:0:
448,192,85026,1,0,0:0:0:0:
320,192,85179,1,0,0:0:0:0:
192,192,85333,1,0,0:0:0:0:
64,192,85333,1,8,0:0:0:0:
448,192,85641,1,0,0:0:0:0:
64,192,85795,1,0,0:0:0:0:
192,192,85949,1,8,0:0:0:0:
320,192,85949,1,0,0:0:0:0:
448,192,86103,1,4,0:0:0:0:
64,192,86103,1,0,0:0:0:0:
320,192,86410,1,0,0:0:0:0:
64,192,86564,1,8,0:0:0:0:
448,192,86564,1,0,0:0:0:0:
192,192,86872,1,0,0:0:0:0:
448,192,87026,1,0,0:0:0:0:
320,192,87179,1,0,0:0:0:0:
64,192,87179,1,8,0:0:0:0:
192,192,87487,1,0,0:0:0:0:
320,192,87641,1,0,0:0:0:0:
448,192,87795,1,8,0:0:0:0:
64,192,87795,1,0,0:0:0:0:
192,192,88103,1,0,0:0:0:0:
448,192,88256,1,0,0:0:0:0:
320,192,88410,1,8,0:0:0:0:
64,192,88410,1,0,0:0:0:0:
192,192,88564,1,0,0:0:0:0:
320,192,88641,1,0,0:0:0:0:
64,192,88718,1,0,0:0:0:0:
448,192,88718,1,8,0:0:0:0:
320,192,88872,1,0,0:0:0:0:
192,192,89026,1,8,0:0:0:0:
64,192,89026,1,0,0:0:0:0:
448,192,89179,1,0,0:0:0:0:
192,192,89333,1,0,0:0:0:0:
320,192,89333,1,8,0:0:0:0:
64,192,89487,1,0,0:0:0:0:
320,192,89641,1,0,0:0:0:0:
448,192,89641,1,8,0:0:0:0:
192,192,89795,128,0,90564:0:0:0:0:
448,192,90564,128,0,91179:0:0:0:0:
192,192,91179,1,0,0:0:0:0:
64,192,91179,1,4,0:0:0:0:
320,192,91333,1,0,0:0:0:0:
64,192,91487,1,8,0:0:0:0:
448,192,91641,1,0,0:0:0:0:
192,192,91795,1,0,0:0:0:0:
320,192,91949,1,0,0:0:0:0:
448,192,92103,1,8,0:0:0:0:
64,192,92256,1,0,0:0:0:0:
320,192,92410,1,0,0:0:0:0:
192,192,92564,1,0,0:0:0:0:
64,192,92718,1,8,0:0:0:0:
448,192,92872,1,0,0:0:0:0:
192,192,93026,1,0,0:0:0:0:
320,192,93179,1,0,0:0:0:0:
64,192,93333,1,8,0:0:0:0:
448,192,93487,1,0,0:0:0:0:
320,192,93641,1,0,0:0:0:0:
192,192,93795,1,0,0:0:0:0:
64,192,93949,1,8,0:0:0:0:
448,192,94103,1,0,0:0:0:0:
192,192,94256,1,0,0:0:0:0:
320,192,94410,1,0,0:0:0:0:
448,192,94564,1,8,0:0:0:0:
64,192,94718,1,0,0:0:0:0:
320,192,94872,1,0,0:0:0:0:
192,192,95026,1,0,0:0:0:0:
64,192,95179,1,8,0:0:0:0:
448,192,95333,1,0,0:0:0:0:
192,192,95487,1,0,0:0:0:0:
64,192,95641,1,0,0:0:0:0:
320,192,95795,1,8,0:0:0:0:
448,192,95949,1,0,0:0:0:0:
192,192,96103,1,0,0:0:0:0:
64,192,96103,1,4,0:0:0:0:
320,192,96256,1,0,0:0:0:0:
64,192,96410,1,8,0:0:0:0:
448,192,96564,1,0,0:0:0:0:
192,192,96718,1,0,0:0:0:0:
320,192,96872,1,0,0:0:0:0:
64,192,97026,1,8,0:0:0:0:
448,192,97179,1,0,0:0:0:0:
320,192,97333,1,0,0:0:0:0:
192,192,97487,1,0,0:0:0:0:
448,192,97641,1,8,0:0:0:0:
64,192,97795,1,0,0:0:0:0:
192,192,97949,1,0,0:0:0:0:
320,192,98103,1,0,0:0:0:0:
448,192,98256,1,8,0:0:0:0:
64,192,98410,1,0,0:0:0:0:
320,192,98564,1,0,0:0:0:0:
192,192,98718,1,0,0:0:0:0:
448,192,98872,1,8,0:0:0:0:
320,192,99026,1,0,0:0:0:0:
192,192,99179,1,0,0:0:0:0:
64,192,99333,1,0,0:0:0:0:
448,192,99487,1,8,0:0:0:0:
192,192,99641,1,0,0:0:0:0:
320,192,99795,1,0,0:0:0:0:
448,192,99949,1,0,0:0:0:0:
64,192,100103,1,8,0:0:0:0:
320,192,100256,1,0,0:0:0:0:
448,192,100410,1,0,0:0:0:0:
192,192,100564,128,0,101026:0:0:0:0:
320,192,101026,1,4,0:0:0:0:
448,192,101026,1,0,0:0:0:0:
64,192,101333,1,8,0:0:0:0:
320,192,101333,1,0,0:0:0:0:
448,192,101641,1,0,0:0:0:0:
320,192,101795,1,0,0:0:0:0:
192,192,101949,1,8,0:0:0:0:
64,192,101949,1,0,0:0:0:0:
448,192,102103,1,0,0:0:0:0:
192,192,102410,1,0,0:0:0:0:
320,192,102564,1,8,0:0:0:0:
448,192,102564,1,0,0:0:0:0:
64,192,102718,1,0,0:0:0:0:
192,192,102872,1,0,0:0:0:0:
320,192,103026,1,0,0:0:0:0:
448,192,103179,1,8,0:0:0:0:
64,192,103179,1,0,0:0:0:0:
192,192,103333,1,0,0:0:0:0:
448,192,103487,1,0,0:0:0:0:
320,192,103641,1,0,0:0:0:0:
64,192,103795,1,8,0:0:0:0:
192,192,103795,1,0,0:0:0:0:
448,192,104103,1,0,0:0:0:0:
192,192,104256,1,0,0:0:0:0:
320,192,104410,1,0,0:0:0:0:
448,192,104410,1,8,0:0:0:0:
64,192,104564,1,0,0:0:0:0:
64,192,104872,1,0,0:0:0:0:
320,192,105026,1,8,0:0:0:0:
448,192,105026,1,0,0:0:0:0:
192,192,105179,1,0,0:0:0:0:
64,192,105333,1,0,0:0:0:0:
448,192,105487,1,0,0:0:0:0:
64,192,105641,1,8,0:0:0:0:
320,192,105641,1,0,0:0:0:0:
192,192,105795,1,0,0:0:0:0:
448,192,105949,1,0,0:0:0:0:
64,192,106103,1,0,0:0:0:0:
320,192,106256,1,8,0:0:0:0:
448,192,106256,1,0,0:0:0:0:
192,192,106564,1,0,0:0:0:0:
448,192,106718,1,0,0:0:0:0:
320,192,106872,1,8,0:0:0:0:
64,192,106872,1,0,0:0:0:0:
192,192,107026,1,0,0:0:0:0:
192,192,107333,1,0,0:0:0:0:
320,192,107487,1,8,0:0:0:0:
448,192,107487,1,0,0:0:0:0:
64,192,107795,1,0,0:0:0:0:
192,192,107949,1,0,0:0:0:0:
320,192,108103,1,8,0:0:0:0:
448,192,108103,1,0,0:0:0:0:
192,192,108410,1,0,0:0:0:0:
320,192,108564,1,0,0:0:0:0:
192,192,108718,1,0,0:0:0:0:
64,192,108718,1,8,0:0:0:0:
192,192,109026,1,8,0:0:0:0:
320,192,109026,1,0,0:0:0:0:
64,192,109179,1,0,0:0:0:0:
192,192,109256,1,0,0:0:0:0:
320,192,109333,1,0,0:0:0:0:
448,192,109333,1,8,0:0:0:0:
192,192,109487,1,0,0:0:0:0:
64,192,109487,1,8,0:0:0:0:
64,192,109795,1,8,0:0:0:0:
320,192,109795,1,0,0:0:0:0:
192,192,109949,1,0,0:0:0:0:
448,192,110103,1,0,0:0:0:0:
64,192,110103,1,8,0:0:0:0:
320,192,110103,1,0,0:0:0:0:
448,192,110410,1,0,0:0:0:0:
320,192,110487,1,0,0:0:0:0:
192,192,110564,1,0,0:0:0:0:
64,192,110641,1,0,0:0:0:0:
192,192,110718,1,0,0:0:0:0:
320,192,110795,1,0,0:0:0:0:
192,192,110872,1,4,0:0:0:0:
64,192,110872,1,0,0:0:0:0:
448,192,110872,1,0,0:0:0:0:
448,192,111487,128,0,113333:0:0:0:0:
192,192,113333,128,0,114256:0:0:0:0:
320,192,114256,128,0,114564:0:0:0:0:
64,192,114564,128,0,115026:0:0:0:0:
192,192,115026,128,0,115487:0:0:0:0:
320,192,115487,1,0,0:0:0:0:
448,192,115487,128,8,115795:0:0:0:0:
192,192,115795,1,0,0:0:0:0:
64,192,115795,1,4,0:0:0:0:
192,192,116718,1,0,0:0:0:0:
320,192,116872,1,0,0:0:0:0:
448,192,117026,1,0,0:0:0:0:
192,192,117487,1,0,0:0:0:0:
64,192,117949,1,0,0:0:0:0:
448,192,118256,1,0,0:0:0:0:
320,192,118718,1,0,0:0:0:0:
64,192,119487,1,0,0:0:0:0:
448,192,119487,1,0,0:0:0:0:
192,192,120256,128,0,120718:0:0:0:0:
320,192,120718,1,0,0:0:0:0:
448,192,120718,1,8,0:0:0:0:
64,192,121949,1,8,0:0:0:0:
192,192,121949,1,0,0:0:0:0:
64,192,123179,1,8,0:0:0:0:
448,192,123179,1,0,0:0:0:0:
320,192,124410,1,8,0:0:0:0:
192,192,124410,1,0,0:0:0:0:
64,192,125026,1,8,0:0:0:0:
192,192,125026,1,0,0:0:0:0:
320,192,125179,1,8,0:0:0:0:
448,192,125179,1,0,0:0:0:0:
192,192,125333,1,0,0:0:0:0:
64,192,125333,1,8,0:0:0:0:
320,192,125487,1,0,0:0:0:0:
192,192,125487,1,8,0:0:0:0:
64,192,125641,1,8,0:0:0:0:
448,192,125641,1,4,0:0:0:0:
192,192,125949,1,0,0:0:0:0:
320,192,125949,1,8,0:0:0:0:
64,192,126256,1,8,0:0:0:0:
448,192,126256,1,0,0:0:0:0:
64,192,126564,1,0,0:0:0:0:
320,192,126718,1,8,0:0:0:0:
192,192,126718,1,0,0:0:0:0:
320,192,127026,1,0,0:0:0:0:
448,192,127179,1,0,0:0:0:0:
64,192,127179,1,8,0:0:0:0:
192,192,127487,1,0,0:0:0:0:
64,192,127641,1,8,0:0:0:0:
448,192,127641,1,0,0:0:0:0:
192,192,128103,1,4,0:0:0:0:
320,192,128103,1,0,0:0:0:0:
64,192,128410,1,0,0:0:0:0:
448,192,128718,1,0,0:0:0:0:
192,192,129026,1,0,0:0:0:0:
320,192,129333,1,0,0:0:0:0:
64,192,129487,1,8,0:0:0:0:
448,192,129487,1,0,0:0:0:0:
320,192,129641,1,0,0:0:0:0:
192,192,129795,1,0,0:0:0:0:
64,192,129949,1,8,0:0:0:0:
448,192,129949,1,0,0:0:0:0:
192,192,130103,1,0,0:0:0:0:
320,192,130179,1,0,0:0:0:0:
448,192,130256,128,8,130564:0:0:0:0:
64,192,130256,1,0,0:0:0:0:
192,192,130564,1,4,0:0:0:0:
64,192,130564,1,0,0:0:0:0:
320,192,130872,1,8,0:0:0:0:
448,192,130872,1,0,0:0:0:0:
192,192,131179,1,0,0:0:0:0:
64,192,131487,1,8,0:0:0:0:
448,192,131487,1,0,0:0:0:0:
320,192,131795,1,0,0:0:0:0:
192,192,132103,1,8,0:0:0:0:
64,192,132103,1,0,0:0:0:0:
448,192,132410,1,0,0:0:0:0:
320,192,132718,1,0,0:0:0:0:
64,192,132718,1,8,0:0:0:0:
192,192,132872,1,0,0:0:0:0:
320,192,132949,1,0,0:0:0:0:
448,192,133026,1,8,0:0:0:0:
64,192,133026,1,0,0:0:0:0:
192,192,133333,1,8,0:0:0:0:
320,192,133333,1,0,0:0:0:0:
64,192,133641,1,0,0:0:0:0:
192,192,133949,1,8,0:0:0:0:
448,192,133949,1,0,0:0:0:0:
320,192,134256,1,0,0:0:0:0:
192,192,134564,1,0,0:0:0:0:
64,192,134564,1,8,0:0:0:0:
448,192,134872,1,0,0:0:0:0:
320,192,135179,1,8,0:0:0:0:
64,192,135179,1,0,0:0:0:0:
64,192,135487,1,4,0:0:0:0:
192,192,135487,1,0,0:0:0:0:
448,192,135487,1,0,0:0:0:0:
320,192,135795,1,8,0:0:0:0:
448,192,135795,1,0,0:0:0:0:
192,192,136103,1,0,0:0:0:0:
64,192,136410,1,8,0:0:0:0:
448,192,136410,1,0,0:0:0:0:
320,192,136718,1,0,0:0:0:0:
192,192,137026,1,8,0:0:0:0:
64,192,137026,1,0,0:0:0:0:
448,192,137333,1,0,0:0:0:0:
320,192,137410,1,0,0:0:0:0:
192,192,137487,1,0,0:0:0:0:
64,192,137564,1,0,0:0:0:0:
320,192,137641,1,0,0:0:0:0:
192,192,137795,1,0,0:0:0:0:
448,192,137795,1,4,0:0:0:0:
192,192,138103,1,0,0:0:0:0:
64,192,138256,1,8,0:0:0:0:
448,192,138256,1,0,0:0:0:0:
320,192,138410,1,0,0:0:0:0:
192,192,138564,1,0,0:0:0:0:
448,192,138564,1,8,0:0:0:0:
64,192,138872,1,0,0:0:0:0:
192,192,139026,1,0,0:0:0:0:
448,192,139179,1,8,0:0:0:0:
320,192,139179,1,0,0:0:0:0:
192,192,139333,1,0,0:0:0:0:
64,192,139487,1,8,0:0:0:0:
448,192,139487,1,0,0:0:0:0:
64,192,139795,1,0,0:0:0:0:
192,192,139872,1,0,0:0:0:0:
320,192,139949,1,0,0:0:0:0:
448,192,140026,1,0,0:0:0:0:
64,192,140103,1,0,0:0:0:0:
192,192,140179,1,0,0:0:0:0:
320,192,140256,1,0,0:0:0:0:
448,192,140333,1,0,0:0:0:0:
192,192,140410,1,4,0:0:0:0:
64,192,140410,1,0,0:0:0:0:
320,192,140410,1,0,0:0:0:0:
448,192,140718,1,8,0:0:0:0:
64,192,140718,1,0,0:0:0:0:
192,192,141026,1,0,0:0:0:0:
64,192,141333,1,8,0:0:0:0:
320,192,141333,1,0,0:0:0:0:
448,192,141641,1,0,0:0:0:0:
192,192,141949,1,8,0:0:0:0:
320,192,141949,1,0,0:0:0:0:
64,192,142256,1,0,0:0:0:0:
320,192,142564,1,8,0:0:0:0:
192,192,142564,1,0,0:0:0:0:
64,192,142718,1,0,0:0:0:0:
192,192,142795,1,0,0:0:0:0:
320,192,142872,1,0,0:0:0:0:
448,192,142872,1,8,0:0:0:0:
64,192,143179,1,8,0:0:0:0:
448,192,143179,1,0,0:0:0:0:
320,192,143487,1,0,0:0:0:0:
192,192,143795,1,8,0:0:0:0:
64,192,143795,1,0,0:0:0:0:
448,192,144103,1,0,0:0:0:0:
320,192,144410,1,8,0:0:0:0:
192,192,144410,1,0,0:0:0:0:
448,192,144718,1,0,0:0:0:0:
192,192,144872,1,0,0:0:0:0:
320,192,144949,1,0,0:0:0:0:
448,192,145026,1,0,0:0:0:0:
64,192,145026,1,8,0:0:0:0:
320,192,145179,1,0,0:0:0:0:
192,192,145256,1,0,0:0:0:0:
64,192,145333,1,4,0:0:0:0:
448,192,145333,1,0,0:0:0:0:
320,192,145641,1,8,0:0:0:0:
448,192,145641,1,0,0:0:0:0:
192,192,145949,1,0,0:0:0:0:
64,192,146256,1,8,0:0:0:0:
448,192,146256,1,0,0:0:0:0:
320,192,146564,1,0,0:0:0:0:
192,192,146872,1,8,0:0:0:0:
64,192,146872,1,0,0:0:0:0:
448,192,147179,1,0,0:0:0:0:
320,192,147256,1,0,0:0:0:0:
192,192,147333,1,0,0:0:0:0:
64,192,147410,1,0,0:0:0:0:
320,192,147487,1,0,0:0:0:0:
192,192,147641,1,4,0:0:0:0:
64,192,147641,1,0,0:0:0:0:
448,192,147641,1,0,0:0:0:0:
192,192,147949,1,8,0:0:0:0:
320,192,148103,1,8,0:0:0:0:
448,192,148103,1,0,0:0:0:0:
64,192,148410,1,8,0:0:0:0:
448,192,148410,1,0,0:0:0:0:
320,192,148718,1,0,0:0:0:0:
192,192,148872,1,0,0:0:0:0:
64,192,148872,1,8,0:0:0:0:
448,192,149026,1,0,0:0:0:0:
64,192,149179,1,0,0:0:0:0:
448,192,149333,1,8,0:0:0:0:
320,192,149333,1,0,0:0:0:0:
64,192,149641,1,8,0:0:0:0:
192,192,149718,1,0,0:0:0:0:
320,192,149795,1,0,0:0:0:0:
448,192,149872,1,0,0:0:0:0:
192,192,149949,1,8,0:0:0:0:
64,192,150103,1,4,0:0:0:0:
320,192,150103,1,0,0:0:0:0:
448,192,150103,1,0,0:0:0:0:
192,192,150564,1,8,0:0:0:0:
320,192,150564,1,0,0:0:0:0:
448,192,150872,1,0,0:0:0:0:
64,192,151179,1,8,0:0:0:0:
320,192,151179,1,0,0:0:0:0:
192,192,151487,1,0,0:0:0:0:
320,192,151795,1,8,0:0:0:0:
448,192,151795,1,0,0:0:0:0:
192,192,152103,128,8,152718:0:0:0:0:
448,192,152718,1,0,0:0:0:0:
320,192,152718,1,4,0:0:0:0:
64,192,152718,1,0,0:0:0:0:
192,192,153026,1,0,0:0:0:0:
320,192,153179,1,0,0:0:0:0:
192,192,153333,1,8,0:0:0:0:
64,192,153333,1,0,0:0:0:0:
320,192,153487,1,0,0:0:0:0:
448,192,153487,1,8,0:0:0:0:
192,192,153641,1,8,0:0:0:0:
64,192,153641,128,0,153949:0:0:0:0:
320,192,153795,1,8,0:0:0:0:
448,192,153949,1,0,0:0:0:0:
192,192,154103,1,0,0:0:0:0:
320,192,154256,1,0,0:0:0:0:
64,192,154410,1,0,0:0:0:0:
448,192,154564,1,0,0:0:0:0:
192,192,154718,1,0,0:0:0:0:
320,192,155026,1,4,0:0:0:0:
448,192,155026,1,0,0:0:0:0:
64,192,155026,1,0,0:0:0:0:
320,192,157333,1,8,0:0:0:0:
64,192,157333,1,0,0:0:0:0:
64,192,157487,1,8,0:0:0:0:
320,192,157487,1,0,0:0:0:0:
64,192,157641,1,4,0:0:0:0:
192,192,157641,1,0,0:0:0:0:
448,192,157641,1,0,0:0:0:0:
448,192,159795,1,8,0:0:0:0:
320,192,159795,1,0,0:0:0:0:
320,192,159949,1,0,0:0:0:0:
448,192,159949,1,8,0:0:0:0:
64,192,160103,1,4,0:0:0:0:
192,192,160103,1,0,0:0:0:0:
448,192,160103,1,0,0:0:0:0:
64,192,161026,1,8,0:0:0:0:
192,192,161026,1,0,0:0:0:0:
64,192,161179,1,8,0:0:0:0:
192,192,161179,1,0,0:0:0:0:
448,192,161333,1,4,0:0:0:0:
320,192,161333,1,0,0:0:0:0:
64,192,161333,1,0,0:0:0:0:
192,192,162256,1,8,0:0:0:0:
320,192,162256,1,0,0:0:0:0:
192,192,162410,1,8,0:0:0:0:
320,192,162410,1,0,0:0:0:0:
448,192,162564,1,0,0:0:0:0:
64,192,162564,1,4,0:0:0:0:
192,192,162564,1,0,0:0:0:0:
64,192,163179,1,4,0:0:0:0:
320,192,163179,1,0,0:0:0:0:
448,192,163179,1,0,0:0:0:0:
192,192,163795,1,0,0:0:0:0:
320,192,163795,1,0,0:0:0:0:
64,192,163949,1,8,0:0:0:0:
192,192,164026,1,8,0:0:0:0:
320,192,164103,1,8,0:0:0:0:
448,192,164103,1,0,0:0:0:0:
192,192,164256,1,0,0:0:0:0:
64,192,164256,1,8,0:0:0:0:
320,192,164410,1,8,0:0:0:0:
448,192,164410,1,0,0:0:0:0:
64,192,164564,1,8,0:0:0:0:
192,192,164564,1,0,0:0:0:0:
320,192,164718,1,8,0:0:0:0:
448,192,164718,1,0,0:0:0:0:
64,192,164872,1,8,0:0:0:0:
192,192,164872,1,0,0:0:0:0:
320,192,165026,1,0,0:0:0:0:
448,192,165026,1,4,0:0:0:0:
192,192,165179,1,0,0:0:0:0:
192,192,165487,1,0,0:0:0:0:
64,192,165641,1,8,0:0:0:0:
448,192,165641,1,0,0:0:0:0:
320,192,165949,1,0,0:0:0:0:
192,192,166103,1,0,0:0:0:0:
192,192,166410,1,0,0:0:0:0:
448,192,166564,1,8,0:0:0:0:
320,192,166564,1,0,0:0:0:0:
192,192,166872,1,0,0:0:0:0:
448,192,167026,1,0,0:0:0:0:
320,192,167179,1,8,0:0:0:0:
64,192,167179,1,0,0:0:0:0:
192,192,167487,1,0,0:0:0:0:
448,192,167641,1,0,0:0:0:0:
448,192,167949,1,0,0:0:0:0:
192,192,168103,1,8,0:0:0:0:
64,192,168103,1,0,0:0:0:0:
320,192,168410,1,0,0:0:0:0:
64,192,168564,1,0,0:0:0:0:
448,192,168872,1,0,0:0:0:0:
320,192,169026,1,8,0:0:0:0:
64,192,169026,1,0,0:0:0:0:
192,192,169333,1,0,0:0:0:0:
320,192,169487,1,0,0:0:0:0:
448,192,169641,1,8,0:0:0:0:
64,192,169641,1,0,0:0:0:0:
192,192,169949,1,0,0:0:0:0:
448,192,170103,1,0,0:0:0:0:
448,192,170410,1,0,0:0:0:0:
192,192,170564,1,8,0:0:0:0:
64,192,170564,1,0,0:0:0:0:
64,192,170872,1,0,0:0:0:0:
320,192,171026,1,0,0:0:0:0:
320,192,171333,1,0,0:0:0:0:
64,192,171487,1,8,0:0:0:0:
448,192,171487,1,0,0:0:0:0:
192,192,171795,1,0,0:0:0:0:
448,192,171949,1,0,0:0:0:0:
320,192,172103,1,8,0:0:0:0:
64,192,172103,1,0,0:0:0:0:
192,192,172410,1,0,0:0:0:0:
448,192,172564,1,0,0:0:0:0:
320,192,172872,1,0,0:0:0:0:
192,192,173026,1,0,0:0:0:0:
64,192,173026,1,8,0:0:0:0:
448,192,173333,1,0,0:0:0:0:
192,192,173487,1,0,0:0:0:0:
192,192,173795,1,0,0:0:0:0:
448,192,173949,1,8,0:0:0:0:
320,192,173949,1,0,0:0:0:0:
64,192,174410,1,0,0:0:0:0:
192,192,174487,1,0,0:0:0:0:
320,192,174564,1,8,0:0:0:0:
448,192,174564,1,0,0:0:0:0:
192,192,174718,1,0,0:0:0:0:
448,192,174872,1,4,0:0:0:0:
64,192,175026,1,0,0:0:0:0:
320,192,175333,1,0,0:0:0:0:
64,192,175487,1,8,0:0:0:0:
448,192,175487,1,0,0:0:0:0:
192,192,175795,1,0,0:0:0:0:
448,192,175949,1,0,0:0:0:0:
448,192,176256,1,0,0:0:0:0:
192,192,176410,1,8,0:0:0:0:
64,192,176410,1,0,0:0:0:0:
64,192,176718,1,0,0:0:0:0:
320,192,176872,1,0,0:0:0:0:
192,192,177026,1,8,0:0:0:0:
448,192,177026,1,0,0:0:0:0:
320,192,177333,1,0,0:0:0:0:
64,192,177487,1,0,0:0:0:0:
192,192,177795,1,0,0:0:0:0:
64,192,177949,1,8,0:0:0:0:
448,192,177949,1,0,0:0:0:0:
320,192,178256,1,0,0:0:0:0:
64,192,178410,1,0,0:0:0:0:
192,192,178564,1,0,0:0:0:0:
448,192,178718,1,0,0:0:0:0:
320,192,178872,1,0,0:0:0:0:
64,192,178872,1,8,0:0:0:0:
192,192,179179,1,0,0:0:0:0:
320,192,179333,1,0,0:0:0:0:
448,192,179487,1,8,0:0:0:0:
64,192,179487,1,0,0:0:0:0:
192,192,179795,1,0,0:0:0:0:
448,192,179949,1,0,0:0:0:0:
448,192,180256,1,0,0:0:0:0:
320,192,180410,1,8,0:0:0:0:
192,192,180410,1,0,0:0:0:0:
64,192,180718,1,0,0:0:0:0:
448,192,180872,1,0,0:0:0:0:
192,192,181179,1,0,0:0:0:0:
320,192,181333,1,8,0:0:0:0:
448,192,181333,1,0,0:0:0:0:
64,192,181641,1,0,0:0:0:0:
448,192,181795,1,0,0:0:0:0:
192,192,181949,1,8,0:0:0:0:
320,192,181949,1,0,0:0:0:0:
64,192,182256,1,0,0:0:0:0:
320,192,182410,1,0,0:0:0:0:
320,192,182718,1,0,0:0:0:0:
192,192,182872,1,8,0:0:0:0:
64,192,182872,1,0,0:0:0:0:
448,192,183179,1,0,0:0:0:0:
192,192,183333,1,0,0:0:0:0:
320,192,183487,1,0,0:0:0:0:
64,192,183641,1,0,0:0:0:0:
192,192,183795,1,8,0:0:0:0:
448,192,183795,1,0,0:0:0:0:
448,192,184103,1,0,0:0:0:0:
320,192,184179,1,0,0:0:0:0:
192,192,184256,1,0,0:0:0:0:
64,192,184333,1,0,0:0:0:0:
448,192,184410,1,0,0:0:0:0:
192,192,184564,1,0,0:0:0:0:
320,192,184641,1,0,0:0:0:0:
448,192,184718,1,4,0:0:0:0:
64,192,184718,1,0,0:0:0:0:
64,192,185026,1,0,0:0:0:0:
448,192,185026,1,0,0:0:0:0:
192,192,185333,1,0,0:0:0:0:
448,192,185333,1,0,0:0:0:0:
320,192,185641,1,0,0:0:0:0:
448,192,185641,1,0,0:0:0:0:
64,192,185949,1,0,0:0:0:0:
192,192,185949,1,0,0:0:0:0:
64,192,186256,1,0,0:0:0:0:
448,192,186256,1,0,0:0:0:0:
320,192,186564,1,0,0:0:0:0:
64,192,186718,1,8,0:0:0:0:
192,192,186718,1,0,0:0:0:0:
320,192,186872,1,0,0:0:0:0:
448,192,187026,1,8,0:0:0:0:
64,192,187026,1,0,0:0:0:0:
192,192,187179,1,0,0:0:0:0:
320,192,187179,1,0,0:0:0:0:
448,192,187487,1,0,0:0:0:0:
64,192,187487,1,0,0:0:0:0:
192,192,187795,1,0,0:0:0:0:
448,192,187795,1,0,0:0:0:0:
64,192,188103,1,0,0:0:0:0:
448,192,188103,1,0,0:0:0:0:
64,192,188410,1,0,0:0:0:0:
192,192,188410,1,0,0:0:0:0:
320,192,188718,1,0,0:0:0:0:
448,192,188718,1,0,0:0:0:0:
192,192,189026,1,0,0:0:0:0:
64,192,189179,1,8,0:0:0:0:
448,192,189179,1,0,0:0:0:0:
320,192,189333,1,0,0:0:0:0:
192,192,189487,1,8,0:0:0:0:
64,192,189487,1,0,0:0:0:0:
320,192,189641,1,0,0:0:0:0:
448,192,189641,1,0,0:0:0:0:
448,192,189949,1,0,0:0:0:0:
64,192,189949,1,0,0:0:0:0:
192,192,190256,1,0,0:0:0:0:
320,192,190256,1,0,0:0:0:0:
192,192,190564,1,0,0:0:0:0:
448,192,190564,1,0,0:0:0:0:
320,192,190872,1,0,0:0:0:0:
64,192,190872,1,0,0:0:0:0:
64,192,191179,1,0,0:0:0:0:
192,192,191179,1,0,0:0:0:0:
320,192,191487,1,0,0:0:0:0:
192,192,191641,1,8,0:0:0:0:
64,192,191641,1,0,0:0:0:0:
448,192,191795,1,0,0:0:0:0:
192,192,191949,1,8,0:0:0:0:
320,192,191949,1,0,0:0:0:0:
64,192,192103,1,0,0:0:0:0:
448,192,192103,1,0,0:0:0:0:
192,192,192410,1,0,0:0:0:0:
448,192,192410,1,0,0:0:0:0:
64,192,192718,1,0,0:0:0:0:
320,192,192718,1,0,0:0:0:0:
192,192,193026,1,8,0:0:0:0:
448,192,193026,1,0,0:0:0:0:
320,192,193333,1,0,0:0:0:0:
192,192,193333,1,8,0:0:0:0:
64,192,193641,1,8,0:0:0:0:
192,192,193641,1,0,0:0:0:0:
320,192,193949,1,8,0:0:0:0:
448,192,193949,1,0,0:0:0:0:
64,192,194103,1,8,0:0:0:0:
192,192,194103,1,0,0:0:0:0:
320,192,194256,1,0,0:0:0:0:
448,192,194256,1,8,0:0:0:0:
192,192,194410,1,0,0:0:0:0:
64,192,194410,1,8,0:0:0:0:
64,192,197026,1,2,0:0:0:0:
448,192,197026,1,0,0:0:0:0:
64,192,199487,1,2,0:0:0:0:
320,192,199487,1,0,0:0:0:0:
192,192,201949,1,2,0:0:0:0:
448,192,201949,1,0,0:0:0:0:
192,192,203179,1,2,0:0:0:0:
320,192,203179,1,0,0:0:0:0:
64,192,204410,1,2,0:0:0:0:
448,192,204410,1,0,0:0:0:0:
448,192,205641,1,0,0:0:0:0:
320,192,205949,1,0,0:0:0:0:
192,192,206256,1,0,0:0:0:0:
64,192,206564,1,0,0:0:0:0:
448,192,206872,1,8,0:0:0:0:
192,192,207179,1,8,0:0:0:0:
64,192,207179,1,0,0:0:0:0:
448,192,207795,1,8,0:0:0:0:
64,192,207795,1,0,0:0:0:0:
320,192,208410,1,8,0:0:0:0:
192,192,208410,1,0,0:0:0:0:
64,192,209026,1,0,0:0:0:0:
320,192,209026,1,8,0:0:0:0:
192,192,209641,1,0,0:0:0:0:
448,192,209641,1,8,0:0:0:0:
448,192,210256,1,0,0:0:0:0:
320,192,210256,1,8,0:0:0:0:
64,192,210872,1,0,0:0:0:0:
192,192,210872,1,8,0:0:0:0:
192,192,211487,1,0,0:0:0:0:
320,192,211487,1,8,0:0:0:0:
448,192,211795,1,8,0:0:0:0:
64,192,211795,1,0,0:0:0:0:
64,192,212103,1,0,0:0:0:0:
192,192,212103,1,8,0:0:0:0:
320,192,212410,1,8,0:0:0:0:
448,192,212410,1,0,0:0:0:0:
64,192,212718,1,0,0:0:0:0:
448,192,212718,1,0,0:0:0:0:
192,192,213026,1,0,0:0:0:0:
320,192,213026,1,0,0:0:0:0:
64,192,213333,1,0,0:0:0:0:
192,192,213333,1,0,0:0:0:0:
320,192,213641,1,0,0:0:0:0:
448,192,213641,1,0,0:0:0:0:
64,192,213949,1,0,0:0:0:0:
448,192,213949,1,0,0:0:0:0:
320,192,216410,128,0,216718:0:0:0:0:
64,192,216718,1,0,0:0:0:0:
192,192,216718,1,4,0:0:0:0:
448,192,216718,1,0,0:0:0:0:
192,192,217026,1,8,0:0:0:0:
320,192,217026,1,0,0:0:0:0:
64,192,217333,1,0,0:0:0:0:
192,192,217641,1,8,0:0:0:0:
448,192,217641,1,0,0:0:0:0:
320,192,217949,1,0,0:0:0:0:
64,192,218256,1,8,0:0:0:0:
192,192,218256,1,0,0:0:0:0:
448,192,218564,1,0,0:0:0:0:
320,192,218872,1,0,0:0:0:0:
192,192,218872,1,8,0:0:0:0:
64,192,219026,1,0,0:0:0:0:
192,192,219103,1,0,0:0:0:0:
320,192,219179,1,0,0:0:0:0:
448,192,219179,1,8,0:0:0:0:
64,192,219487,1,8,0:0:0:0:
448,192,219487,1,0,0:0:0:0:
192,192,219795,1,0,0:0:0:0:
320,192,220103,1,8,0:0:0:0:
448,192,220103,1,0,0:0:0:0:
64,192,220410,1,0,0:0:0:0:
192,192,220718,1,8,0:0:0:0:
448,192,220718,1,0,0:0:0:0:
320,192,221026,1,0,0:0:0:0:
192,192,221333,1,0,0:0:0:0:
64,192,221333,1,8,0:0:0:0:
448,192,221641,1,4,0:0:0:0:
320,192,221641,1,0,0:0:0:0:
64,192,221641,1,0,0:0:0:0:
192,192,221949,1,8,0:0:0:0:
448,192,221949,1,0,0:0:0:0:
320,192,222256,1,0,0:0:0:0:
64,192,222564,1,8,0:0:0:0:
192,192,222564,1,0,0:0:0:0:
448,192,222872,1,0,0:0:0:0:
192,192,223179,1,8,0:0:0:0:
320,192,223179,1,0,0:0:0:0:
64,192,223487,1,0,0:0:0:0:
192,192,223564,1,0,0:0:0:0:
320,192,223641,1,0,0:0:0:0:
448,192,223718,1,0,0:0:0:0:
192,192,223795,1,0,0:0:0:0:
64,192,223949,1,4,0:0:0:0:
320,192,223949,1,0,0:0:0:0:
448,192,223949,1,0,0:0:0:0:
448,192,224256,1,0,0:0:0:0:
64,192,224410,1,8,0:0:0:0:
192,192,224410,1,0,0:0:0:0:
320,192,224564,1,0,0:0:0:0:
64,192,224718,1,8,0:0:0:0:
448,192,224718,1,0,0:0:0:0:
320,192,225026,1,0,0:0:0:0:
64,192,225179,1,0,0:0:0:0:
320,192,225333,1,8,0:0:0:0:
448,192,225333,1,0,0:0:0:0:
192,192,225487,1,0,0:0:0:0:
64,192,225641,1,8,0:0:0:0:
448,192,225641,1,0,0:0:0:0:
64,192,225949,1,8,0:0:0:0:
192,192,225949,1,0,0:0:0:0:
448,192,226103,1,0,0:0:0:0:
320,192,226179,1,0,0:0:0:0:
192,192,226256,1,0,0:0:0:0:
320,192,226410,1,0,0:0:0:0:
192,192,226487,1,0,0:0:0:0:
64,192,226564,1,0,0:0:0:0:
448,192,226564,1,4,0:0:0:0:
192,192,226872,1,8,0:0:0:0:
448,192,226872,1,0,0:0:0:0:
320,192,227179,1,0,0:0:0:0:
448,192,227487,1,0,0:0:0:0:
64,192,227487,1,8,0:0:0:0:
192,192,227795,1,0,0:0:0:0:
320,192,228103,1,0,0:0:0:0:
448,192,228103,1,8,0:0:0:0:
64,192,228410,1,0,0:0:0:0:
192,192,228718,1,8,0:0:0:0:
448,192,228718,1,0,0:0:0:0:
64,192,228872,1,0,0:0:0:0:
192,192,228949,1,0,0:0:0:0:
320,192,229026,1,8,0:0:0:0:
448,192,229026,1,0,0:0:0:0:
64,192,229333,1,8,0:0:0:0:
192,192,229333,1,0,0:0:0:0:
320,192,229641,1,0,0:0:0:0:
64,192,229949,1,8,0:0:0:0:
448,192,229949,1,0,0:0:0:0:
192,192,230256,1,0,0:0:0:0:
320,192,230564,1,0,0:0:0:0:
448,192,230564,1,8,0:0:0:0:
64,192,230872,1,0,0:0:0:0:
320,192,231026,1,0,0:0:0:0:
192,192,231103,1,0,0:0:0:0:
448,192,231179,1,0,0:0:0:0:
64,192,231179,1,8,0:0:0:0:
192,192,231333,1,0,0:0:0:0:
320,192,231410,1,0,0:0:0:0:
64,192,231487,1,4,0:0:0:0:
448,192,231487,1,0,0:0:0:0:
192,192,231795,1,8,0:0:0:0:
64,192,231795,1,0,0:0:0:0:
448,192,232103,1,0,0:0:0:0:
320,192,232410,1,8,0:0:0:0:
64,192,232410,1,0,0:0:0:0:
192,192,232718,1,0,0:0:0:0:
320,192,233026,1,8,0:0:0:0:
448,192,233026,1,0,0:0:0:0:
64,192,233333,1,8,0:0:0:0:
192,192,233410,1,0,0:0:0:0:
320,192,233487,1,0,0:0:0:0:
448,192,233564,1,0,0:0:0:0:
192,192,233641,1,0,0:0:0:0:
448,192,233795,1,4,0:0:0:0:
320,192,233795,1,0,0:0:0:0:
64,192,233795,1,0,0:0:0:0:
192,192,234103,1,0,0:0:0:0:
320,192,234256,1,0,0:0:0:0:
448,192,234256,1,8,0:0:0:0:
64,192,234564,1,8,0:0:0:0:
448,192,234564,1,0,0:0:0:0:
320,192,234872,1,0,0:0:0:0:
64,192,235026,1,0,0:0:0:0:
192,192,235026,1,0,0:0:0:0:
448,192,235179,1,8,0:0:0:0:
192,192,235333,1,0,0:0:0:0:
64,192,235487,1,8,0:0:0:0:
320,192,235487,1,0,0:0:0:0:
448,192,235795,1,8,0:0:0:0:
320,192,235872,1,0,0:0:0:0:
192,192,235949,1,0,0:0:0:0:
64,192,236026,1,0,0:0:0:0:
320,192,236103,1,0,0:0:0:0:
192,192,236256,1,4,0:0:0:0:
64,192,236256,1,0,0:0:0:0:
448,192,236256,1,0,0:0:0:0:
320,192,236718,1,8,0:0:0:0:
448,192,236718,1,0,0:0:0:0:
192,192,237026,1,0,0:0:0:0:
64,192,237333,1,8,0:0:0:0:
448,192,237333,1,0,0:0:0:0:
320,192,237641,1,0,0:0:0:0:
192,192,237795,1,0,0:0:0:0:
320,192,237949,1,0,0:0:0:0:
448,192,237949,1,8,0:0:0:0:
192,192,238103,1,0,0:0:0:0:
64,192,238103,1,0,0:0:0:0:
448,192,238256,1,8,0:0:0:0:
320,192,238333,1,0,0:0:0:0:
192,192,238410,1,0,0:0:0:0:
64,192,238487,1,0,0:0:0:0:
448,192,238564,1,8,0:0:0:0:
320,192,238641,1,0,0:0:0:0:
192,192,238718,1,0,0:0:0:0:
64,192,238795,1,0,0:0:0:0:
320,192,238872,1,0,0:0:0:0:
448,192,238872,1,4,0:0:0:0:
192,192,239179,1,0,0:0:0:0:
320,192,239333,1,0,0:0:0:0:
448,192,239333,1,0,0:0:0:0:
192,192,239487,1,0,0:0:0:0:
64,192,239487,1,8,0:0:0:0:
320,192,239641,1,8,0:0:0:0:
448,192,239641,1,0,0:0:0:0:
192,192,239795,1,8,0:0:0:0:
64,192,239795,1,0,0:0:0:0:
320,192,239949,1,8,0:0:0:0:
448,192,239949,1,0,0:0:0:0:
64,192,240103,1,0,0:0:0:0:
192,192,240256,1,0,0:0:0:0:
448,192,240410,1,0,0:0:0:0:
64,192,240564,1,0,0:0:0:0:
320,192,240718,1,0,0:0:0:0:
192,192,240872,1,0,0:0:0:0:
320,192,241026,1,0,0:0:0:0:
448,192,241179,1,4,0:0:0:0:
192,192,241179,1,0,0:0:0:0:
64,192,241179,1,0,0:0:0:0:
320,192,241487,1,0,0:0:0:0:
192,192,241641,1,8,0:0:0:0:
448,192,241641,1,0,0:0:0:0:
448,192,241949,1,0,0:0:0:0:
64,192,241949,1,0,0:0:0:0:
192,192,242103,1,0,0:0:0:0:
320,192,242256,1,8,0:0:0:0:
448,192,242256,1,0,0:0:0:0:
192,192,242564,1,0,0:0:0:0:
320,192,242718,1,0,0:0:0:0:
64,192,242872,1,8,0:0:0:0:
448,192,242872,1,0,0:0:0:0:
320,192,243179,1,0,0:0:0:0:
64,192,243333,1,0,0:0:0:0:
192,192,243487,1,8,0:0:0:0:
448,192,243487,1,0,0:0:0:0:
320,192,243641,1,0,0:0:0:0:
448,192,243641,1,4,0:0:0:0:
64,192,243641,1,0,0:0:0:0:
192,192,243949,1,0,0:0:0:0:
320,192,244103,1,8,0:0:0:0:
64,192,244103,1,0,0:0:0:0:
448,192,244410,1,0,0:0:0:0:
64,192,244564,1,0,0:0:0:0:
192,192,244718,1,8,0:0:0:0:
320,192,244718,1,0,0:0:0:0:
448,192,245026,1,0,0:0:0:0:
192,192,245179,1,0,0:0:0:0:
64,192,245333,1,8,0:0:0:0:
320,192,245333,1,0,0:0:0:0:
448,192,245487,1,8,0:0:0:0:
64,192,245487,1,0,0:0:0:0:
320,192,245795,1,0,0:0:0:0:
192,192,245949,1,8,0:0:0:0:
64,192,246103,1,4,0:0:0:0:
320,192,246103,1,0,0:0:0:0:
448,192,246103,1,0,0:0:0:0:
192,192,246410,1,0,0:0:0:0:
64,192,246564,1,8,0:0:0:0:
448,192,246564,1,0,0:0:0:0:
320,192,246872,1,0,0:0:0:0:
192,192,247026,1,0,0:0:0:0:
64,192,247179,1,8,0:0:0:0:
448,192,247179,1,0,0:0:0:0:
320,192,247487,1,0,0:0:0:0:
64,192,247641,1,0,0:0:0:0:
192,192,247795,1,8,0:0:0:0:
448,192,247795,1,0,0:0:0:0:
64,192,248103,1,0,0:0:0:0:
192,192,248256,1,0,0:0:0:0:
448,192,248410,1,8,0:0:0:0:
320,192,248410,1,0,0:0:0:0:
192,192,248564,1,0,0:0:0:0:
320,192,248641,1,0,0:0:0:0:
448,192,248718,1,8,0:0:0:0:
64,192,248718,1,0,0:0:0:0:
320,192,248872,1,0,0:0:0:0:
192,192,249026,1,8,0:0:0:0:
64,192,249026,1,0,0:0:0:0:
448,192,249179,1,0,0:0:0:0:
192,192,249333,1,8,0:0:0:0:
320,192,249333,1,0,0:0:0:0:
64,192,249487,1,0,0:0:0:0:
192,192,249641,1,8,0:0:0:0:
448,192,249641,1,0,0:0:0:0:
320,192,249795,1,8,0:0:0:0:
64,192,249795,1,0,0:0:0:0:
192,192,249949,1,0,0:0:0:0:
320,192,250103,1,8,0:0:0:0:
448,192,250256,1,8,0:0:0:0:
64,192,250256,1,0,0:0:0:0:
192,192,250410,1,0,0:0:0:0:
320,192,250564,1,0,0:0:0:0:
448,192,250564,1,4,0:0:0:0:
64,192,250564,1,0,0:0:0:0:
320,192,250718,1,0,0:0:0:0:
448,192,250718,1,4,0:0:0:0:
64,192,250718,1,0,0:0:0:0:
