osu file format v14

[General]
AudioFilename: justmovingonnow.mp3
AudioLeadIn: 800
PreviewTime: 60056
Countdown: 0
SampleSet: Soft
StackLeniency: 0.7
Mode: 0
LetterboxInBreaks: 0
WidescreenStoryboard: 0

[Editor]
Bookmarks: 1273,60948,71002,71327,81705,86894,89327
DistanceSpacing: 1.1
BeatDivisor: 2
GridSize: 4
TimelineZoom: 1.3

[Metadata]
Title:Just Moving On Now
TitleUnicode:Just Moving On Now
Artist:AKINO from bless4
ArtistUnicode:AKINO from bless4
Creator:kakifly
Version:Setz's Normal
Source:
Tags:艦隊これくしょん 艦これ kantai collection kancolle 海色 miiro shimakaze combined fleet cut short version setz meyrink kibbleru
BeatmapID:679241
BeatmapSetID:302054

[Difficulty]
HPDrainRate:4
CircleSize:3.5
OverallDifficulty:5
ApproachRate:5
SliderMultiplier:0.999999999999999
SliderTickRate:1

[Events]
//Background and Video events
0,0,"shimakaze.jpg",0,0
//Break Periods
//Storyboard Layer 0 (Background)
//Storyboard Layer 1 (Fail)
//Storyboard Layer 2 (Pass)
//Storyboard Layer 3 (Foreground)
//Storyboard Sound Samples

[TimingPoints]
1273,324.324324324324,4,2,0,40,1,0
8408,-100,4,2,1,90,0,0
8489,-100,4,2,1,60,0,0
8732,-100,4,2,1,90,0,0
8813,-100,4,2,1,60,0,0
9056,-100,4,2,1,70,0,0
11975,-100,4,2,3,70,0,0
16678,-100,4,2,1,70,0,0
16840,-100,4,2,3,70,0,0
23002,-100,4,2,0,70,0,0
23164,-100,4,2,0,85,0,0
24137,-100,4,2,0,70,0,0
24624,-100,4,2,3,70,0,0
26570,-100,4,2,3,90,0,0
27218,-100,4,2,1,50,0,0
27300,-100,4,2,5,40,0,0
36948,-100,4,2,1,75,0,0
37435,-100,4,2,1,60,0,0
45381,-100,4,2,1,70,0,0
47651,-100,4,2,1,60,0,0
47975,-100,4,2,1,70,0,0
55759,-100,4,2,1,70,0,0
57705,-100,4,2,1,75,0,0
59489,-100,4,2,0,90,0,0
59813,-100,4,2,3,90,0,0
60948,-100,4,2,1,80,0,1
71002,-100,4,2,1,80,0,0
71327,-100,4,2,1,80,0,1
81705,-100,4,2,1,80,0,0
81786,-100,4,2,1,65,0,0
82354,-100,4,2,3,65,0,0
85759,-100,4,2,3,70,0,0
87218,-100,4,2,1,30,0,0
87867,-100,4,2,1,20,0,0
88516,-100,4,2,1,10,0,0
89327,-100,4,2,1,10,0,0

[Colours]
Combo1 : 247,197,91
Combo2 : 51,124,234
Combo3 : 0,63,140
Combo4 : 200,34,80
Combo5 : 171,124,82

[HitObjects]
430,196,1273,6,0,P|411:122|446:52,2,150,2|0|0,0:0|0:0|0:0,0:0:0:0:
489,288,2570,2,0,P|396:300|324:223,1,200,2|0,0:0|0:0,0:0:0:0:
266,136,3543,1,0,0:0:0:0:
345,59,3867,6,0,P|268:25|191:55,1,150,2|0,0:0|0:0,0:0:0:0:
163,74,4516,2,0,L|151:173,1,99.9999999999999,2|0,0:0|0:0,0:0:0:0:
84,260,5164,2,0,P|144:283|224:254,1,150,2|0,0:0|0:0,0:0:0:0:
265,221,5813,1,2,0:0:0:0:
348,293,6137,1,0,0:0:0:0:
431,221,6462,6,0,P|455:151|438:79,2,150,2|0|2,0:0|0:0|0:0,0:0:0:0:
348,293,7759,2,0,P|278:318|204:307,1,150,0|0,0:0|0:0,0:0:0:0:
158,276,8408,2,0,L|149:223,1,50,8|0,0:0|1:1,0:0:0:0:
166,174,8732,2,0,L|157:121,1,50,8|0,0:0|1:1,0:0:0:0:
175,72,9056,6,0,P|221:50|280:55,1,99.9999999999999,4|2,0:0|0:0,0:0:0:0:
375,80,9705,2,0,L|384:133,1,50,8|8,0:0|0:0,0:0:0:0:
367,182,10029,2,0,L|376:235,1,50,8|10,0:0|0:0,0:0:0:0:
170,311,10840,2,0,L|175:253,1,50,2|2,0:0|0:0,0:0:0:0:
144,216,11164,2,0,L|149:158,1,50,2|2,0:0|0:0,0:0:0:0:
181,121,11489,6,0,P|242:101|332:133,1,150,4|8,0:0|0:0,0:0:0:0:
420,176,12300,2,0,L|415:245,2,50,2|0|8,0:0|0:0|0:0,0:0:0:0:
452,132,12786,2,0,L|461:20,2,99.9999999999999,2|2|2,0:0|0:0|0:0,0:0:0:0:
491,236,13759,2,0,L|486:305,1,50,2|8,0:0|0:0,0:0:0:0:
460,334,14083,6,0,P|386:351|309:329,1,150,0|8,0:0|0:0,0:0:0:0:
212,293,14894,2,0,L|207:231,1,50,2|2,0:0|0:0,0:0:0:0:
236,196,15218,2,0,L|231:134,1,50,8|0,0:0|0:0,0:0:0:0:
195,106,15543,2,0,L|184:2,2,99.9999999999999,2|8|2,0:0|0:0|0:0,0:0:0:0:
112,178,16516,1,8,0:0:0:0:
112,178,16678,6,0,L|135:334,1,150,4|8,0:0|0:0,0:0:0:0:
242,346,17489,2,0,L|297:335,1,50,2|2,0:0|0:0,0:0:0:0:
345,325,17813,1,8,0:0:0:0:
447,283,18137,2,0,B|457:245|457:245|446:182,1,99.9999999999999,2|8,0:0|0:0,0:0:0:0:
342,221,18786,2,0,B|331:162|331:162|341:124,1,99.9999999999999,0|8,0:0|0:0,0:0:0:0:
426,53,19435,6,0,P|367:15|274:33,2,150,2|2|8,0:0|0:0|0:0,0:0:0:0:
400,161,20732,1,2,0:0:0:0:
400,161,20894,2,0,P|327:170|265:132,1,150,8|8,0:0|0:0,0:0:0:0:
159,103,21705,2,0,L|96:109,1,50,10|2,0:0|0:0,0:0:0:0:
58,126,22029,6,0,P|42:206|79:271,1,150,2|0,0:0|0:0,0:0:0:0:
108,307,22678,1,2,0:0:0:0:
213,338,23002,2,0,L|273:334,1,50,2|2,0:0|0:0,0:0:0:0:
372,323,23489,1,2,0:0:0:0:
420,224,23813,1,2,0:0:0:0:
377,133,24137,1,2,0:0:0:0:
294,59,24462,6,0,P|244:43|194:53,1,99.9999999999999,2|2,0:0|0:0,0:0:0:0:
150,78,24948,2,0,P|130:126|146:182,1,99.9999999999999,8|12,0:0|0:3,0:0:0:0:
199,263,25597,1,8,0:0:0:0:
298,310,25921,2,0,L|346:300,1,50,0|2,0:0|0:0,0:0:0:0:
397,277,26245,2,0,L|379:178,1,99.9999999999999,8|10,0:0|0:0,0:0:0:0:
369,124,26732,1,8,0:0:0:0:
216,62,27218,6,0,P|188:137|214:201,1,150,4|0,0:0|0:0,0:0:0:0:
297,269,28029,2,0,L|397:277,2,99.9999999999999,0|0|0,0:0|0:0|0:0,0:0:0:0:
190,297,29002,2,0,L|135:301,2,50,0|0|0,0:0|0:0|0:0,0:0:0:0:
247,202,29651,1,0,0:0:0:0:
247,202,29813,6,0,L|262:37,2,150,2|0|0,0:0|0:0|0:0,0:0:0:0:
292,302,31110,2,0,P|339:314|388:303,1,99.9999999999999,0|0,0:0|0:0,0:0:0:0:
437,278,31597,2,0,L|444:178,1,99.9999999999999,0|0,0:0|0:0,0:0:0:0:
415,72,32245,1,0,0:0:0:0:
415,72,32408,6,0,B|365:127|365:127|360:168,1,99.9999999999999,2|0,0:0|0:0,0:0:0:0:
340,203,32894,2,0,P|295:219|244:206,1,99.9999999999999,0|0,0:0|0:0,0:0:0:0:
169,126,33543,2,0,L|162:75,2,50,0|0|0,0:0|0:0|0:0,0:0:0:0:
129,228,34191,2,0,P|111:278|124:324,1,99.9999999999999,0|0,0:0|0:0,0:0:0:0:
222,367,34840,1,0,0:0:0:0:
222,367,35002,6,0,P|271:373|317:356,1,99.9999999999999,2|0,0:0|0:0,0:0:0:0:
363,325,35489,2,0,P|374:277|356:231,1,99.9999999999999,0|0,0:0|0:0,0:0:0:0:
333,181,35975,2,0,L|334:123,1,50,2|2,0:0|0:0,0:0:0:0:
106,285,36948,1,8,0:0:0:0:
106,285,37110,1,8,0:0:0:0:
191,355,37435,6,0,P|217:290|171:197,1,150,4|8,0:0|0:0,0:0:0:0:
143,118,38245,1,2,0:0:0:0:
240,37,38570,1,8,0:0:0:0:
240,37,38732,2,0,P|288:20|348:32,1,99.9999999999999,0|0,0:0|0:0,0:0:0:0:
387,43,39218,1,8,0:0:0:0:
459,125,39543,2,0,L|469:188,1,50,2|2,0:0|0:0,0:0:0:0:
448,226,39867,1,8,0:0:0:0:
406,327,40191,6,0,P|357:350|303:345,1,99.9999999999999,2|8,0:0|0:0,0:0:0:0:
258,334,40678,2,0,L|151:341,1,99.9999999999999,0|2,0:0|0:0,0:0:0:0:
103,343,41164,1,8,0:0:0:0:
49,246,41489,2,0,L|0:256,2,50,0|0|8,0:0|0:0|0:0,0:0:0:0:
90,210,41975,2,0,L|92:111,1,99.9999999999999,0|2,0:0|0:0,0:0:0:0:
125,66,42462,1,8,0:0:0:0:
230,34,42786,6,0,P|279:28|325:46,1,99.9999999999999,2|8,0:0|0:0,0:0:0:0:
427,88,43435,2,0,L|464:55,2,50,2|2|8,0:0|0:0|0:0,0:0:0:0:
393,192,44083,2,0,L|422:237,2,50,2|0|8,0:0|0:0|0:0,0:0:0:0:
342,178,44570,2,0,P|295:167|241:188,1,99.9999999999999,0|2,0:0|0:0,0:0:0:0:
197,206,45056,1,8,0:0:0:0:
117,282,45381,6,0,P|86:218|119:127,2,150,4|2|10,0:0|0:0|0:0,0:0:0:0:
218,325,46678,2,0,L|294:339,1,50,2|0,0:0|0:0,0:0:0:0:
315,360,47002,2,0,L|391:374,1,50,8|0,0:0|0:0,0:0:0:0:
453,303,47489,2,0,L|502:312,2,50,8|8|8,0:3|0:0|0:0,0:0:0:0:
419,260,47975,6,0,P|374:237|320:240,1,99.9999999999999,4|8,0:0|0:0,0:0:0:0:
272,255,48462,1,0,0:0:0:0:
220,274,48624,2,0,P|167:284|113:261,1,99.9999999999999,2|8,0:0|0:0,0:0:0:0:
54,184,49272,2,0,P|43:113|60:69,1,99.9999999999999,2|8,0:0|0:0,0:0:0:0:
70,35,49759,1,0,0:0:0:0:
173,25,50083,2,0,L|235:37,1,50,8|0,0:0|0:0,0:0:0:0:
270,60,50408,1,8,0:0:0:0:
269,59,50570,6,0,P|307:92|355:105,1,99.9999999999999,2|8,0:0|0:0,0:0:0:0:
461,80,51218,2,0,L|476:21,2,50,2|2|8,0:0|0:0|0:0,0:0:0:0:
480,189,51867,2,0,P|487:239|471:298,1,99.9999999999999,2|8,0:0|0:0,0:0:0:0:
386,350,52516,1,2,0:0:0:0:
386,350,52678,2,0,P|330:342|286:352,1,99.9999999999999,8|8,0:0|0:0,0:0:0:0:
234,364,53164,6,0,P|185:373|136:365,1,99.9999999999999,2|8,0:0|0:0,0:0:0:0:
70,276,53813,1,2,0:0:0:0:
137,189,54137,2,0,L|185:179,1,50,8|0,0:0|0:0,0:0:0:0:
241,190,54462,2,0,L|289:180,1,50,2|2,0:0|0:0,0:0:0:0:
371,105,54948,2,0,B|323:87|323:87|257:102,2,99.9999999999999,8|8|2,0:0|0:0|0:0,0:0:0:0:
419,131,55759,6,0,P|454:226|419:323,1,200,4|10,0:0|0:0,0:0:0:0:
321,355,56732,2,0,L|258:346,1,50,2|2,0:0|0:0,0:0:0:0:
216,352,57056,2,0,P|164:359|114:331,1,99.9999999999999,0|2,0:0|0:0,0:0:0:0:
50,255,57705,2,0,L|52:196,1,50,10|2,0:0|0:0,0:0:0:0:
79,157,58029,2,0,L|81:98,1,50,8|0,0:0|0:0,0:0:0:0:
104,57,58354,6,0,P|150:36|199:39,1,99.9999999999999,2|8,0:0|0:0,0:0:0:0:
305,69,59002,2,0,P|314:121|285:176,1,99.9999999999999,2|8,0:0|0:0,0:0:0:0:
266,209,59489,1,4,0:0:0:0:
172,267,59813,1,12,0:0:0:0:
172,267,59975,1,8,0:0:0:0:
468,121,60948,6,0,P|477:173|448:228,1,99.9999999999999,4|8,0:0|0:0,0:0:0:0:
384,296,61597,2,0,L|284:304,1,99.9999999999999,2|8,0:0|0:0,0:0:0:0:
231,320,62083,2,0,P|159:351|86:326,1,150,2|8,0:0|0:0,0:0:0:0:
54,291,62732,1,0,0:0:0:0:
26,243,62894,2,0,P|14:191|36:135,1,99.9999999999999,2|8,0:0|0:0,0:0:0:0:
72,47,63543,6,0,P|119:20|175:21,2,99.9999999999999,2|8|2,0:0|0:0|0:0,0:0:0:0:
147,128,64516,2,0,L|208:132,1,50,8|2,0:0|0:0,0:0:0:0:
248,149,64840,2,0,P|289:160|355:147,1,99.9999999999999,0|8,0:0|0:0,0:0:0:0:
399,139,65327,2,0,P|425:206|387:281,1,150,2|8,0:0|0:0,0:0:0:0:
309,342,66137,6,0,P|259:354|201:340,1,99.9999999999999,2|8,0:0|0:0,0:0:0:0:
109,305,66786,2,0,L|84:361,2,50,2|2|8,0:0|0:0|0:0,0:0:0:0:
58,206,67435,1,2,0:0:0:0:
117,113,67759,1,8,0:0:0:0:
215,64,68083,2,0,L|194:19,2,50,2|2|8,0:0|0:0|0:0,0:0:0:0:
310,118,68732,6,0,P|366:117|410:130,1,99.9999999999999,2|8,0:0|0:0,0:0:0:0:
455,157,69218,2,0,P|476:226|445:305,1,150,0|8,0:0|0:0,0:0:0:0:
351,343,70029,2,0,L|237:352,1,99.9999999999999,8|8,0:3|0:0,0:0:0:0:
144,324,70678,2,0,L|140:265,1,50,2|2,0:0|0:0,0:0:0:0:
113,237,71002,2,0,L|110:186,1,50,8|8,0:0|0:0,0:0:0:0:
73,145,71327,6,0,L|73:41,1,99.9999999999999,2|8,0:0|0:0,0:0:0:0:
179,17,71975,2,0,P|232:12|286:29,1,99.9999999999999,2|8,0:0|0:0,0:0:0:0:
325,50,72462,2,0,P|358:122|340:200,1,150,2|8,0:0|0:0,0:0:0:0:
277,275,73272,2,0,L|221:280,1,50,2|2,0:0|0:0,0:0:0:0:
178,305,73597,2,0,L|89:311,1,50,8|2,0:0|0:0,0:0:0:0:
76,290,73921,6,0,L|74:190,2,99.9999999999999,2|8|2,0:0|0:0|0:0,0:0:0:0:
148,373,74894,1,8,0:0:0:0:
223,293,75218,2,0,L|224:193,1,99.9999999999999,2|8,0:0|0:0,0:0:0:0:
291,104,75867,1,2,0:0:0:0:
398,133,76191,1,8,0:0:0:0:
463,221,76516,6,0,P|413:242|362:236,1,99.9999999999999,2|8,0:0|0:0,0:0:0:0:
317,218,77002,2,0,P|272:201|200:218,1,99.9999999999999,0|2,0:0|0:0,0:0:0:0:
169,226,77489,1,8,0:0:0:0:
108,317,77813,2,0,P|68:273|58:223,1,99.9999999999999,2|8,0:0|0:0,0:0:0:0:
58,124,78462,2,0,L|58:74,2,50,2|2|8,0:0|0:0|0:0,0:0:0:0:
134,203,79110,6,0,P|199:217|288:167,2,150,4|2|8,0:0|0:0|0:0,0:0:0:0:
94,164,80245,1,8,0:0:0:0:
363,107,81056,2,0,L|417:84,2,50,8|8|8,0:3|0:3|0:0,0:0:0:0:
261,64,81705,6,0,P|217:51|149:66,1,99.9999999999999,2|0,0:0|0:0,0:0:0:0:
111,72,82191,1,2,0:0:0:0:
63,100,82354,2,0,P|43:147|48:207,1,99.9999999999999,8|0,0:0|0:0,0:0:0:0:
74,300,83002,2,0,L|53:364,2,50,2|2|0,0:0|0:0|0:0,0:0:0:0:
137,209,83651,2,0,L|158:145,2,50,0|2|0,0:0|0:0|0:0,0:0:0:0:
177,311,84300,6,0,P|224:334|280:335,1,99.9999999999999,4|0,0:0|0:0,0:0:0:0:
378,314,84948,2,0,L|393:373,2,50,8|2|2,0:0|0:0|0:0,0:0:0:0:
366,259,85435,1,8,0:0:0:0:
290,179,85759,1,8,0:0:0:0:
305,70,86083,1,8,0:0:0:0:
403,21,86408,1,8,0:0:0:0:
256,192,86894,12,0,89327,0:0:0:0:
