osu file format v14

[General]
AudioFilename: justmovingonnow.mp3
AudioLeadIn: 800
PreviewTime: 60056
Countdown: 0
SampleSet: Soft
StackLeniency: 0.7
Mode: 0
LetterboxInBreaks: 0
WidescreenStoryboard: 0

[Editor]
Bookmarks: 1273,60948,71002,71327,81705,86894,89327
DistanceSpacing: 0.7
BeatDivisor: 4
GridSize: 4
TimelineZoom: 1.3

[Metadata]
Title:Just Moving On Now
TitleUnicode:Just Moving On Now
Artist:AKINO from bless4
ArtistUnicode:AKINO from bless4
Creator:kakifly
Version:Insane
Source:
Tags:艦隊これくしょん 艦これ kantai collection kancolle 海色 miiro shimakaze combined fleet cut short version setz meyrink kibbleru
BeatmapID:677126
BeatmapSetID:302054

[Difficulty]
HPDrainRate:7.2
CircleSize:4
OverallDifficulty:8
ApproachRate:9
SliderMultiplier:1.8
SliderTickRate:2

[Events]
//Background and Video events
0,0,"shimakaze.jpg",0,0
//Break Periods
//Storyboard Layer 0 (Background)
//Storyboard Layer 1 (Fail)
//Storyboard Layer 2 (Pass)
//Storyboard Layer 3 (Foreground)
//Storyboard Sound Samples

[TimingPoints]
1273,324.324324324324,4,2,0,40,1,0
1273,-166.666666666667,4,2,0,40,0,0
8408,-100,4,2,1,90,0,0
8489,-100,4,2,1,60,0,0
8732,-100,4,2,1,90,0,0
8813,-100,4,2,1,60,0,0
9056,-100,4,2,1,70,0,0
11975,-100,4,2,3,70,0,0
16678,-100,4,2,1,70,0,0
16840,-100,4,2,3,70,0,0
23002,-100,4,2,0,70,0,0
23164,-100,4,2,0,85,0,0
24137,-125,4,2,0,70,0,0
24624,-111.111111111111,4,2,3,70,0,0
26570,-111.111111111111,4,2,3,90,0,0
27218,-133.333333333333,4,2,1,50,0,0
27300,-133.333333333333,4,2,5,40,0,0
36948,-133.333333333333,4,2,1,75,0,0
37435,-117.647058823529,4,2,1,60,0,0
45381,-117.647058823529,4,2,1,70,0,0
47651,-117.647058823529,4,2,1,60,0,0
47975,-117.647058823529,4,2,1,70,0,0
55759,-111.111111111111,4,2,1,70,0,0
57705,-111.111111111111,4,2,1,75,0,0
59489,-111.111111111111,4,2,0,90,0,0
59813,-111.111111111111,4,2,3,90,0,0
60948,-100,4,2,1,80,0,1
71002,-100,4,2,1,80,0,0
71327,-100,4,2,1,80,0,1
81705,-117.647058823529,4,2,1,80,0,0
81786,-117.647058823529,4,2,1,65,0,0
82354,-117.647058823529,4,2,3,65,0,0
85759,-133.333333333333,4,2,3,70,0,0
86894,-133.333333333333,4,2,3,90,0,0
87218,-133.333333333333,4,2,1,30,0,0
87867,-133.333333333333,4,2,1,20,0,0
88516,-133.333333333333,4,2,1,10,0,0

[Colours]
Combo1 : 247,197,91
Combo2 : 51,124,234
Combo3 : 0,63,140
Combo4 : 200,34,80
Combo5 : 171,124,82

[HitObjects]
184,72,1273,6,0,P|192:156|200:244,1,161.999995056153,2|0,0:0|0:0,0:0:0:0:
76,280,1921,2,0,P|60:248|76:160,1,107.999996704102
268,120,2408,1,0,0:0:0:0:
304,256,2570,6,0,P|225:236|145:221,1,161.999995056153,2|0,0:0|0:0,0:0:0:0:
268,120,3218,2,0,B|304:108|348:104|348:104|380:128,1,107.999996704102
146,222,3705,1,0,0:0:0:0:
146,222,3786,1,0,0:0:0:0:
146,222,3867,6,0,P|138:146|130:54,1,161.999995056153,2|0,0:0|0:0,0:0:0:0:
268,120,4516,2,0,P|261:146|252:172,1,53.9999983520508,2|0,0:0|0:0,0:0:0:0:
52,176,4840,2,0,P|48:136|48:104,1,53.9999983520508
256,284,5164,6,0,P|180:276|76:268,1,161.999995056153,2|0,0:0|0:0,0:0:0:0:
268,120,5813,2,0,P|304:124|372:80,1,107.999996704102,2|0,0:0|0:0,0:0:0:0:
296,36,6300,1,0,0:0:0:0:
180,64,6462,6,0,B|171:108|171:149|171:149|161:178|161:178|164:205|155:246,2,161.999995056153,2|0|2,0:0|0:0|0:0,0:0:0:0:
296,36,7597,1,0,0:0:0:0:
296,36,7678,1,0,0:0:0:0:
296,36,7759,6,0,P|340:40|400:48,1,80.9999975280763
444,76,8083,2,0,P|436:120|428:152,1,53.9999983520508
372,220,8408,5,8,0:0:0:0:
336,232,8489,1,0,1:1:0:0:
296,228,8570,1,0,1:1:0:0:
264,200,8651,1,0,1:1:0:0:
248,164,8732,1,8,0:0:0:0:
220,132,8813,1,0,1:1:0:0:
180,124,8894,1,0,1:1:0:0:
144,140,8975,1,0,1:1:0:0:
184,200,9056,6,0,P|268:188|376:172,1,180,4|2,0:0|0:0,0:0:0:0:
444,76,9543,1,0,0:0:0:0:
300,32,9705,1,8,0:0:0:0:
368,200,9867,1,8,0:0:0:0:
492,172,10029,1,8,0:0:0:0:
220,132,10191,1,10,0:0:0:0:
196,116,10840,6,0,L|204:168,2,45,2|2|2,0:0|0:0|0:0,0:0:0:0:
300,32,11164,1,2,0:0:0:0:
72,60,11327,1,2,0:0:0:0:
112,208,11489,6,0,P|184:200|320:188,1,180,4|0,0:0|0:0,0:0:0:0:
396,328,11975,2,0,P|340:320|292:312,1,90,8|0,0:0|0:0,0:0:0:0:
384,208,12299,1,2,0:0:0:0:
508,224,12461,1,2,0:0:0:0:
412,348,12624,1,8,0:0:0:0:
248,236,12786,6,0,P|252:168|256:120,1,90,0|2,0:0|0:0,0:0:0:0:
384,208,13110,1,0,0:0:0:0:
146,311,13272,2,0,P|138:221|131:131,1,180,8|2,0:0|0:0,0:0:0:0:
40,228,13759,1,2,0:0:0:0:
248,236,13921,1,8,0:0:0:0:
324,88,14083,6,0,P|280:96|228:108,1,90,0|2,0:0|0:0,0:0:0:0:
384,208,14408,1,2,0:0:0:0:
384,208,14489,1,2,0:0:0:0:
384,208,14570,1,8,0:0:0:0:
452,112,14732,1,0,0:0:0:0:
248,236,14894,5,2,0:0:0:0:
332,316,15056,1,2,0:0:0:0:
488,264,15218,1,8,0:0:0:0:
384,208,15381,1,0,0:0:0:0:
264,356,15543,6,0,P|344:352|412:348,1,135,2|8,0:0|0:0,0:0:0:0:
473,352,15867,2,0,L|479:311|487:263,1,90,8|0,0:0|0:0,0:0:0:0:
452,112,16191,1,2,0:0:0:0:
268,180,16354,1,0,0:0:0:0:
288,208,16435,1,0,0:0:0:0:
320,220,16516,1,8,0:0:0:0:
356,220,16597,1,0,0:0:0:0:
384,208,16678,6,0,P|304:216|196:228,1,180,4|0,0:0|0:0,0:0:0:0:
164,52,17164,2,0,P|212:60|256:68,1,90,8|0,0:0|0:0,0:0:0:0:
344,132,17489,1,2,0:0:0:0:
208,256,17651,1,2,0:0:0:0:
88,128,17813,1,8,0:0:0:0:
236,164,17975,1,0,0:0:0:0:
116,320,18137,6,0,P|108:268|100:212,1,90,2|0,0:0|0:0,0:0:0:0:
208,256,18462,1,8,0:0:0:0:
12,360,18624,2,0,L|19:270|26:180,1,180,0|2,0:0|0:0,0:0:0:0:
156,64,19110,1,8,0:0:0:0:
236,164,19272,1,8,0:0:0:0:
236,164,19354,1,8,0:0:0:0:
236,164,19435,6,0,P|188:172|136:184,1,90,2|0,0:0|0:0,0:0:0:0:
156,64,19759,1,8,0:0:0:0:
208,256,19921,1,0,0:0:0:0:
60,200,20083,1,2,0:0:0:0:
252,144,20245,1,2,0:0:0:0:
112,312,20408,1,8,0:0:0:0:
36,92,20570,1,0,0:0:0:0:
208,256,20732,5,2,0:0:0:0:
60,200,20894,2,0,P|64:140|72:72,1,90,8|0,0:0|0:0,0:0:0:0:
252,144,21218,1,0,0:0:0:0:
112,312,21381,2,0,P|56:320|-4:332,1,90,8|2,0:0|0:0,0:0:0:0:
208,256,21705,1,10,0:0:0:0:
236,268,21786,1,2,0:0:0:0:
252,296,21867,1,2,0:0:0:0:
256,328,21948,1,2,0:0:0:0:
248,360,22029,6,0,L|256:270|264:180,1,180,2|8,0:0|0:0,0:0:0:0:
340,80,22516,1,0,0:0:0:0:
420,200,22678,1,2,0:0:0:0:
252,144,22840,1,2,0:0:0:0:
440,104,23002,5,2,0:0:0:0:
412,304,23164,1,2,0:0:0:0:
388,316,23489,5,2,0:0:0:0:
364,332,23813,1,2,0:0:0:0:
344,344,24137,6,0,P|288:336|212:328,1,108,2|0,0:0|0:0,0:0:0:0:
164,340,24462,1,2,0:0:0:0:
144,348,24786,5,2,0:0:0:0:
224,208,24948,1,8,0:0:0:0:
64,260,25110,2,0,L|20:268,2,40.4999987640381,8|8|12,0:3|0:3|0:3,0:0:0:0:
248,352,25435,1,2,0:0:0:0:
136,136,25597,1,8,0:0:0:0:
160,256,25759,6,0,P|256:240|336:228,1,161.999995056153,2|2,0:0|0:0,0:0:0:0:
380,128,26245,2,0,P|328:112|284:104,1,80.9999975280763,8|2,0:0|0:0,0:0:0:0:
228,108,26489,1,2,0:0:0:0:
228,108,26570,1,10,0:0:0:0:
360,316,26732,1,8,0:0:0:0:
384,336,27218,6,0,P|376:280|372:244,1,67.5000025749208,4|0,0:0|0:0,0:0:0:0:
284,200,27543,2,0,P|270:169|258:137,1,67.5000025749208
344,70,27867,2,0,P|363:98|380:128,1,67.5000025749208
470,234,28191,2,0,L|404:244,1,67.5000025749208
284,200,28516,6,0,L|276:160|268:120,2,67.5000025749208
268,308,29002,1,0,0:0:0:0:
360,372,29164,2,0,P|428:364|524:356,1,135.000005149842
384,256,29651,1,0,0:0:0:0:
268,308,29813,6,0,B|204:312|168:332|168:332|148:364,1,135.000005149842,2|0,0:0|0:0,0:0:0:0:
360,372,30300,1,0,0:0:0:0:
384,256,30462,2,0,P|400:216|412:176,1,67.5000025749208
256,184,30786,2,0,P|200:192|164:208,1,67.5000025749208
296,64,31110,6,0,P|328:72|364:80,1,67.5000025749208
256,184,31435,2,0,L|260:224|264:264,1,67.5000025749208
136,228,31759,2,0,P|108:176|144:84,1,135.000005149842
192,28,32245,1,0,0:0:0:0:
296,64,32408,6,0,B|364:68|400:80|400:80|416:108,1,135.000005149842,2|0,0:0|0:0,0:0:0:0:
361,238,32894,1,0,0:0:0:0:
361,238,33056,2,0,P|296:235|256:184,1,135.000005149842
336,160,33543,1,0,0:0:0:0:
224,280,33705,6,0,P|212:324|204:364,2,67.5000025749208
361,238,34191,1,0,0:0:0:0:
344,344,34354,1,0,0:0:0:0:
212,264,34516,1,0,0:0:0:0:
336,160,34678,2,0,P|396:152|432:148,1,67.5000025749208
268,60,35002,6,0,P|216:80|132:116,1,135.000005149842,2|0,0:0|0:0,0:0:0:0:
212,264,35489,1,0,0:0:0:0:
336,160,35651,2,0,P|360:124|380:88,1,67.5000025749208
172,28,35975,1,2,0:0:0:0:
220,172,36137,1,2,0:0:0:0:
200,188,36948,5,8,0:0:0:0:
424,120,37110,1,8,0:0:0:0:
448,104,37435,6,0,P|380:112|284:128,1,153.000002918243,4|0,0:0|0:0,0:0:0:0:
312,232,37921,2,0,L|324:280|336:328,1,76.5000014591217,8|0,0:0|0:0,0:0:0:0:
440,328,38245,1,2,0:0:0:0:
496,224,38408,2,0,P|448:212|416:208,1,76.5000014591217,2|8,0:0|0:0,0:0:0:0:
312,232,38732,6,0,B|264:216|184:216|184:216|192:248,1,153.000002918243
248,120,39218,2,0,P|200:108|152:100,1,76.5000014591217,8|0,0:0|0:0,0:0:0:0:
312,232,39543,1,2,0:0:0:0:
376,128,39705,1,2,0:0:0:0:
212,212,39867,2,0,L|204:256|196:300,1,76.5000014591217,8|0,0:0|0:0,0:0:0:0:
316,352,40191,6,0,B|428:324|428:324|428:324|460:296,1,153.000002918243,2|8,0:0|0:0,0:0:0:0:
376,128,40678,1,0,0:0:0:0:
212,212,40840,2,0,P|168:224|120:240,1,76.5000014591217,2|2,0:0|0:0,0:0:0:0:
196,316,41164,1,8,0:0:0:0:
280,144,41327,6,0,B|240:120|168:116|168:116|128:132,1,153.000002918243
312,260,41813,2,0,P|368:252|408:248,1,76.5000014591217,8|0,0:0|0:0,0:0:0:0:
376,128,42137,1,2,0:0:0:0:
212,212,42300,1,2,0:0:0:0:
348,344,42462,2,0,P|396:352|448:360,1,76.5000014591217,8|0,0:0|0:0,0:0:0:0:
212,212,42786,6,0,P|156:220|72:236,1,114.750002188683,2|0,0:0|0:0,0:0:0:0:
124,300,43110,2,0,P|132:344|140:380,1,76.5000014591217,8|0,0:0|0:0,0:0:0:0:
348,344,43435,1,2,0:0:0:0:
404,232,43597,1,2,0:0:0:0:
212,212,43759,1,8,0:0:0:0:
312,260,43921,1,0,0:0:0:0:
340,132,44083,6,0,P|332:88|324:48,1,76.5000014591217,2|0,0:0|0:0,0:0:0:0:
236,108,44408,1,8,0:0:0:0:
404,232,44570,2,0,P|452:224|492:216,1,76.5000014591217,0|2,0:0|0:0,0:0:0:0:
340,132,44894,1,2,0:0:0:0:
212,212,45056,1,8,0:0:0:0:
348,344,45218,1,0,0:0:0:0:
196,196,45381,6,0,P|148:204|100:216,1,76.5000014591217,4|0,0:0|0:0,0:0:0:0:
132,96,45705,1,8,0:0:0:0:
312,260,45867,1,0,0:0:0:0:
340,132,46029,1,2,0:0:0:0:
196,196,46191,1,2,0:0:0:0:
404,232,46354,2,0,L|484:220,1,76.5000014591217,8|0,0:0|0:0,0:0:0:0:
340,132,46678,5,2,0:0:0:0:
196,196,46840,1,0,0:0:0:0:
312,260,47002,2,0,P|320:316|324:352,1,76.5000014591217,8|0,0:0|0:0,0:0:0:0:
172,276,47327,5,8,0:3:0:0:
140,256,47408,1,8,0:3:0:0:
120,224,47489,1,8,0:3:0:0:
120,184,47570,1,8,0:3:0:0:
136,148,47651,6,0,L|164:108,1,38.2500007295609,8|8,0:0|0:0,0:0:0:0:
248,56,47813,2,0,P|256:72|272:96,1,38.2500007295609,8|8,0:0|0:0,0:0:0:0:
349,187,47975,6,0,P|281:191|169:199,1,153.000002918243,4|8,0:0|0:0,0:0:0:0:
248,56,48462,1,0,0:0:0:0:
420,112,48624,2,0,P|452:136|480:164,1,76.5000014591217,2|2,0:0|0:0,0:0:0:0:
355,356,48948,2,0,P|356:318|360:280,1,76.5000014591217,8|0,0:0|0:0,0:0:0:0:
478,161,49272,6,0,L|494:314,1,153.000002918243,2|8,0:0|0:0,0:0:0:0:
349,188,49759,1,0,0:0:0:0:
408,76,49921,1,2,0:0:0:0:
349,188,50083,2,0,P|288:196|252:200,1,76.5000014591217,8|0,0:0|0:0,0:0:0:0:
408,76,50408,1,8,0:0:0:0:
288,288,50570,6,0,B|236:284|208:276|208:276|172:280|172:280|144:272|120:268,2,153.000002918243,2|8|2,0:0|0:0|0:0,0:0:0:0:
349,188,51381,1,2,0:0:0:0:
192,112,51543,2,0,P|184:149|178:187,1,76.5000014591217,8|0,0:0|0:0,0:0:0:0:
376,259,51867,6,0,P|363:223|349:188,1,76.5000014591217,2|0,0:0|0:0,0:0:0:0:
120,256,52191,2,0,P|168:268|208:280,1,76.5000014591217,8|0,0:0|0:0,0:0:0:0:
192,112,52516,1,2,0:0:0:0:
24,216,52678,2,0,P|17:253|11:291,1,76.5000014591217,8|0,0:0|0:0,0:0:0:0:
192,112,53002,1,8,0:0:0:0:
252,256,53164,6,0,B|320:260|368:280|368:280|386:308,1,153.000002918243,2|8,0:0|0:0,0:0:0:0:
308,164,53651,1,0,0:0:0:0:
472,196,53813,2,0,P|476:260|484:360,1,153.000002918243,2|8,0:0|0:0,0:0:0:0:
320,368,54300,1,0,0:0:0:0:
376,248,54462,5,2,0:0:0:0:
476,364,54624,2,0,L|516:380,2,38.2500007295609,2|2|8,0:0|0:0|0:0,0:0:0:0:
240,324,54948,2,0,L|230:248,1,76.5000014591217,8|0,0:0|0:0,0:0:0:0:
376,248,55272,2,0,L|468:236,1,76.5000014591217,8|2,0:0|0:0,0:0:0:0:
320,368,55597,1,2,0:0:0:0:
320,368,55678,1,2,0:0:0:0:
320,368,55759,6,0,P|244:364|128:360,1,161.999995056153,4|2,0:0|0:0,0:0:0:0:
120,196,56245,1,2,0:0:0:0:
120,196,56327,1,2,0:0:0:0:
120,196,56408,2,0,P|164:180|264:236,1,161.999995056153,10|2,0:0|0:0,0:0:0:0:
176,276,56894,6,0,B|120:300|60:296|60:296|16:268,1,161.999995056153,2|2,0:0|0:0,0:0:0:0:
82,124,57381,2,0,P|101:159|120:196,1,80.9999975280763,2|0,0:0|0:0,0:0:0:0:
176,276,57705,1,10,0:0:0:0:
64,336,57867,1,2,0:0:0:0:
68,140,58029,1,8,0:0:0:0:
232,176,58191,1,0,0:0:0:0:
88,244,58354,6,0,P|40:240|0:236,1,80.9999975280763,2|0,0:0|0:0,0:0:0:0:
208,98,58678,2,0,P|221:136|232:176,1,80.9999975280763,8|0,0:0|0:0,0:0:0:0:
68,140,59002,1,2,0:0:0:0:
332,152,59164,1,2,0:0:0:0:
176,276,59327,1,8,0:0:0:0:
124,56,59489,1,4,0:0:0:0:
100,48,59813,5,12,0:0:0:0:
300,248,59975,1,8,0:0:0:0:
284,264,60948,6,0,P|180:256|96:252,1,180,4|8,0:0|0:0,0:0:0:0:
176,352,61435,1,0,0:0:0:0:
228,140,61597,2,0,P|168:144|104:152,1,90,2|2,0:0|0:0,0:0:0:0:
284,264,61921,1,8,0:0:0:0:
328,112,62083,6,0,B|292:52|224:40|224:40|168:60,1,180,2|0,0:0|0:0,0:0:0:0:
228,140,62570,2,0,P|212:192|200:244,1,90,8|0,0:0|0:0,0:0:0:0:
328,112,62894,1,2,0:0:0:0:
128,152,63056,1,2,0:0:0:0:
284,264,63218,1,8,0:0:0:0:
228,140,63381,1,0,0:0:0:0:
200,312,63543,6,0,L|380:284,1,180,2|8,0:0|0:0,0:0:0:0:
228,140,64029,1,0,0:0:0:0:
92,284,64191,2,0,L|108:384,1,90,2|2,0:0|0:0,0:0:0:0:
200,312,64516,1,8,0:0:0:0:
20,180,64678,6,0,P|16:252|12:368,1,180,2|0,0:0|0:0,0:0:0:0:
200,312,65164,1,8,0:0:0:0:
228,140,65327,1,2,0:0:0:0:
228,140,65408,1,2,0:0:0:0:
228,140,65489,2,0,P|183:132|138:126,1,90,2|2,0:0|0:0,0:0:0:0:
20,180,65813,1,8,0:0:0:0:
104,248,65975,1,0,0:0:0:0:
240,28,66137,6,0,P|180:36|100:48,1,135,2|0,0:0|0:0,0:0:0:0:
39,92,66462,2,0,P|29:135|20:180,1,90,8|0,0:0|0:0,0:0:0:0:
236,240,66786,1,2,0:0:0:0:
228,140,66948,1,2,0:0:0:0:
104,248,67110,1,8,0:0:0:0:
160,332,67272,1,0,0:0:0:0:
405,247,67435,6,0,B|337:219|265:219|265:219|236:240,1,180,2|8,0:0|0:0,0:0:0:0:
304,328,67921,1,0,0:0:0:0:
412,128,68083,2,0,P|360:132|312:136,1,90,2|2,0:0|0:0,0:0:0:0:
404,248,68408,1,8,0:0:0:0:
324,32,68570,1,2,0:0:0:0:
324,32,68651,1,2,0:0:0:0:
324,32,68732,5,2,0:0:0:0:
228,140,68894,1,0,0:0:0:0:
328,176,69056,1,8,0:0:0:0:
176,56,69218,1,0,0:0:0:0:
132,208,69381,1,2,0:0:0:0:
228,140,69543,1,2,0:0:0:0:
68,112,69705,1,8,0:0:0:0:
240,240,69867,1,0,0:0:0:0:
56,192,70029,5,8,0:3:0:0:
60,232,70110,1,8,0:3:0:0:
80,268,70191,1,8,0:3:0:0:
116,284,70272,1,8,0:3:0:0:
156,288,70354,2,0,L|104:296|52:304,1,90,8|0,0:0|0:0,0:0:0:0:
140,380,70678,1,2,0:0:0:0:
240,240,70840,2,0,L|288:248,2,45,2|2|8,0:0|0:0|0:0,0:0:0:0:
152,140,71164,1,8,0:0:0:0:
152,140,71245,1,8,0:0:0:0:
152,140,71327,6,0,B|216:128|288:128|288:128|336:148,1,180,2|8,0:0|0:0,0:0:0:0:
240,240,71813,1,0,0:0:0:0:
248,28,71975,2,0,P|304:40|348:52,1,90,2|2,0:0|0:0,0:0:0:0:
152,140,72300,1,8,0:0:0:0:
360,144,72462,6,0,B|428:120|432:56|432:56|472:112,1,180,2|0,0:0|0:0,0:0:0:0:
327,259,72948,2,0,P|284:249|240:240,1,90,8|0,0:0|0:0,0:0:0:0:
328,156,73272,1,2,0:0:0:0:
360,144,73435,1,2,0:0:0:0:
152,140,73597,1,8,0:0:0:0:
412,68,73759,1,2,0:0:0:0:
412,68,73840,1,2,0:0:0:0:
412,68,73921,6,0,P|408:164|404:252,1,180,2|8,0:0|0:0,0:0:0:0:
508,180,74408,1,0,0:0:0:0:
296,192,74570,2,0,P|244:200|192:212,1,90,2|2,0:0|0:0,0:0:0:0:
272,296,74894,1,8,0:0:0:0:
152,140,75056,6,0,B|96:136|16:144|16:144|52:184,1,180,2|0,0:0|0:0,0:0:0:0:
183,310,75543,2,0,P|227:302|272:296,1,90,8|2,0:0|0:0,0:0:0:0:
296,192,75867,1,2,0:0:0:0:
240,96,76029,1,2,0:0:0:0:
124,232,76191,1,8,0:0:0:0:
364,272,76354,1,2,0:0:0:0:
364,272,76435,1,2,0:0:0:0:
364,272,76516,6,0,L|460:264,1,90,2|0,0:0|0:0,0:0:0:0:
384,128,76840,1,8,0:0:0:0:
296,192,77002,1,0,0:0:0:0:
404,352,77164,1,2,0:0:0:0:
464,248,77327,1,2,0:0:0:0:
280,312,77489,1,8,0:0:0:0:
504,328,77651,6,0,P|496:212|491:134,1,180,2|0,0:0|0:0,0:0:0:0:
384,128,78137,2,0,P|372:72|364:32,1,90,8|0,0:0|0:0,0:0:0:0:
468,56,78462,1,2,0:0:0:0:
296,192,78624,1,2,0:0:0:0:
228,84,78786,1,8,0:0:0:0:
384,128,78948,1,2,0:0:0:0:
384,128,79029,1,2,0:0:0:0:
384,128,79110,5,2,0:0:0:0:
404,252,79272,1,0,0:0:0:0:
296,192,79435,1,8,0:0:0:0:
500,200,79597,2,0,L|492:304,1,90,2|2,0:0|0:0,0:0:0:0:
396,352,79921,1,2,0:0:0:0:
296,192,80083,1,8,0:0:0:0:
496,376,80245,1,8,0:0:0:0:
476,360,81056,6,0,L|480:312,2,45,8|8|8,0:3|0:3|0:3,0:0:0:0:
316,292,81381,1,8,0:0:0:0:
408,228,81543,1,0,0:0:0:0:
280,364,81705,6,0,L|268:188,1,153.000002918243,2|0,0:0|0:0,0:0:0:0:
395,152,82191,2,0,P|401:190|408:228,1,76.5000014591217,2|8,0:0|0:0,0:0:0:0:
180,280,82516,1,2,0:0:0:0:
136,188,82678,2,0,P|144:140|152:104,1,76.5000014591217,0|2,0:0|0:0,0:0:0:0:
240,64,83002,5,2,0:0:0:0:
44,236,83164,2,0,P|40:176|40:140,1,76.5000014591217,2|0,0:0|0:0,0:0:0:0:
240,208,83489,2,0,P|268:264|236:356,1,153.000002918243,2|2,0:0|0:0,0:0:0:0:
180,280,83975,1,0,0:0:0:0:
352,236,84137,1,2,0:0:0:0:
160,372,84300,6,0,B|104:368|40:360|40:360|68:332,1,153.000002918243,4|0,0:0|0:0,0:0:0:0:
180,280,84786,2,0,P|228:288|276:300,1,76.5000014591217,2|8,0:0|0:0,0:0:0:0:
352,236,85110,1,2,0:0:0:0:
144,148,85272,1,2,0:0:0:0:
160,372,85435,1,8,0:0:0:0:
184,368,85759,5,8,0:0:0:0:
368,248,86083,1,8,0:0:0:0:
128,132,86408,2,0,P|132:192|140:284,1,135.000005149842,8|0,0:0|0:0,0:0:0:0:
248,76,86894,1,4,0:1:0:0:
256,192,86975,12,0,89327,0:0:0:0:
